#TITLE:SUPER SEX DELIVERY 2;
#SUBTITLE:ENTER THE CUM ZONE;
#ARTIST:Reek;
#TITLETRANSLIT:;
#SUBTITLETRANSLIT:;
#ARTISTTRANSLIT:;
#GENRE:;
#CREDIT:NAOKI;
#MUSIC:SUPER SEX DELIVERY 2.ogg;
#BANNER:SSD2-bn.png;
#BACKGROUND:SSD2-bg.png;
#CDTITLE:naokicdtitle.png;
#SAMPLESTART:83.591;
#SAMPLELENGTH:12.800;
#SELECTABLE:YES;
#OFFSET:-0.393;
#BPMS:0.000=150.000;
#STOPS:;
#BGCHANGES:;
#FGCHANGES:;

//--------------- dance-single - NAOKI BR+ FS+ XO- SS- ----------------
#NOTES:
     dance-single:
     NAOKI BR+ FS+ XO- SS-:
     Challenge:
     14:
     0,0,0,0,0:
0002
0000
0103
0010
1000
0000
0001
0010
0000
0001
1000
0000
0011
0000
0100
0010
,
1000
0000
0000
0000
0100
0000
0010
0000
0001
0000
0100
00M0
0100
0000
1000
0000
0100
00M0
0100
0000
0001
0000
1000
0000
0200
0000
0000
0000
0310
0000
0001
0000
,
2100
0000
3010
0100
0001
0000
1000
0100
0000
1000
0001
0000
1010
0000
0001
0100
,
0010
0000
1000
0000
0100
00M0
0100
0000
0011
0000
0000
0000
1000
0000
0100
0000
1000
0000
0001
0000
0100
0000
0001
0000
1010
0000
0100
0000
0000
0000
1000
0000
,
0011
0100
0001
1000
0100
0010
0001
0100
0001
1000
0100
1000
0011
0100
0001
1000
,
0201
0000
0310
0001
1200
0310
1000
0201
0310
0001
1000
0010
1000
0100
0010
0001
,
2100
0000
0000
0000
3010
0000
0100
0000
0001
0000
0000
0000
1000
0000
0100
00M0
0100
0000
0001
0000
1010
0000
0001
0000
0100
00M0
0100
0000
1000
0000
0001
0000
,
0200
0000
0310
0004
0003
0010
1000
0001
0020
0000
0130
1000
0010
0010
0010
1000
,
0101
0000
1000
0001
0100
0100
1000
0011
1000
0100
0100
0001
0010
0001
0200
0000
,
0311
0000
1000
0001
0010
0010
1000
0101
1000
0010
0010
0001
0100
0010
2000
0000
,
3101
0000
1000
0010
0100
0010
1000
0101
1000
0010
0100
0010
1000
0001
0020
0000
,
4030
3000
0000
0000
0000
0000
0000
0000
10M0
0000
0000
0000
0100
0000
0000
0000
0010
0000
0000
0000
0001
0000
0000
0000
1000
0000
0000
0000
0010
0000
0000
0000
0004
0003
0000
0000
0000
0000
0000
0000
00M1
0000
0000
0000
0100
0000
0000
0000
0010
0000
0000
0000
1000
0000
0000
0000
0001
0000
0000
0000
0000
0000
0000
0000
,
1100
0000
0001
1000
0100
0100
0001
1010
0001
0100
0100
1000
0010
1000
0200
0000
,
1310
0000
0001
1000
0010
0010
0001
1100
0001
0010
0010
1000
0100
0010
0002
0000
,
1103
0000
0001
0010
0100
0010
0001
1100
0001
0010
1000
0010
0001
1000
0020
0000
,
1130
0000
0000
0000
0000
0000
0000
0000
0001
0000
0000
0000
1000
0000
0000
0000
0101
0000
0000
0000
0000
0000
0000
0000
1000
0000
0000
0000
0010
0000
0000
0000
0004
0003
0000
0000
0000
0000
0000
0000
0010
0000
0000
0000
1000
0000
0000
0000
0001
0000
0000
0000
0010
0000
0000
0000
0001
0000
0000
0000
1000
0000
0000
0000
,
0012
0000
0000
0000
0103
0000
0010
0000
1000
0000
0001
0000
0010
0000
0100
0000
1000
0000
0001
0100
0001
0000
1000
0000
0100
0000
0010
0000
0002
0000
0000
0000
,
2103
0000
3010
0100
0001
0000
0010
0100
1000
0001
1100
0000
0001
0010
0100
1000
,
0011
0000
0100
0001
1010
0000
0100
1000
0011
0000
0100
0001
1010
0000
0001
0000
,
1100
0000
0011
0000
1000
0101
0000
1000
0020
0000
1130
0000
0001
1000
0002
0000
,
0103
00M0
0100
0000
1000
0000
0000
0000
2001
0000
0000
0000
3100
00M0
0100
0000
0001
0000
1000
0000
0011
0000
1000
0000
0001
0000
0010
0000
0100
0000
1000
0000
,
0010
0000
0000
1000
0000
0000
0001
0000
0000
0010
0000
0000
0100
0000
0000
1000
0000
0001
0000
0100
0000
0010
0000
0000
1000
0000
0000
0001
0000
0000
0010
0000
0000
0001
0000
0000
1000
0000
0000
0010
0000
0000
0100
0000
0000
0001
0000
0000
,
2020
3030
0001
2200
3300
0022
0033
1000
0202
0303
1000
0022
0033
2200
3300
0001
,
0010
0000
0000
0000
0000
0000
0000
0000
0000
0000
0000
0000
0000
0000
0000
0000
0400
0000
0000
0000
0300
0000
0000
0000
4000
0000
0000
0000
3000
0000
0000
0000
0004
0000
0000
0000
0003
0000
0000
0000
0400
0000
0000
0000
0300
0000
0000
0000
0040
0000
0000
0030
0000
0000
0000
0000
0000
0000
0000
0000
4000
0000
0000
3000
0000
0000
0000
0000
0000
0000
0000
0000
0400
0000
0000
0300
0000
0000
0000
0000
0000
0000
0000
0000
0040
0000
0000
0030
0000
0000
0000
0000
0000
0000
0000
0000
0002
0000
0000
0003
0000
0000
0000
0000
0000
0000
0000
0000
0200
0000
0000
0300
0000
0000
0000
0000
0000
0000
0000
0000
0020
0000
0000
0030
0000
0000
0000
0000
0000
0000
0000
0000
2000
0000
0000
3000
0000
0000
0000
0000
0000
0000
0000
0000
0002
0000
0000
0003
0000
0000
0000
0000
0000
0000
0000
0000
0020
0000
0000
0030
0000
0000
0000
0000
0000
0000
0000
0000
0200
0000
0000
0300
0000
0000
0000
0000
0000
0000
0000
0000
0000
0000
0000
0000
0000
0000
0000
0000
0000
0000
0000
0000
,
1010
0001
0100
0001
1010
0100
0100
0100
1010
0001
0100
0001
2000
0000
3001
0000
,
0011
1000
0100
1000
0011
0100
0100
0100
0011
1000
0100
1000
0002
0000
1003
0000
,
2002
0000
3003
0000
,
0001
0000
0000
0000
0000
0000
0000
0000
0000
0000
0000
0000
1000
0000
0000
0000
0000
0000
0001
0000
0000
0100
0000
0000
0001
0000
0000
0000
0000
0000
0000
0000
0000
0000
0000
0000
1000
0000
0000
0000
0000
0000
0000
0000
0000
0000
0000
0000
0100
0000
0000
0000
0000
0000
0000
0000
0010
0000
0000
0000
0001
0000
0000
0000
0000
0000
0000
0000
1000
0000
0000
0000
0020
0000
0000
0000
0000
0000
0000
0000
0000
0000
0000
0000
0030
0000
0000
0000
0000
0000
0000
0000
0000
0000
0000
0000
,
1100
0000
0000
0001
0000
1000
0100
0000
0010
0001
0000
1100
0000
0000
0010
1000
0000
0001
0020
0000
0000
0130
0000
0000
,
1010
0000
0000
0001
0000
0000
0200
0000
0000
0301
0000
0010
0100
0000
1000
0001
0000
0100
0020
0000
0000
1030
0000
0000
,
0101
0000
0000
1000
0000
0001
0010
0000
0100
1000
0000
0011
0000
0000
0100
0001
0000
1000
0200
0000
0300
0020
0000
0030
,
1002
0000
0000
0103
0000
0010
1000
0000
0001
0010
0000
0100
1000
0000
0001
0100
0000
0010
2000
0000
0000
3001
0000
0000
,
1010
0000
0000
0001
0000
1000
0010
0000
0100
0001
0000
1010
0000
0001
1000
0010
0000
0100
0001
0000
0000
1000
0000
0000
,
0101
0000
0000
0010
0000
0100
1000
0000
0001
0100
0000
0011
0000
1000
0001
0010
0000
0000
0200
0000
0000
0310
0000
0000
,
0001
0000
0100
01M0
0000
1000
0011
0000
0000
1100
0000
0000
0002
0000
0000
2003
0000
0000
3101
0000
0000
1010
0000
0000
,
0002
0000
0000
0000
0000
0000
0000
0000
0000
0003
0000
0000
1100
0000
0000
0010
0000
1000
0000
0001
0000
0010
0000
0001
0000
1000
0000
0010
0000
0100
0000
0000
0000
0010
0000
0000
1000
0000
0000
0000
0001
0000
0010
0000
0000
0000
0100
0000
,
2010
0000
0000
3002
0000
0000
1003
0010
0100
0001
0000
1000
0100
1000
0001
0100
0000
0000
0020
0000
0000
0130
0000
0000
,
0012
0000
0000
0100
0000
0000
2003
0000
0000
0100
0000
3001
0100
0001
1000
0100
0000
0000
0020
0000
0000
0031
0000
0000
,
2100
0000
0000
0001
0000
0000
310M
0000
0010
0001
0000
1000
0010
1000
0001
0010
0000
0000
0200
0000
0000
1300
0000
0000
,
0011
0000
0000
0000
0000
0000
0000
0000
0000
0000
0000
0000
0000
0000
0000
0000
0000
0000
0000
0000
0000
0000
0000
0000
1100
0000
0000
0000
0000
0000
0000
0000
0000
0000
0000
0000
0000
0000
0000
0000
0000
0000
0000
0000
0000
0000
0000
0000
0001
0000
0000
0000
0000
0000
0000
0000
0000
0000
0000
0000
0000
0000
0000
0000
1000
0000
0000
0000
0000
0000
0000
0000
0100
0000
0000
0000
0000
0000
0000
0000
00M0
0000
0000
0000
0000
0000
0000
0000
0100
0000
0000
0000
0000
0000
0000
0000
0002
0000
0000
0003
0000
0000
0000
0000
0000
0000
0000
0000
0000
0000
0000
0000
0000
0000
0000
0000
0000
0000
0000
0000
1000
0000
0000
0000
0000
0000
0000
0000
0001
0000
0000
0000
0000
0000
0000
0000
0000
0000
0000
0000
0000
0000
0000
0000
1000
0000
0000
0000
0000
0000
0100
0000
0000
0000
0000
0000
1000
0000
0000
0000
0000
0000
0100
0000
0000
0000
0000
0000
1000
0000
0000
0000
0000
0000
0000
0000
0000
0000
0000
0000
0001
0000
0000
0000
0000
0000
0000
0000
0000
0000
0000
0000
,
0100
0100
0100
0010
0100
0100
0100
0002
0003
0100
2000
3000
0100
0002
1003
0100
,
0020
0030
0100
2000
3001
0100
0020
0030
1000
0002
0013
0100
1000
0001
1100
0000
,
0010
0000
0000
0000
2000
0000
3100
00M0
0100
0000
0002
0000
0013
0000
0000
0000
0002
0000
0103
00M0
0100
0000
2000
0000
3010
0000
0100
M00M
0100
0000
0100
0000
,
0000
0000
0000
0000
0001
0100
0001
1000
0100
1000
0010
1000
0001
0000
0000
0000
,
1010
0000
0000
0000
0001
0000
0000
1000
0100
0100
0100
1000
0000
0001
0100
0100
,
0010
0000
0100
0000
0100
0000
0001
0000
0000
0000
0100
00M0
0100
0000
0000
0000
1000
0000
0001
0000
0000
0000
0100
00M0
0100
0000
0000
0000
1000
0000
0001
0000
,
0200
0000
0000
0000
0000
0000
0310
0000
0000
0000
0000
0000
1000
0001
1000
0001
1000
0000
0100
0000
0100
0000
0001
0000
0000
0000
1000
0000
0100
0000
0100
0000
,
0010
0100
0100
1000
0000
0001
0100
0100
1000
0000
0001
0100
0100
0100
0001
0000
,
1010
0000
0000
0000
0000
0000
0100
0000
0000
0000
0000
0000
1000
0000
0000
0000
0000
0000
0001
0000
0000
0100
0000
0000
0010
0000
0000
0000
0002
0000
0000
0000
0003
0000
0000
0000
0010
0000
0000
0000
2000
0000
0000
0000
3000
0000
0000
0000
,
0100
0000
0000
0000
0002
0000
0000
0000
0003
0000
0000
0000
0100
0000
0000
0000
2000
0000
0000
0000
3000
0000
0000
0000
0020
0000
0000
0000
0130
0000
0000
0000
0000
0002
0000
0000
0000
1003
0000
0000
0000
0000
0200
0000
0000
0000
0000
0000
,
1300
0000
0001
0000
0100
0000
0000
0000
0010
0000
0000
0000
1000
0001
1000
0001
1000
0000
0100
0000
1000
0000
0001
0100
0001
0000
1000
0000
0200
0000
0000
0000
,
0310
0000
0000
0000
0000
0000
0000
0000
0000
0000
0000
0000
0001
0000
0000
0000
0000
0000
0000
0000
0000
0000
0000
0000
1000
0000
0000
0000
0000
0000
0000
0000
0000
0000
0000
0000
0010
0000
0000
0000
0000
0000
0000
0000
0000
0000
0000
0000
0100
0000
0000
0000
0000
0000
0000
0000
0000
0000
0000
0000
0001
0000
0000
0000
0000
0000
0000
0000
0000
0000
0000
0000
0040
0000
0000
0000
0030
0000
0000
0000
0000
0000
0000
0000
0100
0000
0000
0000
0000
0000
0000
0000
0000
0000
0000
0000
1000
0000
0000
0000
0000
0000
0000
0000
0000
0000
0010
0000
0000
0000
0000
0000
0000
0000
0000
0100
0000
0000
0000
0000
0000
0000
0000
0000
0000
0001
0000
0000
0000
0000
0000
0000
0000
0000
1000
0000
0000
0000
0000
0000
0000
0000
0000
0000
0100
0000
0000
0000
0000
0000
0000
0000
0000
0000
1000
0000
0000
0000
0000
0000
0000
0000
0000
0001
0000
0000
0000
0000
0000
0000
0000
0000
0000
0100
0000
0000
0000
0000
0000
0000
0000
0000
0010
0000
0000
0000
0000
0000
0000
0000
0000
0000
,
1000
0000
0100
0000
1000
0000
0001
0000
0100
00M0
0100
0000
1000
0000
0001
0000
0100
0000
0001
0000
1000
0000
0100
0000
1010
0000
0000
0000
0101
0000
0000
0000
,
1000
0000
0010
0000
1000
0000
0001
0000
0010
0M00
0010
0000
1000
0000
0001
0000
0010
0000
0001
0000
1000
0000
0010
0000
1100
0000
0000
0000
0011
0000
0000
0000
,
1000
0000
0001
0010
0101
0000
1010
0000
0100
1000
0001
0100
0011
0000
0100
0001
,
1000
0100
1010
0000
0001
0100
0011
0000
1100
0001
1000
0101
0040
0030
0001
0100
,
0010
0100
0001
1000
0101
0000
1000
0100
0010
0100
1000
0001
1100
0000
0010
0100
,
0001
1000
0100
0010
0001
0100
0010
1000
0001
0010
0001
1000
0011
0000
1000
0001
,
1100
0000
0001
1000
0101
0000
1000
0001
1100
0010
1000
0001
1010
0000
0001
1000
,
0101
0000
0000
0000
0010
0000
0000
0000
0001
0000
0000
0000
1000
0000
0000
0000
0020
0030
0000
0000
0100
0000
0000
0000
0100
0000
0000
0000
0020
0030
0000
0000
0100
0000
0000
0000
0100
0000
0000
0000
0020
0030
0000
0000
1000
0000
0000
0000
0001
0000
0000
0000
0010
0000
0000
0000
0100
0000
0000
0000
1000
0000
0000
0000
,
0011
0100
0001
1000
0001
0010
0100
1000
0010
0100
0100
1000
0010
0100
0100
1000
,
0010
0010
0001
0100
0010
0010
0001
0100
0010
1000
0010
0100
0001
0010
0100
1000
,
0001
0100
0100
0010
0001
0100
0100
1000
0010
0010
0100
1000
0010
0010
0100
1000
,
0010
0100
0001
0100
0010
1000
0001
0010
0101
0000
0010
0001
0000
1000
0010
0100
,
0011
1000
0100
0100
0011
1000
0100
0100
0011
1000
0100
0100
0011
0000
1000
0001
,
1010
0000
0000
0000
0000
0000
0000
0000
0000
0000
0000
0000
0001
0000
0000
0000
0000
0000
0000
0000
0000
0000
0000
0000
0100
0000
0000
0000
0000
0000
0000
0000
0000
0000
0000
0000
0100
0000
0000
0000
0000
0000
0000
0000
0000
0000
0000
0000
1010
0000
0000
0000
0000
0000
0000
0000
0000
0000
0000
0000
0001
0000
0000
0000
0000
0000
0000
0000
0000
0000
0000
0000
0100
0000
0000
0000
0000
0000
0000
0000
0000
0000
0000
0000
0100
0000
0000
0000
0000
0000
0000
0000
0000
0000
0000
0000
0010
0000
0000
0000
0000
0000
0000
0000
0000
0000
0001
0000
0000
0000
0000
0000
0000
0000
0000
0100
0000
0000
0000
0000
0000
0000
0000
0000
0000
0010
0000
0000
0000
0000
0000
0000
0000
0000
1000
0000
0000
0000
0000
0000
0000
0000
0000
0000
0100
0000
0000
0000
0000
0000
0000
0000
0000
0000
1000
0000
0000
0000
0000
0000
0000
0000
0000
0010
0000
0000
0000
0000
0000
0000
0000
0000
0000
0100
0000
0000
0000
0000
0000
0000
0000
0000
0001
0000
0000
0000
0000
0000
0000
0000
0000
0000
,
2010
0000
0000
0000
3002
0000
0000
0203
0000
0300
0010
1000
0100
1000
0010
0100
,
0001
0010
0001
0100
0010
1000
0100
0010
0001
0000
1000
0000
0012
0000
0000
0000
,
0103
00M0
0100
0000
2000
0000
0010
0000
3100
00M0
0100
0000
0002
0000
0010
0000
,
0103
00M0
0100
0000
1000
0000
0001
0000
0100
00M0
0100
0000
2000
0000
3000
0000
,
0010
0000
0100
0000
0002
0000
0010
0000
0103
00M0
0100
0000
2000
0000
0010
0000
,
3101
0000
0000
0000
1000
0001
0400
0300
,
0012
0000
0103
0010
1000
0000
0001
0000
2010
0000
3100
0010
0001
0000
1000
0000
,
0012
0000
0000
0000
0000
0000
0000
0000
0000
1100
0000
0000
0000
0000
0000
0000
0000
0000
2013
0000
0000
0000
0000
0000
0000
0000
0000
0101
0000
0000
0000
0000
0000
0000
0000
0000
3011
0000
0000
0000
0100
0000
0000
0000
0001
0000
0000
0000
,
1020
0000
0230
0000
1300
0001
0100
1000
0100
0010
1000
0001
0020
0000
0130
0000
,
2000
0000
0001
0000
3010
0100
0000
0100
0001
1000
0100
1000
0001
1000
0100
0010
,
0001
0100
0001
1000
0100
0010
0001
1000
0010
0100
0001
1000
0001
0010
0100
1000
,
0001
0100
0010
1000
0001
1000
0100
0010
0001
1000
0010
0100
0001
0010
0001
0100
,
0010
1000
0001
0010
0100
0010
0001
1000
0010
0100
0001
1000
0100
1000
0010
0100
,
0001
0010
0100
1000
0001
1000
0010
0100
0001
1000
0100
0010
0001
1000
0001
0100
,
0010
1000
0010
0100
0001
1000
0001
0010
0100
1000
0001
1000
0010
0100
0001
1000
,
0100
0010
0001
1000
0001
0100
0010
1000
0001
0010
0100
1000
0010
1000
0100
0010
,
0001
1000
0010
0100
0010
1000
0001
0010
0100
1000
0001
0100
0001
0010
0100
1000
,
0010
0100
0001
1000
0001
0010
0100
1000
0001
0100
0010
1000
0001
0010
0100
1000
,
0020
0000
0030
0000
;
