#TITLE:Replicant D-action;
#SUBTITLE:-Overhead T.T Remix-;
#ARTIST:橘 朋之;
#TITLETRANSLIT:;
#SUBTITLETRANSLIT:;
#ARTISTTRANSLIT:Tachibana Tomoyuki;
#CREDIT:Unknown StepMaker;
#BANNER:ReplicantD-action-bn.png;
#BACKGROUND:ReplicantD-action-bg.png;
#LYRICSPATH:Replicant D-action -Overhead T.T Remix-.lrc;
#CDTITLE:NAOKI_cdtitle.png;
#MUSIC:Replicant D-action -Overhead T.T Remix-.ogg;
#OFFSET:3.121;
#SAMPLESTART:303.507;
#SAMPLELENGTH:10.000;
#SELECTABLE:YES;
#DISPLAYBPM:*;
#BPMS:0.000=75.000,4.000=79.305,8.000=83.497,12.000=88.100,16.000=93.300,20.000=98.420,24.000=102.550,28.000=109.500,32.000=112.370,36.000=116.860,40.000=122.300,44.000=127.220,48.000=134.600,52.000=136.500,56.000=138.680,60.000=147.660,64.000=151.660,68.000=156.250,72.000=160.770,76.000=166.380,80.000=170.680,84.000=175.770,88.000=180.240,92.000=186.500,96.000=95.000,98.000=380.000,354.000=190.000,386.000=380.000,442.000=95.000,443.500=190.000,445.000=380.000,572.000=95.000,588.000=190.000,619.000=380.000,875.000=95.000,891.000=190.000,923.000=380.000,996.000=379.500,996.750=95.001,997.000=380.000,1001.500=190.001,1002.000=380.000,1132.000=95.000,1148.000=190.000,1241.000=380.000,1497.000=190.000,1529.000=380.000,1591.000=760.000,1595.000=190.001,1658.000=380.000,1784.000=190.000,1792.000=759.999;
#STOPS:619.000=0.320
,987.000=0.395
,987.500=0.395
,988.000=0.395
,988.500=0.395
,989.000=0.237
,989.500=0.237
,990.000=0.395
,990.500=0.395
,991.000=0.395
,991.500=0.395
,992.000=0.237
,992.500=0.237
,993.000=0.395
,993.500=0.395
,994.000=0.395
,994.500=0.395
,995.000=0.237
,995.500=0.237
,997.000=0.079
,997.500=0.079
,998.000=0.079
,998.500=0.158
,999.500=0.158
,1000.500=0.158
,1002.000=0.158
,1003.000=0.158
,1176.000=0.960
,1627.000=0.316
,1722.000=0.320
;
#BGCHANGES:;

//---------------dance-single - NAOKI----------------
#NOTES:
     dance-single:
     NAOKI:
     Easy:
     11:
     0.541,1.000,0.238,0.139,0.077:
0000
0000
0000
0000
,
0010
0010
1000
1000
,
0001
0001
0100
0100
,
0010
0010
1000
1000
,
0001
0001
0100
0100
,
0010
0010
1000
1000
,
0001
0001
0100
0100
,
0010
0010
1000
1000
,
0001
0001
0100
0100
,
0010
0010
1000
0100
,
0010
0010
0001
0100
,
1000
0100
0001
0010
,
0100
0100
1000
0010
,
0001
0010
1000
0100
,
0010
0010
0001
0100
,
0010
0010
1000
0100
,
0001
0100
1000
0010
,
0100
0001
1000
0100
,
0010
0001
1000
0010
,
0100
0001
1000
0100
,
0010
0001
1000
0010
,
0100
0100
0001
0001
,
1000
1000
0100
0100
,
0010
0001
1000
0010
,
0200
0000
0301
0000
,
0010
0000
0100
0000
,
1001
0000
1000
0000
,
0010
0000
0100
0000
,
1001
0000
0001
0000
,
0010
0000
0100
0000
,
1001
0000
1000
0000
,
0010
0000
0100
0000
,
1001
0000
0001
0000
,
0100
0000
0010
0000
,
1001
0000
1000
0000
,
0100
0000
0010
0000
,
1001
0000
0010
0000
,
0100
0000
0010
0000
,
1001
0000
0002
0000
,
0023
0000
0230
0000
,
2300
0000
3001
0000
,
0001
0000
0010
0000
,
0110
0000
1000
0000
,
0010
0000
0100
0000
,
0110
0000
0001
0000
,
0010
0000
0100
0000
,
0110
0000
1000
0000
,
1000
0000
0001
0000
,
0001
0000
0000
0000
,
1001
0000
1000
0000
,
0100
0000
0010
0000
,
0110
0000
0001
0100
,
0001
0100
0010
0000
,
0110
0000
0010
1000
,
0001
0000
0002
0000
,
0000
0000
1000
0000
,
1003
0000
1000
0000
,
0100
0000
0010
0000
,
1001
0000
0001
0000
,
0100
0000
0010
0000
,
1001
0000
1000
0000
,
0100
0000
0010
0000
,
1001
0000
0001
0000
,
0100
0000
0010
0000
,
1001
0000
1000
0000
,
0010
0000
0100
0000
,
1001
0000
0001
0000
,
0010
0000
0100
0000
,
1001
0000
0100
0000
,
0010
0000
0100
0000
,
1001
0000
2000
0000
,
3200
0000
0320
0000
,
0032
0000
1003
0000
,
1000
0000
0100
0000
,
0110
0000
0001
0000
,
0100
0000
0010
0000
,
0110
0000
1000
0100
,
1000
0000
0010
0000
,
0110
0000
0001
1000
,
0001
0000
1000
0001
,
1000
0000
0010
0000
,
1001
0000
0001
0100
,
0010
0000
0100
0000
,
0110
0000
1000
0100
,
0010
0000
0100
0000
,
0110
0000
0010
0001
,
0100
0000
0020
0000
,
0000
0000
0000
0000
,
0030
0000
0000
0000
1000
0100
1000
0000
,
0010
1000
0100
0001
,
0100
0000
1000
0000
0001
0100
0001
0000
,
0010
0001
0100
1000
,
0100
0000
0001
0000
1000
0010
1000
0000
,
0001
0010
0001
0000
1000
0000
0100
0000
,
0001
0100
2000
0001
,
0001
0001
0001
0001
,
0100
0100
3100
0000
0001
0000
0010
0000
,
0001
0000
0100
0000
,
0100
0000
0010
1000
,
0010
0000
0100
0000
,
0100
0000
0001
1000
,
0001
0000
0010
0000
,
0100
0000
1000
0001
,
1000
0000
0100
0000
,
0010
0000
0001
1000
,
0001
0000
1000
0001
,
1000
0000
0010
0100
,
0010
0000
0100
0010
,
0100
0000
0001
0010
,
0001
1000
0001
0100
,
0001
0000
0010
0000
0002
0000
0000
0003
,
0000
0000
1000
0000
,
0000
0001
0000
0000
,
0100
0000
0000
0010
,
0000
1000
0000
0100
,
0000
0000
0010
0000
,
0000
0001
0000
0000
,
0100
0000
0000
0010
,
0000
2020
0000
3030
,
0100
0001
0100
0000
,
0100
0010
0100
0000
,
0010
1000
0010
0000
,
0100
1000
0100
0000
,
0010
0100
0010
0000
,
1000
0100
1000
0000
,
0001
1000
0001
0000
,
0100
0001
0100
0000
,
1000
0000
0100
0000
,
1000
0100
1000
0000
,
0001
0000
0100
0000
,
0001
0100
0001
0000
,
0010
0000
0100
0000
,
0010
0100
0010
0000
,
1000
0000
0001
0000
,
1000
0001
1000
0000
,
1000
0000
0010
0000
,
0001
0000
0010
0000
,
1000
0000
0010
0000
,
0001
0000
0010
0000
,
0100
0001
0100
0000
,
1000
0100
1000
0000
,
0010
0001
0010
0000
,
1000
0010
1000
0000
,
0220
0000
0000
0330
,
0000
0000
0000
0000
,
0010
0100
0100
1000
0010
0010
0100
0001
,
0001
1000
0010
0010
0001
0010
1000
0100
,
0220
0000
0000
0000
,
0000
0000
0330
0000
,
0002
0000
0000
2000
0000
0000
0000
0000
,
0000
3003
0010
0010
,
1000
0000
0010
0000
0000
0100
0001
0000
,
0010
0000
0100
0000
0000
1000
0001
0000
,
1000
0000
0000
0001
0000
0000
1000
0000
,
0000
0001
0000
0000
0110
0000
1001
0000
,
0000
0001
0000
0100
,
1000
0010
0000
1000
,
0001
0010
0000
0100
,
1000
0100
0000
0001
,
0000
0100
0000
0010
,
0100
0001
0000
0100
,
0010
0100
0000
0010
,
1000
0100
0000
0001
,
0000
0010
0000
0001
,
0010
0100
0000
0001
,
1000
0010
0000
0100
,
0010
1000
0000
0001
,
0000
0100
0000
1000
,
0001
0010
0000
0100
,
0001
1000
0000
0010
,
1000
0001
0000
0010
,
0100
0010
0100
0010
,
0100
0010
0000
0001
,
1000
0001
1000
0001
,
1000
0001
0000
0100
,
0001
0100
0001
0100
,
0001
0100
0000
0010
,
1000
0010
1000
0010
,
1000
0010
0000
0100
,
0010
1000
0000
0001
,
0100
0010
0000
0010
,
0100
0001
0000
1000
,
0100
0010
0000
1000
,
0001
0010
0001
1000
,
0010
0100
0001
1000
,
0100
0010
0001
0010
,
0100
1000
0000
0100
,
0000
0100
0000
0000
0000
0100
0000
0000
0000
0001
0000
0000
,
0000
0001
0000
0000
0000
0001
0000
0000
0000
0010
0000
0000
,
0000
0010
0000
0000
0000
0010
0000
0000
0000
1000
0000
0000
,
0000
1000
0000
0000
0000
1000
0000
0000
0000
0100
0000
0000
,
0000
0100
0000
0000
0000
0100
0000
0000
0000
0001
0000
0000
,
0000
0001
0000
0000
0000
0001
0000
0000
0000
0010
0000
0000
,
0000
0010
0000
0000
0000
0010
0000
0000
0000
1000
0000
0000
,
0000
1000
0000
0000
0000
1000
0000
0000
0000
0100
0000
0000
,
0000
0100
0000
0000
0000
0100
0000
0000
0000
1000
0000
0000
,
0000
1000
0000
0000
0000
1000
0000
0000
0000
0010
0000
0000
,
0000
0010
0000
0000
0000
0010
0000
0000
0000
0001
0000
0000
,
0000
0001
0000
0000
0000
0001
0000
0000
0000
0100
0000
0000
,
0000
0100
0000
0000
0000
0100
0000
0000
0000
1000
0000
0000
,
0000
1000
0000
0000
0000
1000
0000
0000
0000
0010
0000
0000
,
0000
0010
0000
0000
0000
0010
0000
0000
0000
0001
0000
0000
,
0000
0001
0000
0000
0000
0001
0000
0000
0000
0100
0000
0000
,
0000
0100
0000
0000
0000
0100
0000
0000
0000
0001
0000
0000
,
0000
0100
0000
0000
0000
1000
0000
0000
0000
0100
0000
0000
,
0000
0100
0000
0000
0000
0100
0000
0000
0000
1000
0000
0000
,
0000
0100
0000
0000
0000
0001
0000
0000
0000
0100
0000
0000
,
0000
0100
0000
0000
0000
0100
0000
0000
0000
0001
0000
0000
,
0000
0100
0000
0000
0000
1000
0000
0000
0000
0100
0000
0000
,
0000
0100
0000
0000
0000
0100
0000
0000
0000
1000
0000
0000
,
0000
0100
0000
0000
0000
0001
0000
0000
0000
0001
0000
0000
,
0000
0100
0000
0000
0000
1000
0000
0000
0000
1000
0000
0000
,
0000
0100
0000
0000
0000
0001
0000
0000
0000
0001
0000
0000
,
0000
0010
0000
0000
0000
1000
0000
0000
0000
1000
0000
0000
,
0000
0010
0000
0000
0000
0001
0000
0000
0000
0100
0000
0000
,
0000
0100
0000
0000
0000
0100
0000
0000
0000
1000
0000
0000
,
0000
1000
0000
0000
0000
1000
0000
0000
0000
0010
0000
0000
,
0000
0010
0000
0000
0000
0010
0000
0000
0000
0220
0000
0000
,
0000
0000
0000
0000
0330
0000
0001
0001
,
0100
0000
1000
0010
1000
0001
1000
1000
,
0100
0000
0001
0010
0001
1000
0010
0100
,
0100
0001
0010
0010
0100
1000
1000
0001
,
0010
0010
1000
0010
0001
0100
1000
0000
,
1000
0100
0000
0001
,
0010
0001
1000
0001
,
0001
0100
0000
1000
,
0010
1000
0001
0010
,
0100
0100
1000
0010
,
0010
0100
0001
0001
,
1000
0010
0010
0100
,
0100
0100
0000
0010
,
0000
0010
0000
1000
,
0000
1000
0000
0001
,
0000
0001
0000
0100
,
0000
0100
0000
0010
,
0000
0010
0000
1000
,
0000
1000
0000
0001
,
0000
0001
0000
0100
,
0000
0100
0000
0010
,
0000
0010
0000
1000
,
0000
1000
0000
0001
,
0000
0001
0000
0100
,
0000
0100
0000
0002
,
0000
2003
3020
0230
,
0302
0003
0110
0000
,
1001
0000
0110
0000
,
0010
0000
0100
0000
0000
0000
0010
0010
,
0010
0010
0110
0110
0100
0100
0100
0100
,
0110
1001
0001
0001
0001
0001
1001
1001
,
2000
0000
3002
0203
0320
2030
3000
0110
,
0000
1001
0000
0010
0100
0000
0110
0000
,
0010
0000
1001
0000
,
0100
0000
1001
0000
,
0010
0000
1001
0000
,
0100
0000
1001
0000
,
0010
0100
0010
0000
,
0100
0000
0100
0000
,
0100
0010
0100
0000
,
0010
0000
0010
0000
,
0110
0000
1000
0000
,
0110
0000
0001
0000
,
0110
0000
1000
0000
,
0110
0000
0001
0000
,
1000
0100
1000
0100
,
0010
0001
0010
0001
,
0100
0010
0100
0010
,
1000
0001
1000
0001
,
0100
0000
1001
0000
,
0010
0000
1001
0000
,
0100
0000
1001
0000
,
0010
0000
1001
0000
,
0100
0010
0100
0000
,
0010
0000
0010
0000
,
0010
0100
0010
0000
,
0100
0000
0100
0000
,
0001
0100
0001
0100
,
0010
1000
0010
1000
,
0100
0010
0100
0010
,
0001
1000
0001
1000
,
0002
0000
2003
3020
,
0230
0302
0003
0110
,
0000
1001
0000
0110
,
0000
0100
0010
0000
,
1000
1000
0100
0000
0001
0010
0001
1000
,
0001
0001
0100
0000
1000
0010
1000
0001
,
0010
0100
0100
1000
0010
0010
0100
0001
,
0001
1000
0010
0010
0001
0010
1000
0100
,
0001
0001
0100
0000
,
1000
0010
1000
0001
,
1000
1000
0100
0000
,
0001
0010
0001
1000
,
0010
0100
0100
0001
,
0010
0010
0100
1000
,
1000
0001
0010
0010
,
1001
0010
1000
0100
,
1001
1000
0010
1000
,
0110
0100
0001
0100
,
1001
0001
0010
0001
,
0110
0000
0010
0100
0010
0000
0100
0000
,
0100
0000
0010
0100
0010
0000
0100
0000
,
0100
1000
0010
0001
,
0010
1000
0010
0100
,
1001
0000
0010
0000
1000
0000
0100
1000
,
0100
0000
1000
0000
0010
0000
1000
0010
,
1000
0000
0100
0000
0001
0000
0100
0001
,
0100
0000
0001
0000
0010
0000
0001
0010
,
0001
0010
0010
0100
,
0100
0001
0001
1000
,
1000
0000
1000
0100
1000
0000
0001
0100
,
0001
2000
3100
0002
,
0103
0001
0000
0010
,
0000
0100
0000
1001
,
0000
1000
0000
0010
,
0000
0100
0000
1001
,
0000
0100
0010
0100
,
0000
0010
0000
0010
,
0000
0010
0100
0010
,
0000
0100
0000
1001
,
0000
0001
0000
0100
,
0000
0010
0000
1001
,
0000
1000
0000
0100
,
0000
0010
0000
1001
,
0000
0010
0100
0010
,
0000
0100
0000
0100
,
0000
0002
0000
0023
,
0000
0230
0000
2300
,
0000
3001
0000
0001
,
0000
0010
0000
0110
,
0000
1000
0000
0010
,
0000
0100
0000
0110
,
0000
0001
0000
0010
,
0000
0100
0000
0110
,
0000
1000
0000
1000
,
0000
0001
0000
0001
,
0000
1000
0000
1000
,
0000
0010
0000
0110
,
0000
0001
0000
0010
,
0000
0100
0000
0110
,
0000
1000
0001
1000
,
0000
0001
0000
0001
,
0000
2000
0000
0000
,
0000
0001
0000
3001
,
0000
1001
0000
1000
,
0000
0010
0001
0100
,
0000
0001
1000
0100
,
0000
0010
0001
0010
,
0000
1000
0000
0010
,
0000
0100
0010
1000
,
0000
0010
0100
0010
,
0000
0100
0001
0010
,
0000
1000
0000
0100
,
0000
1000
0100
0010
,
0000
1000
0001
0100
,
0000
0010
0100
0001
,
0000
1000
0000
0010
,
0000
0001
1000
0100
,
0000
0010
1000
0001
,
0000
0100
0001
1000
,
0000
0010
0000
1000
,
0000
0100
0001
0010
,
0000
0001
1000
0010
,
0000
0100
0001
0100
,
0000
1000
0000
0100
,
0000
0010
0100
1000
,
0000
0100
0010
0100
,
0000
0010
0001
0100
,
0000
1000
0000
0010
,
0000
1000
0010
0100
,
0000
1000
0001
0010
,
0000
0100
0010
0001
,
0000
1000
0000
0100
,
0000
0001
1000
0010
,
0000
0100
1000
0001
,
0000
0010
0001
1000
,
0000
0010
1000
0001
,
0100
1001
0110
1001
,
0000
0010
0001
1000
,
0100
1001
0110
1001
,
0000
1000
0100
0010
,
0001
0110
1001
0110
,
0000
0001
0100
0010
,
1000
0000
0000
0010
0100
0010
0000
0100
,
0100
0010
0000
1000
,
0000
0001
0000
0100
,
0000
1001
0000
0110
,
0000
1001
0000
0000
,
0000
0010
0000
0001
,
0000
1000
0000
0100
,
0000
1001
0000
0110
,
0000
1001
0000
0000
,
0000
0010
0000
1000
,
0000
0001
0000
0001
,
0000
0010
0000
0010
,
0000
0200
0000
0300
,
0000
1000
0001
1000
,
0000
0001
1000
0001
,
0100
0000
0010
0100
,
0010
0000
0100
0200
,
0000
0000
0000
0301
,
1000
0000
0001
0010
0100
0000
1000
0010
,
0100
0001
0010
0000
0110
0000
0010
0001
,
0010
0000
0100
1000
0100
1000
0020
0000
,
2030
0000
3002
0000
0203
0000
0301
0010
,
0100
0000
1000
0000
0100
0000
0010
0001
,
0010
0000
1000
0010
1000
0000
0010
0010
,
1000
0000
0010
0010
0100
0000
0001
0010
,
0100
1000
0010
0100
0001
0000
1001
0000
,
0001
0000
0010
0000
0100
1000
0010
0000
,
0100
0001
0010
0000
0001
0100
1000
0000
,
0001
0100
1000
0000
0001
0100
1000
0100
,
0001
0000
0100
0000
0010
1000
0010
0000
,
0100
0001
0100
0000
0001
0010
0001
0000
,
1000
0100
1000
0000
0001
0000
0001
0000
,
1000
0000
1000
0000
0010
0100
0010
1000
,
0000
0001
0100
0000
0010
0000
1000
0000
,
0100
0010
0001
1000
,
0100
0010
0001
0001
,
0100
0100
0010
0010
,
1000
1000
0010
0100
,
0002
0000
0013
0100
,
1000
0010
0100
0001
,
0100
0001
1000
0100
,
1000
0100
0010
0001
,
0100
0010
1000
0010
,
0100
0001
1000
0100
,
0010
0001
0010
0100
,
1000
1000
0100
0010
,
0010
0010
0001
0001
,
0100
0100
0010
1000
,
0010
1000
0001
0100
,
0001
0100
1001
0001
,
0010
0100
0010
0001
,
0100
0010
1000
0100
,
1000
0100
0010
0100
,
0001
0100
1000
0010
,
0001
0100
0010
1000
,
0010
0100
0001
0010
,
0100
1000
0010
0001
,
0010
1000
0100
0010
,
1000
0100
0010
0001
,
0100
0010
1000
0010
,
0001
0010
1000
0100
,
1000
0100
0010
0100
,
0001
0010
0100
1000
,
0010
0100
0010
0001
,
0010
0100
0001
0010
,
0100
0000
0000
0000
,
0000
0000
0000
0000
,
0220
0000
0000
0000
,
0000
0000
0000
0000
,
0000
0000
0000
0000
,
0000
0000
0000
0000
,
0000
0000
0000
0000
,
0000
0000
0000
0000
,
0000
0000
0000
0000
,
0330
0000
0000
0000
,
2002
0000
0000
0000
,
0000
0000
0000
0000
,
0000
0000
0000
0000
,
0000
0000
0000
0000
,
3003
0000
0000
0000
;

//---------------dance-single - NAOKI----------------
#NOTES:
     dance-single:
     NAOKI:
     Beginner:
     7:
     0.272,0.456,0.007,0.025,0.000:
0000
0000
0000
0000
,
0001
0000
0001
0000
,
1000
0000
1000
0000
,
0010
0000
0010
0000
,
0100
0000
0100
0000
,
0001
0000
0001
0000
,
0010
0000
0010
0000
,
0100
0000
0100
0000
,
1000
0000
1000
0000
,
0001
0000
0001
0000
,
0100
0000
0100
0000
,
0010
0000
0010
0000
,
1000
0000
1000
0000
,
0001
0000
0001
0000
,
0010
0000
0010
0000
,
0100
0000
0100
0000
,
1000
0000
1000
0000
,
0001
0100
0001
0000
,
1000
0100
1000
0000
,
0001
0010
0001
0000
,
1000
0010
1000
0000
,
0001
0010
0100
1000
,
0001
0100
0010
1000
,
0001
0000
1000
0000
,
0020
0000
0130
0000
,
0100
0000
0100
0000
,
0000
0000
0010
0000
,
1000
0000
0001
0000
,
0010
0000
0100
0000
,
0100
0000
0100
0000
,
0000
0000
1000
0000
,
0001
0000
0100
0000
,
0010
0000
1000
0000
,
1000
0000
1000
0000
,
0000
0000
0001
0000
,
1000
0000
0100
0000
,
0010
0000
0001
0000
,
0001
0000
0001
0000
,
0000
0000
0100
0000
,
0010
0000
0100
0000
,
0010
0000
1000
0000
,
1000
0000
1000
0000
,
0000
0000
0001
0000
,
1000
0000
0100
0000
,
0010
0000
0001
0000
,
0001
0000
0001
0000
,
0000
0000
0100
0000
,
0010
0000
1000
0000
,
0001
0000
0010
0000
,
0010
0000
0010
0000
,
0000
0000
0100
0000
,
1000
0000
0001
0000
,
0100
0000
0010
0000
,
0010
0000
0010
0000
,
0000
0000
0100
0000
,
0100
0000
0100
0000
,
0100
0000
0001
0000
,
1000
0000
0100
0000
,
0000
0000
0010
0000
,
0001
0000
1000
0000
,
0010
0000
1000
0000
,
0001
0000
0010
0000
,
0000
0000
0100
0000
,
0010
0000
0001
0000
,
1000
0000
0010
0000
,
0100
0000
0001
0000
,
0000
0000
0010
0000
,
0100
0000
1000
0000
,
0001
0000
0100
0000
,
0100
0000
0100
0000
,
0000
0000
0010
0000
,
0010
0000
0010
0000
,
0010
0000
1000
0000
,
0100
0000
0010
0000
,
0000
0000
0001
0000
,
0100
0000
0010
0000
,
1000
0000
0001
0000
,
0010
0000
0100
0000
,
0000
0000
1000
0000
,
0010
0000
0100
0000
,
0001
0000
1000
0000
,
0010
0000
0100
0000
,
0000
0000
0001
0000
,
0010
0000
0100
0000
,
1000
0000
0001
0000
,
0100
0000
0010
0000
,
0000
0000
1000
0000
,
0000
0000
0001
0000
,
0000
0000
0100
0000
,
0100
0000
0010
0000
,
0010
0000
1000
0000
,
1000
0000
0001
0000
,
0001
0000
0010
0000
,
0010
0000
0100
0000
,
0100
0000
1000
0000
,
1000
0000
0001
0000
,
0001
0000
0100
0000
,
0010
0000
1000
0000
,
0000
0000
0100
0000
,
0010
0000
0001
0000
,
0000
0000
0010
0000
,
0100
0000
1000
0000
,
0000
0000
0010
0000
,
0100
0000
0001
0000
,
0000
0000
1000
0000
,
0100
0000
1000
0000
,
0100
0000
0010
0000
,
0001
0000
0010
0000
,
0001
0000
1000
0000
,
0010
0000
0100
0000
,
0001
0000
0000
0000
2000
0000
0000
3000
,
0000
0000
0001
0000
,
0000
0001
0000
0000
,
0001
0000
0000
0001
,
0000
0001
0000
0001
,
0000
0000
1000
0000
,
0000
1000
0000
0000
,
1000
0000
0000
1000
,
0000
1000
0000
0000
,
0001
0000
0001
0000
,
1000
0000
0010
0000
,
0100
0000
0100
0000
,
0001
0000
0000
0000
,
1000
0000
1000
0000
,
0001
0000
0010
0000
,
0100
0000
0100
0000
,
0100
0000
0100
0000
,
1000
0000
0010
0000
,
0000
0010
0000
0000
,
0100
0000
0000
0100
,
0000
0001
0000
0001
,
0000
0000
0010
0000
,
0000
0010
0000
0000
,
0100
0000
0000
0100
,
0000
1000
0000
0000
,
0001
0000
0100
0000
,
0010
0000
0100
0000
,
0001
0000
1000
0000
,
0100
0000
0010
0000
,
0100
0000
1000
0000
,
0000
0001
0000
0000
,
0100
0000
0000
0000
,
0000
0000
0000
0000
,
0220
0000
0000
0330
,
0000
0000
0000
0000
,
1000
0000
0000
0001
0000
0000
1000
0000
,
0000
0001
0000
0000
1000
0001
1000
0001
,
1000
0000
1000
0000
,
0001
0000
0001
0000
,
0100
0000
0100
0000
,
0010
0000
0010
0000
,
1000
0100
0000
0100
,
0000
0010
0000
0010
,
0000
0001
0000
0001
,
0000
1000
0000
1000
,
0000
0010
0000
0000
,
0000
0010
0000
0100
,
0000
0001
0000
1000
,
0000
0100
0000
0000
,
0000
0010
0000
0000
,
0000
0010
0000
0001
,
0000
1000
0000
0010
,
0000
0100
0000
0000
,
0000
0001
0000
0000
,
0000
0001
0000
0100
,
0000
0010
0000
1000
,
0000
0001
0000
0000
,
0000
1000
0000
0000
,
0000
1000
0000
0100
,
0000
0010
0000
0001
,
0000
1000
0000
0010
,
0000
0010
0000
0010
,
0000
0000
0000
0100
,
0000
0100
0000
0100
,
0000
0000
0000
0001
,
0000
0001
0000
0010
,
0000
0000
0000
1000
,
0000
1000
0000
0010
,
0000
0100
0000
0001
,
0000
0001
0000
0100
,
0000
0000
0000
1000
,
0000
1000
0000
0100
,
0000
0000
0000
0010
,
0000
0010
0000
0100
,
0000
0000
0000
1001
,
0000
0000
0000
0000
,
0000
0000
0000
0010
,
0000
0000
0000
1000
,
0000
0000
0000
0100
,
0000
0000
0000
0001
,
0000
0000
0000
0010
,
0000
0000
0000
1000
,
0000
0000
0000
0100
,
0000
0000
0000
0001
,
0000
0000
0000
0010
,
0000
0000
0000
0001
,
0000
0000
0000
0100
,
0000
0000
0000
1000
,
0000
0000
0000
0010
,
0000
0000
0000
0001
,
0000
0000
0000
0100
,
0000
0000
0000
1000
,
0000
0000
0000
0010
,
0000
0000
0000
1000
,
0000
0000
0000
0100
,
0000
0000
0000
0001
,
0000
0000
0000
0010
,
0000
0000
0000
1000
,
0000
0000
0000
0100
,
0000
0000
0000
0001
,
0000
0000
0000
0010
,
0000
0000
0000
0001
,
0000
0000
0000
0100
,
0000
0000
0000
1000
,
0000
0000
0000
0010
,
0000
0000
0000
0001
,
0000
0000
0000
0100
,
0000
0000
0000
1000
,
0000
0000
0000
0010
,
0000
0000
0000
0100
,
0000
0000
0000
0001
,
0000
1000
0000
0000
0001
0000
0000
1000
,
0000
0000
0001
1000
0001
1000
0001
0000
,
0000
0001
0000
1000
,
0000
1000
0000
0010
,
0000
0010
0000
0100
,
0000
0100
0000
0001
,
0000
0010
0000
0100
,
0000
1000
0000
0001
,
0000
0100
0000
0010
,
0000
1000
0000
0001
,
0000
0001
0000
0001
,
0000
0000
0000
1000
,
0000
1000
0000
1000
,
0000
0000
0000
0010
,
0000
0010
0000
0010
,
0000
0000
0000
0100
,
0000
0100
0000
0100
,
0000
0000
0000
0001
,
0000
0010
0000
0000
,
0000
0010
0000
0000
,
0000
0100
0000
0000
,
0000
0100
0000
1000
,
0000
0010
0000
0000
,
0000
0010
0000
0000
,
0000
0100
0000
0000
,
0000
0100
0000
0002
,
0000
0000
0000
0000
,
0000
0000
0000
0000
,
2003
0000
0000
0000
,
3000
0000
0000
0000
,
0010
0000
0100
0000
,
0000
0000
0100
0000
,
0001
0000
1000
0000
,
0000
0000
1000
0000
,
0100
0000
0010
0000
,
0000
0000
0010
0000
,
0001
0000
1000
0000
,
0010
0000
0100
0000
,
0001
0000
1000
0000
,
0000
0000
1000
0000
,
0100
0000
0010
0000
,
0000
0000
0010
0000
,
0001
0000
0100
0000
,
0000
0000
0100
0000
,
0010
0000
1000
0000
,
0001
0000
0010
0000
,
0100
0000
0100
0000
,
0100
0000
0000
0000
,
1000
0000
1000
0000
,
1000
0000
0000
0000
,
0001
0000
0001
0000
,
0001
0000
0000
0000
,
0100
0000
0100
0000
,
0100
0000
0000
0000
,
0010
0000
1000
0000
,
0010
0000
1000
0000
,
0001
0000
0100
0000
,
0001
0000
0100
0000
,
0010
0000
0010
0000
,
0010
0000
0000
0100
,
0000
0100
0000
0100
,
0000
0000
0000
0000
,
0001
0000
0000
0000
,
1000
0000
0000
0000
,
0010
0000
0000
0100
0000
0000
0010
0000
,
0000
0100
0000
0000
0010
0100
0010
0100
,
0010
0000
0010
0000
,
0100
0000
0100
0000
,
0001
0000
0001
0000
,
1000
0000
1000
0000
,
0100
0000
0100
0000
,
0010
0000
0010
0000
,
0001
0000
1000
0000
,
0010
0100
0000
0100
,
0000
0001
0000
0001
,
0000
1000
0000
1000
,
0000
0100
0000
0100
,
0000
0010
0000
0010
,
0000
0001
0000
0001
,
0000
1000
0000
1000
,
0000
0010
0000
0010
,
0000
0100
0000
0001
,
0000
1000
0000
0100
,
0000
0010
0000
0001
,
0000
1000
0000
0010
,
0000
0100
0000
0001
,
0000
0010
0000
0100
,
0000
1000
0000
0001
,
0000
0100
0000
0000
,
0000
0010
0000
0010
,
0000
0010
0000
0000
,
0000
1000
0000
1000
,
0000
1000
0000
0000
,
0000
0001
0000
0001
,
0000
0001
0000
0000
,
0000
0010
0000
0100
,
0000
1000
0000
0001
,
0000
0100
0000
0100
,
0000
0100
0000
0000
,
0000
0010
0000
0010
,
0000
0010
0000
0000
,
0000
1000
0000
1000
,
0000
1000
0000
0000
,
0000
0001
0000
0001
,
0000
0001
0000
0001
,
0000
0010
0000
0010
,
0000
0010
0000
0000
,
0000
0100
0000
0100
,
0000
0100
0000
0000
,
0000
1000
0000
1000
,
0000
1000
0000
0000
,
0000
0001
0000
0001
,
0000
0001
0000
0000
,
0000
0100
0000
0010
,
0000
1000
0000
0000
,
0000
0100
0000
0010
,
0000
0001
0000
1000
,
0000
0010
0000
0100
,
0000
0001
0000
0000
,
0000
1000
0000
0000
,
0000
0000
0000
0000
,
0000
0010
0000
0000
,
0000
0010
0000
0000
,
0000
0100
0000
0001
,
0000
1000
0000
0100
,
0000
0010
0000
0000
,
0000
0010
0000
0000
,
0000
0100
0000
1000
,
0000
0001
0000
0100
,
0000
0010
0000
0000
,
0000
0100
0000
0000
,
0000
0010
0000
1000
,
0000
0001
0000
0010
,
0000
0100
0000
0000
,
0000
0100
0000
0000
,
0000
0010
0000
0001
,
0000
1000
0000
0010
,
0000
0100
0000
0000
,
0000
0010
0000
0000
,
0000
1000
0000
1000
,
0000
1000
0000
0000
,
0000
0100
0000
0000
,
0000
0010
0000
0000
,
0000
0001
0000
0001
,
0000
0001
0000
0000
,
0000
0100
0000
0010
,
0000
0100
0000
0010
,
0000
1000
0000
0001
,
0000
1000
0000
0001
,
0000
0010
0000
0100
,
0000
0010
0000
0100
,
0000
1000
0000
0000
,
0000
0001
0000
0000
,
0000
0100
0000
0100
,
0000
0010
1000
0100
,
0000
0010
0000
0001
,
0000
1000
0010
0100
,
0000
0001
0000
0001
,
0000
0010
0001
0100
,
0000
0010
0000
1000
,
0000
0001
0010
0100
,
0000
1000
0000
0001
,
0000
1000
0000
0001
,
0000
0100
0000
0100
,
0000
0100
0000
0000
,
0000
0001
0000
1000
,
0000
0001
0000
1000
,
0000
0010
0000
0010
,
0000
0010
0000
0000
,
0000
0100
0000
0001
,
0000
1000
0000
0100
,
0000
0010
0000
0010
,
0000
0010
0000
0000
,
0000
0001
0000
0100
,
0000
0010
0000
1000
,
0000
0000
0100
0000
,
0000
0000
0010
0000
,
0000
0000
0000
0001
,
0000
0001
0000
1000
,
0000
1000
0000
0010
,
0000
0010
0000
0100
,
0000
0100
0000
0001
,
0000
0001
0000
0010
,
0000
0010
0000
0100
,
0000
0100
0000
1000
,
0000
1000
0000
0001
,
0001
0000
0100
0000
,
0010
0000
1000
0000
,
0001
0000
0010
0000
,
0100
0000
1000
0000
,
0010
0000
0100
0000
,
0001
0000
1000
0000
,
0100
0000
0010
0000
,
0001
0000
0100
0000
,
0100
0000
0010
0000
,
1000
0000
0100
0000
,
0100
0000
0010
0000
,
0001
0000
1000
0000
,
0010
0000
0100
0000
,
0001
0000
0010
0000
,
0100
0000
1000
0000
,
0000
0000
0010
0000
,
0010
0000
0100
0000
,
0001
0000
0010
0000
,
0010
0000
0100
0000
,
1000
0000
0001
0000
,
0100
0000
0010
0000
,
1000
0000
0100
0000
,
0010
0000
0002
0000
,
0000
0000
0003
0000
,
1000
0000
0010
0000
,
0100
0000
0010
0000
,
1000
0000
0001
0000
,
0010
0000
0100
0000
,
0010
0000
0001
0000
,
1000
0000
0010
0000
,
0100
0000
0000
0000
,
0001
0000
0100
0000
,
0010
0000
0100
0000
,
0001
0000
1000
0000
,
0100
0000
0010
0000
,
0100
0000
1000
0000
,
0001
0000
0100
0000
,
0010
0000
1000
0000
,
0100
0000
0010
0000
,
0001
0000
0000
0000
,
0000
0000
0000
0000
,
0200
0000
0000
0000
,
0000
0000
0000
0000
,
0000
0000
0000
0000
,
0000
0000
0000
0000
,
0000
0000
0000
0000
,
0000
0000
0000
0000
,
0000
0000
0000
0000
,
0300
0000
0000
0000
,
2002
0000
0000
0000
,
0000
0000
0000
0000
,
0000
0000
0000
0000
,
0000
0000
0000
0000
,
3003
0000
0000
0000
;

//---------------dance-single - NAOKI----------------
#NOTES:
     dance-single:
     NAOKI:
     Medium:
     15:
     0.754,1.000,0.339,0.322,0.119: // measure 1
0000
0000
0000
0000
,  // measure 2
0002
0000
0103
0000
0010
0100
1000
0000
,  // measure 3
2000
0000
3100
0000
0010
0100
0001
0000
,  // measure 4
0020
0000
0130
0000
0001
0010
0100
0000
,  // measure 5
0020
0000
0130
0000
1000
0010
0100
0000
,  // measure 6
0002
0000
0103
0000
0001
1000
0100
0000
,  // measure 7
2000
0000
3001
0000
1000
0001
0100
0000
,  // measure 8
0020
0000
0130
0000
0001
0010
0100
0000
,  // measure 9
0020
0000
0130
0000
1000
0010
0100
0000
,  // measure 10
0002
0000
0103
0000
0001
1000
0100
0000
,  // measure 11
2000
0000
3001
0000
1000
0001
0010
0000
,  // measure 12
0200
0000
0310
0000
0001
0100
0010
0000
,  // measure 13
0200
0000
0310
0000
1000
0100
0010
0000
,  // measure 14
0002
0000
0013
0000
0100
0010
0001
0000
,  // measure 15
2000
0000
3010
0000
0100
0010
1000
0000
,  // measure 16
0200
0000
0310
0000
0001
0100
0010
0000
,  // measure 17
0200
0000
0310
0000
1000
0100
0010
0000
,  // measure 18
0002
0000
1003
0000
0010
0100
0001
0000
,  // measure 19
2000
0000
3001
0000
0010
0100
1000
0000
,  // measure 20
0020
0000
0130
0000
0001
1000
0100
0000
,  // measure 21
0020
0000
0130
0000
1000
0001
0100
0010
,  // measure 22
2000
0000
3001
0000
0010
0100
1000
0000
,  // measure 23
0002
0000
1003
0000
0010
0100
0001
0000
,  // measure 24
0020
0000
0130
0000
0010
0001
1000
0010
,  // measure 25
0200
0000
0000
0000
0301
0000
0000
0100
,  // measure 26
0000
0001
0010
0100
,  // measure 27
2000
0000
0000
0000
3002
0000
0000
0103
,  // measure 28
0000
0001
0100
0010
,  // measure 29
1000
0000
0001
0000
2000
0000
0000
3100
,  // measure 30
0000
1000
0010
0100
,  // measure 31
0002
0003
1000
0001
,  // measure 32
0100
0001
1000
0010
,  // measure 33
0200
0000
0000
0000
0310
0000
0000
1000
,  // measure 34
0000
0001
0010
0100
,  // measure 35
0020
0000
0000
0000
0032
0000
0000
1003
,  // measure 36
0000
0010
1000
0001
,  // measure 37
0100
0000
0010
0000
2000
0000
0000
3001
,  // measure 38
0000
0100
0010
1000
,  // measure 39
0200
0300
1100
0000
,  // measure 40
0011
0000
0101
0000
,  // measure 41
1010
0000
0001
0001
,  // measure 42
0100
0001
0010
0100
,  // measure 43
2000
0000
0000
0000
3020
0000
0000
1030
,  // measure 44
0000
0010
0100
0001
,  // measure 45
0010
0000
0100
0000
0020
0000
0000
0031
,  // measure 46
0000
0100
0001
0010
,  // measure 47
0200
0000
0301
0100
,  // measure 48
1000
0100
0001
0100
,  // measure 49
1000
0100
0001
0000
,  // measure 50
1001
0000
0001
0010
,  // measure 51
0200
0000
0000
0000
2300
0000
0000
3001
,  // measure 52
0000
0100
0010
1000
,  // measure 53
0010
0000
0100
0000
0002
0000
0000
1003
,  // measure 54
0000
0010
1000
0010
,  // measure 55
0200
0000
0301
0001
,  // measure 56
1000
1000
0010
0010
,  // measure 57
0100
0000
0001
0000
1000
0000
0000
0010
,  // measure 58
0000
1000
0100
0010
,  // measure 59
0002
0000
0000
0000
2003
0000
0000
3010
,  // measure 60
0000
1000
0010
0100
,  // measure 61
0001
0000
1000
0000
0002
0000
0000
0013
,  // measure 62
0000
0001
0100
0010
,  // measure 63
2000
3000
0001
1000
,  // measure 64
0010
1000
0001
0100
,  // measure 65
0020
0000
0000
0000
0130
0000
0000
0001
,  // measure 66
0000
1000
0100
0010
,  // measure 67
0200
0000
0000
0000
2300
0000
0000
3001
,  // measure 68
0000
0100
0001
1000
,  // measure 69
0010
0000
0100
0000
0002
0000
0000
1003
,  // measure 70
0000
0010
0100
0001
,  // measure 71
0020
0030
0011
0000
,  // measure 72
1100
0000
1010
0000
,  // measure 73
0101
0000
1000
1000
,  // measure 74
0010
1000
0100
0010
,  // measure 75
0002
0000
0000
0000
0203
0000
0000
0301
,  // measure 76
0000
0100
0010
1000
,  // measure 77
0100
0000
0010
0000
0200
0000
0000
1300
,  // measure 78
0000
0010
1000
0100
,  // measure 79
0020
0000
1030
0010
,  // measure 80
0001
0010
1000
0010
,  // measure 81
0001
0010
1000
0000
,  // measure 82
1001
0000
1000
0100
,  // measure 83
0020
0000
0000
0000
0032
0000
0000
1003
,  // measure 84
0000
0010
0100
0001
,  // measure 85
0100
0000
0010
0000
2000
0000
0000
3001
,  // measure 86
0000
0100
0001
0100
,  // measure 87
0020
0000
1030
1000
,  // measure 88
0001
0001
0100
0100
,  // measure 89
0010
0000
0010
0000
1000
0100
1000
0000
,  // measure 90
0100
0000
0000
0100
0000
0000
0010
0000
0000
0010
0000
0000
0001
0000
0000
0000
,  // measure 91
0001
0100
0001
1000
0001
0010
0001
0000
,  // measure 92
0100
0000
0000
0100
0000
0000
0010
0000
0000
0010
0000
0000
1000
0000
0000
0000
,  // measure 93
1000
0010
1000
0001
1000
0010
0100
0001
,  // measure 94
0010
0000
0000
0100
0000
0000
0010
0000
0000
0001
0000
0000
0100
0000
0000
0000
,  // measure 95
1000
0000
0000
0100
0000
0000
0010
0000
0100
0000
0001
0000
1000
0000
0010
0000
,  // measure 96
0100
0000
0000
0010
0000
0000
0100
0000
0000
0001
0000
0000
0010
0000
0000
0000
,  // measure 97
1000
0000
0000
0010
0000
0000
0100
0000
1000
0000
0000
0000
0100
0000
0000
0000
,  // measure 98
1000
0000
0001
0100
,  // measure 99
0001
0000
1000
0010
,  // measure 100
1000
1000
0100
0010
,  // measure 101
0100
0000
0010
0001
,  // measure 102
0010
0000
0001
1000
,  // measure 103
0100
0000
1000
0001
,  // measure 104
0010
1000
0010
0001
,  // measure 105
0100
0000
0010
1000
,  // measure 106
0100
0001
0100
1000
,  // measure 107
0010
0001
0010
1000
,  // measure 108
0100
1000
0010
0100
,  // measure 109
0001
0010
0100
1000
,  // measure 110
0010
0100
0001
0100
,  // measure 111
1000
0000
0100
0000
0002
0000
2000
3003
,  // measure 112
0000
0000
1010
0000
,  // measure 113
0000
0011
0000
0000
,  // measure 114
1100
0000
0000
0101
,  // measure 115
0000
0010
0000
1000
,  // measure 116
0000
0000
0011
0000
,  // measure 117
0000
1010
0000
0000
,  // measure 118
0101
0000
0000
1100
,  // measure 119
0000
1000
0001
0010
,  // measure 120
0000
0000
0100
1000
,  // measure 121
0100
1000
0100
0010
,  // measure 122
0100
0010
0001
0010
,  // measure 123
0001
0010
0001
0100
,  // measure 124
0010
1000
0020
0030
,  // measure 125
0100
0001
0200
0300
,  // measure 126
0001
0001
1000
1000
,  // measure 127
0010
0010
0100
0100
,  // measure 128
0001
1000
0100
0010
,  // measure 129
0001
0010
0001
0000
,  // measure 130
0100
0010
0001
0100
,  // measure 131
0010
1000
0010
0000
,  // measure 132
0100
0010
0001
0100
,  // measure 133
0010
1000
0010
0000
,  // measure 134
1000
0010
1000
0001
,  // measure 135
0010
0001
1000
0000
,  // measure 136
0001
0100
0010
0000
,  // measure 137
1000
0100
0010
0000
,  // measure 138
0001
0100
0010
0000
,  // measure 139
1000
0100
0010
0000
,  // measure 140
0100
1000
0100
1000
,  // measure 141
0001
0100
0001
0100
,  // measure 142
0010
1000
0010
1000
,  // measure 143
0001
0010
0001
0000
,  // measure 144
0220
0000
0000
0330
,  // measure 145
1000
1000
0001
0001
0100
0010
0100
0001
,  // measure 146
1000
0000
0001
0100
0001
0000
1000
0000
0100
1000
0100
0000
0010
0000
0001
0100
,  // measure 147
0001
0000
1000
0000
0010
0100
0010
0000
1000
0000
0100
0000
0010
0000
0001
0000
,  // measure 148
0220
0000
0000
0000
,  // measure 149
0000
0000
0000
0000
0000
0000
0330
0001
,  // measure 150
2000
0000
0000
0002
0000
0000
0000
0000
,  // measure 151
0000
3003
0110
0110
,  // measure 152
0001
0000
1000
0100
1000
0000
0001
0000
,  // measure 153
0100
0001
0100
0000
0010
0000
1000
0001
,  // measure 154
0001
0000
1000
1100
0000
0001
0101
0000
,  // measure 155
1000
1001
0000
0010
0100
0010
0110
0000
,  // measure 156
0001
1000
0010
0100
,  // measure 157
0001
0010
0010
0001
,  // measure 158
1000
0000
0010
0000
0100
0010
0100
0000
,  // measure 159
0001
0100
0001
1000
,  // measure 160
0010
0100
0001
0100
,  // measure 161
0010
1000
1000
0100
,  // measure 162
0010
0000
0100
0000
0010
0001
0010
0000
,  // measure 163
0001
0100
0010
1000
,  // measure 164
0001
0010
0001
1000
,  // measure 165
0010
0100
0010
1000
,  // measure 166
0001
0000
0010
0000
0100
0010
0100
0000
,  // measure 167
0010
0001
1000
0100
,  // measure 168
1000
0001
0100
0001
,  // measure 169
1000
0010
1000
0100
,  // measure 170
1000
0000
0001
0000
0010
0100
0010
0000
,  // measure 171
0001
1000
0010
0100
,  // measure 172
0010
0020
0031
0010
,  // measure 173
0020
1030
0010
1000
,  // measure 174
0001
0000
0020
0000
0130
0010
0100
0000
,  // measure 175
0010
0001
0100
0001
,  // measure 176
0010
0020
1030
0010
,  // measure 177
0020
0031
0010
0001
,  // measure 178
1000
0000
0020
0000
0130
0010
0100
0000
,  // measure 179
0010
1000
0100
0010
,  // measure 180
0100
1000
0100
0001
,  // measure 181
0100
0000
0010
0000
0001
0100
0001
0000
,  // measure 182
0100
0010
0100
1000
,  // measure 183
0100
0000
0010
0000
1000
0100
1000
0000
,  // measure 184
0000
0000
0010
0000
0001
0100
0001
0000
,  // measure 185
0000
0000
0010
0000
1000
0010
1000
0000
,  // measure 186
0001
0010
0001
0010
,  // measure 187
0100
0010
0000
0100
,  // measure 188
0000
1000
0000
0000
0000
1100
0000
0000
0000
0010
0000
0000
,  // measure 189
0000
0001
0000
0000
0000
0011
0000
0000
0000
1000
0000
0000
,  // measure 190
0000
0010
0000
0000
0000
1010
0000
0000
0000
0100
0000
0000
,  // measure 191
0000
0001
0000
0000
0000
0101
0000
0000
0000
0010
0000
0000
,  // measure 192
0000
0001
0000
0000
0000
0011
0000
0000
0000
1000
0000
0000
,  // measure 193
0000
0010
0000
0000
0000
1010
0000
0000
0000
0100
0000
0000
,  // measure 194
0000
0001
0000
0000
0000
0101
0000
0000
0000
1000
0000
0000
,  // measure 195
0000
0100
0000
0000
0000
1100
0000
0000
0000
0101
0000
0000
,  // measure 196
0000
0101
0000
0000
0000
0101
0000
0000
0000
1010
0000
0000
,  // measure 197
0000
1010
0000
0000
0000
1010
0000
0000
0000
1100
0000
0000
,  // measure 198
0000
1100
0000
0000
0000
1100
0000
0000
0000
0011
0000
0000
,  // measure 199
0000
0011
0000
0000
0000
0011
0000
0000
0000
0101
0000
0000
,  // measure 200
0000
0101
0000
0000
0000
0101
0000
0000
0000
1100
0000
0000
,  // measure 201
0000
1100
0000
0000
0000
1100
0000
0000
0000
0110
0000
0000
,  // measure 202
0000
0110
0000
0000
0000
0110
0000
0000
0000
1001
0000
0000
,  // measure 203
0000
1001
0000
0000
0000
1001
0000
0000
0000
0100
0000
0000
,  // measure 204
0000
0100
0000
0000
0000
0100
0000
0000
0000
1010
0000
0000
,  // measure 205
0000
0101
0000
0000
0000
1010
0000
0000
0000
0001
0000
0000
,  // measure 206
0000
0001
0000
0000
0000
0001
0000
0000
0000
1100
0000
0000
,  // measure 207
0000
0011
0000
0000
0000
1100
0000
0000
0000
0010
0000
0000
,  // measure 208
0000
0010
0000
0000
0000
0010
0000
0000
0000
0011
0000
0000
,  // measure 209
0000
1100
0000
0000
0000
0011
0000
0000
0000
0100
0000
0000
,  // measure 210
0000
0100
0000
0000
0000
0100
0000
0000
0000
0110
0000
0000
,  // measure 211
0000
1001
0000
0000
0000
0110
0000
0000
0000
1100
0000
0000
,  // measure 212
0000
0101
0000
0000
0000
1100
0000
0000
0000
0011
0000
0000
,  // measure 213
0000
1010
0000
0000
0000
0011
0000
0000
0000
0101
0000
0000
,  // measure 214
0000
0110
0000
0000
0000
0101
0000
0000
0000
1010
0000
0000
,  // measure 215
0000
0110
0000
0000
0000
1010
0000
0000
0000
1100
0000
0000
,  // measure 216
0000
0101
0000
0000
0000
0011
0000
0000
0000
0101
0000
0000
,  // measure 217
0000
1100
0000
0000
0000
1010
0000
0000
0000
1001
0000
0000
,  // measure 218
0000
0110
0000
0000
0000
1001
0000
0000
0000
0220
0000
0000
,  // measure 219
0000
0000
0000
0000
0000
0000
0000
0000
0330
0000
0000
0000
1001
0000
0001
0010
,  // measure 220
0000
0100
1000
0000
0010
0000
1000
0000
0100
0000
1000
0000
1000
0000
1000
0010
,  // measure 221
0000
0100
0001
0000
0010
0000
0001
0000
0100
0000
0001
0000
1000
0000
0001
0100
,  // measure 222
0001
0000
1000
0000
0100
1000
0100
0000
0010
0000
0001
0100
0001
0000
1000
0000
,  // measure 223
0010
0100
0010
0000
1000
0000
0100
0000
0010
0000
0001
0000
1000
0000
0000
0000
,  // measure 224
1000
0010
0000
0100
0001
0000
0010
0000
,  // measure 225
0001
0100
0001
0001
,  // measure 226
0001
0010
0000
0100
1000
0000
0010
0000
,  // measure 227
1000
0100
1000
0001
,  // measure 228
1000
0100
1000
0000
0001
0000
0100
0001
,  // measure 229
0100
0000
0010
0000
1000
0100
1000
0000
,  // measure 230
0001
0000
0010
0100
0010
0000
0001
0000
,  // measure 231
0100
0000
0010
1000
0000
0000
0010
0000
,  // measure 232
1000
0100
0000
0010
,  // measure 233
0001
0100
0000
0010
,  // measure 234
1000
0001
0000
0010
,  // measure 235
0001
1000
0000
0100
,  // measure 236
1000
0010
0000
0100
,  // measure 237
0001
0010
0000
0100
,  // measure 238
1000
0001
0000
0100
,  // measure 239
0001
1000
0000
0010
,  // measure 240
1000
0100
0000
0010
,  // measure 241
0001
0100
0000
0010
,  // measure 242
1000
0001
0000
0010
,  // measure 243
0001
1000
0000
0002
,  // measure 244
0000
2003
3020
0230
,  // measure 245
0302
0003
0110
0000
,  // measure 246
1001
0000
0110
0000
,  // measure 247
0010
0000
0100
0000
0000
0000
0010
0100
,  // measure 248
1000
0001
0110
1001
0100
0010
0001
1000
,  // measure 249
0110
1001
0100
1000
0100
0001
0011
0101
,  // measure 250
0002
0000
2003
3020
0230
0302
0003
0110
,  // measure 251
0000
1001
0000
0001
2000
0000
3002
0000
,  // measure 252
1003
0000
1100
0000
,  // measure 253
0001
0000
0101
0000
,  // measure 254
0010
0000
0011
0000
,  // measure 255
1000
0000
1010
0000
,  // measure 256
0001
0010
1000
0001
,  // measure 257
0100
1000
0100
0001
,  // measure 258
1000
0010
0001
0010
,  // measure 259
1000
0001
0100
1000
,  // measure 260
0001
0000
0101
0000
,  // measure 261
0100
0000
1100
0000
,  // measure 262
1000
0000
1010
0000
,  // measure 263
0010
0000
0011
0000
,  // measure 264
1000
0010
0001
1000
,  // measure 265
0100
0001
0100
1000
,  // measure 266
0001
0010
1000
0001
,  // measure 267
0100
1000
0100
0001
,  // measure 268
1000
0000
1010
0000
,  // measure 269
0001
0000
0011
0000
,  // measure 270
0100
0000
0101
0000
,  // measure 271
1000
0000
1100
0000
,  // measure 272
0001
0010
1000
0001
,  // measure 273
0100
1000
0100
0001
,  // measure 274
1000
0010
0001
0010
,  // measure 275
1000
0001
0100
1000
,  // measure 276
0001
0001
0100
0100
,  // measure 277
0010
0010
1000
1000
,  // measure 278
0100
0001
0100
1000
,  // measure 279
0001
0010
1000
0010
,  // measure 280
0002
0000
2003
3020
,  // measure 281
0230
0302
0003
0110
,  // measure 282
0000
1001
0000
0110
,  // measure 283
0000
0010
0100
0000
,  // measure 284
1001
0000
0001
0100
0000
0010
1000
0000
0100
0000
1000
0000
0010
0000
1000
0000
,  // measure 285
1000
0000
1000
0100
0000
0010
0001
0000
0100
0000
0001
0000
0010
0000
0001
0000
,  // measure 286
1000
0000
0001
0010
0001
0000
1000
0000
0010
1000
0010
0000
0100
0000
0001
0010
,  // measure 287
0001
0000
1000
0000
0100
0010
0100
0000
1000
0000
0010
0000
0100
0000
0001
0000
,  // measure 288
1001
0000
1000
0100
0000
0010
0001
0000
,  // measure 289
0100
0001
0010
0001
,  // measure 290
0001
0000
0001
0100
0000
0010
1000
0000
,  // measure 291
0100
1000
0010
1000
,  // measure 292
1000
0100
1000
0000
0001
0100
0001
0000
,  // measure 293
1000
0100
1000
0000
0001
0100
0001
0000
,  // measure 294
1000
0010
1000
0010
1000
0100
1000
0100
,  // measure 295
2000
3000
0000
0000
0000
0000
0000
0000
0001
0000
0000
0000
0010
0000
0000
0000
0100
0000
0000
0000
0000
0000
0000
0000
1000
0000
0000
0000
0010
0000
0000
0000
,  // measure 296
0100
0000
0001
0100
1000
0000
0100
0001
,  // measure 297
0010
0000
1000
0010
0001
0000
1000
0010
,  // measure 298
0100
0000
0010
0100
0010
0000
1000
0001
,  // measure 299
0100
0000
0001
0010
0001
0000
1000
0100
,  // measure 300
1000
0000
0010
1000
0001
0000
0010
0001
,  // measure 301
0100
0000
0001
0100
1000
0000
0100
0001
,  // measure 302
0010
0000
0000
0000
0001
0000
0200
0000
0000
0302
0000
0000
2003
0000
0000
3020
,  // measure 303
0000
0130
0001
1000
0100
0000
0010
0001
,  // measure 304
0100
0000
0001
1000
0100
0000
1000
0010
,  // measure 305
0100
0000
0001
0010
0100
0000
1000
0001
,  // measure 306
0100
0000
0001
0010
0100
0000
1000
0010
,  // measure 307
0100
0000
0001
0010
1000
0000
1000
0010
,  // measure 308
0001
0000
1000
0100
0001
0000
0001
0100
,  // measure 309
1000
0000
0001
0100
0010
0000
1000
0001
,  // measure 310
0100
0000
0000
0000
0010
0000
2000
0000
0000
3002
0000
0000
0023
0000
0000
0230
,  // measure 311
0000
1300
0001
0000
0000
0100
0000
0000
,  // measure 312
0001
0010
0100
2000
,  // measure 313
0000
0000
3002
0000
0000
0103
0000
0000
,  // measure 314
0001
0100
0010
1000
,  // measure 315
0001
1000
0100
0001
,  // measure 316
1000
0010
0001
0010
,  // measure 317
1000
0001
0100
1000
,  // measure 318
0100
0001
0100
1000
,  // measure 319
0000
0000
0200
0000
0000
1300
0000
0000
,  // measure 320
0001
0010
0100
0020
,  // measure 321
0000
0000
0032
0000
0000
1003
0000
0000
,  // measure 322
0010
1000
0001
0100
,  // measure 323
0010
0000
2000
0000
0000
3001
0000
0000
,  // measure 324
0100
0010
1000
0200
,  // measure 325
0300
1100
0000
0011
,  // measure 326
0000
0101
0000
1010
,  // measure 327
0000
0001
0001
0100
,  // measure 328
0001
0010
0100
2000
,  // measure 329
0000
0000
3020
0000
0000
1030
0000
0000
,  // measure 330
0010
0100
0001
0010
,  // measure 331
0100
1000
0010
0001
,  // measure 332
1000
0100
0001
0100
,  // measure 333
1000
0001
0010
1000
,  // measure 334
0010
0001
1000
0100
,  // measure 335
0001
1000
0000
1001
,  // measure 336
0000
0001
0010
0200
,  // measure 337
0000
0000
2300
0000
0000
3001
0000
0000
,  // measure 338
0100
0010
1000
0010
,  // measure 339
0100
0000
0002
0000
0000
1003
0000
0000
,  // measure 340
0010
1000
0010
0200
,  // measure 341
0000
0301
0001
1000
,  // measure 342
1000
0010
0010
0100
,  // measure 343
0100
0010
1000
0001
,  // measure 344
0010
0100
1000
0010
,  // measure 345
0010
1000
0001
0010
,  // measure 346
0100
0010
0100
0000
1000
0000
0100
0000
,  // measure 347
1000
0001
0010
0100
,  // measure 348
1000
0100
0010
0001
,  // measure 349
0001
0100
0010
0100
,  // measure 350
0010
1000
0010
0000
1000
0000
0100
0000
,  // measure 351
0010
0001
1000
0010
,  // measure 352
1000
0001
0010
0100
,  // measure 353
0010
0001
1000
0010
,  // measure 354
0100
0010
0100
0000
0010
0000
1000
0000
,  // measure 355
0001
0100
0001
1000
,  // measure 356
0100
1000
0001
0010
,  // measure 357
0001
0000
1000
0001
1000
0000
0001
1000
,  // measure 358
0001
0000
0100
0010
0100
0000
0001
0000
,  // measure 359
1000
0100
0010
0020
,  // measure 360
1030
0010
0020
0031
,  // measure 361
0010
0001
1000
0020
,  // measure 362
0130
0010
0100
0000
0010
0000
1000
0000
,  // measure 363
0100
1000
0010
0020
,  // measure 364
0031
0010
0020
1030
,  // measure 365
0010
1000
0001
0020
,  // measure 366
0130
0010
0100
0000
0010
0000
0001
0000
,  // measure 367
0100
0010
0100
0001
,  // measure 368
0100
1000
0100
0010
,  // measure 369
1000
0100
1000
0000
0100
0000
0010
0000
,  // measure 370
0100
0001
0100
0010
,  // measure 371
0001
0100
0001
0000
0010
0000
1000
0000
,  // measure 372
0001
0100
1000
0100
,  // measure 373
0001
1000
0010
0001
,  // measure 374
0010
1000
0001
0100
,  // measure 375
1000
0000
0001
0010
0002
0000
1003
0100
,  // measure 376
1000
0001
1000
0010
1000
0100
1000
0000
,  // measure 377
0001
0100
0010
1000
0010
0000
0001
0100
,  // measure 378
0001
1000
0002
0000
2003
0000
3002
0000
,  // measure 379
0103
0010
1000
0010
1000
0000
0001
0100
,  // measure 380
0001
1000
0001
0010
0001
0100
0002
0000
,  // measure 381
1003
0100
0010
0001
0010
0000
0001
0100
,  // measure 382
0010
1000
0000
0010
0100
0010
0000
0100
,  // measure 383
0100
0001
0010
0100
,  // measure 384
0000
1000
0010
0100
,  // measure 385
0000
0110
0000
1001
,  // measure 386
0000
0110
0000
0001
,  // measure 387
0010
0100
1000
0100
,  // measure 388
0000
1000
0010
0100
,  // measure 389
0000
1001
0000
0110
,  // measure 390
0000
1001
0000
0001
,  // measure 391
0010
0100
1000
0010
,  // measure 392
0000
0100
0001
0010
,  // measure 393
0000
0110
0000
1001
,  // measure 394
0000
0110
0000
0001
,  // measure 395
0010
0100
0010
0001
,  // measure 396
0000
1000
0100
0010
,  // measure 397
0100
0000
0001
0010
,  // measure 398
0100
0000
0010
0020
,  // measure 399
0000
0000
0000
0000
0000
0000
0031
1000
,  // measure 400
0100
0010
0001
1000
0100
0010
0001
0001
,  // measure 401
0100
0100
0010
0010
1000
1000
0010
0100
,  // measure 402
0002
0000
0013
0100
1000
0010
0100
0001
,  // measure 403
0100
0001
1000
0100
1000
0100
0010
0001
,  // measure 404
0100
0010
1000
0010
0100
0001
1000
0100
,  // measure 405
0010
0001
0010
0100
1000
1000
0100
0010
,  // measure 406
0010
0010
0001
0001
0100
0100
0010
1000
,  // measure 407
0010
1000
0001
0100
0001
0100
1001
0001
,  // measure 408
0010
0100
0010
0001
0100
0010
1000
0100
,  // measure 409
1000
0100
0010
0100
0001
0100
1000
0010
,  // measure 410
0001
0100
0010
1000
0010
0100
0001
0010
,  // measure 411
0100
1000
0010
0001
0010
1000
0100
0010
,  // measure 412
1000
0100
0010
0001
0100
0010
1000
0010
,  // measure 413
0001
0010
1000
0100
1000
0100
0010
0100
,  // measure 414
0001
0010
0100
1000
0010
0100
0001
1000
,  // measure 415
0000
1000
0001
0000
0100
0000
0001
0000
,  // measure 416
0100
0000
0010
0100
0001
0000
0010
0000
,  // measure 417
0100
1000
0010
0100
,  // measure 418
0001
0000
0010
0100
1000
0000
0100
0000
,  // measure 419
0010
0001
0010
1000
,  // measure 420
0010
0001
0100
1000
,  // measure 421
0100
0000
0001
0000
1000
0100
1000
0000
,  // measure 422
0100
1000
0100
0000
1000
0001
1000
0000
,  // measure 423
0001
0100
0001
0000
0010
0000
0100
0000
,  // measure 424
0001
0100
1000
0010
,  // measure 425
0001
0000
0010
0000
1000
0010
1000
0000
,  // measure 426
0010
0000
0100
0000
0001
0100
0001
0000
,  // measure 427
0100
0010
1000
0100
,  // measure 428
0010
0001
0100
0010
,  // measure 429
1000
0000
0100
0000
0010
0001
0010
0000
,  // measure 430
0001
0100
0001
0000
0100
0010
0100
0000
,  // measure 431
0010
1000
0010
0000
0000
0000
1000
0000
,  // measure 432
0100
0010
0001
0010
,  // measure 433
0100
0000
1000
0100
1000
0000
0010
0000
,  // measure 434
0100
0000
0001
0100
0001
0000
0010
0000
,  // measure 435
0100
1000
0200
0000
,  // measure 436
1300
0100
0010
0001
,  // measure 437
0100
0001
0100
0000
0001
0100
0001
0000
,  // measure 438
1000
0100
1000
0000
0100
1000
0100
0000
,  // measure 439
1000
0100
0010
0001
,  // measure 440
0010
0100
1000
0001
,  // measure 441
0001
0100
0010
1000
,  // measure 442
0010
0100
0001
0010
,  // measure 443
0100
1000
0100
0000
1000
0100
1000
0000
,  // measure 444
0001
0100
0001
0000
0100
0001
0100
0000
,  // measure 445
0001
0010
0100
1000
,  // measure 446
0010
0100
0001
0010
,  // measure 447
1001
0000
0000
0000
,  // measure 448
0000
0000
0000
0000
,  // measure 449
0001
0000
1000
0000
,  // measure 450
0001
0000
1000
0000
,  // measure 451
0001
0000
1000
0000
,  // measure 452
0001
0000
1000
0000
,  // measure 453
0001
1000
0001
1000
,  // measure 454
0001
1000
0001
1000
,  // measure 455
0001
1000
0001
1000
,  // measure 456
0001
1000
0001
1000
,  // measure 457
0002
0000
0000
0000
,  // measure 458
0000
0000
0000
0000
,  // measure 459
0000
0000
0000
0000
,  // measure 460
0000
0000
0000
0000
,  // measure 461
0003
0000
0000
0000
;

//---------------dance-single - NAOKI----------------
#NOTES:
     dance-single:
     NAOKI:
     Hard:
     18:
     0.999,1.000,0.389,0.307,0.343: // measure 1
0000
0000
0000
0000
,  // measure 2
0001
0100
0010
0000
1000
0100
0010
0000
,  // measure 3
0001
0010
1000
0000
0010
0001
0100
0000
,  // measure 4
0010
1000
0100
0000
0010
0001
0100
0000
,  // measure 5
0001
0100
1000
0000
0100
0001
0010
0100
,  // measure 6
1000
0010
0100
0000
0001
0010
0100
0000
,  // measure 7
1000
0100
0001
0000
0100
1000
0010
0000
,  // measure 8
0100
0001
0010
0000
0100
1000
0010
0000
,  // measure 9
1000
0010
0001
0000
0010
1000
0100
0010
,  // measure 10
0001
0100
0010
0100
1000
0100
0010
0000
,  // measure 11
1000
0100
0001
0100
1000
0010
0100
0000
,  // measure 12
0010
1000
0100
0001
0100
1000
0010
0000
,  // measure 13
1000
0010
0001
0010
1000
0001
0010
0100
,  // measure 14
1000
0010
0100
0010
0001
0010
0100
0000
,  // measure 15
0001
0010
1000
0010
0001
0100
0010
0000
,  // measure 16
0100
0001
0010
1000
0010
0001
0100
0000
,  // measure 17
0001
0100
1000
0100
0001
0010
0100
0000
,  // measure 18
1001
0010
0100
0010
0001
0010
0100
0000
,  // measure 19
1000
0010
0001
0010
1000
0100
0010
0000
,  // measure 20
0100
1000
0010
0001
0010
1000
0100
0000
,  // measure 21
1000
0100
0001
0100
1000
0010
0100
0000
,  // measure 22
0110
0010
1000
0010
0001
0010
0100
0100
,  // measure 23
0010
1000
0001
0010
1000
0010
0001
0001
,  // measure 24
0100
0010
1000
0001
0010
0100
1000
0001
,  // measure 25
0200
0000
0000
0300
0001
0100
0001
0000
,  // measure 26
0100
0001
0010
0100
1000
0000
0100
0000
,  // measure 27
2200
0000
3300
0000
1000
0100
1000
0000
,  // measure 28
0100
1000
0100
0010
0001
0000
0010
0000
,  // measure 29
0001
0000
0010
0000
0001
0100
0001
0000
,  // measure 30
0100
0001
0010
0100
1000
0000
0100
0000
,  // measure 31
2200
3300
1000
1000
,  // measure 32
0001
0001
0010
0100
,  // measure 33
2000
0000
3000
0000
0001
0100
0001
0000
,  // measure 34
0100
0001
0010
0100
1000
0000
0100
0000
,  // measure 35
2200
0000
3300
0000
1000
0100
1000
0000
,  // measure 36
0100
1000
0100
0010
0001
0000
0100
0000
,  // measure 37
0010
0000
0100
0000
0001
0100
0001
0000
,  // measure 38
0100
0001
0010
0100
1000
0000
0001
0000
,  // measure 39
2000
0000
3000
0000
0001
0100
0001
0000
,  // measure 40
1000
0100
1000
0000
0001
0010
0001
0000
,  // measure 41
1000
0010
1000
0000
1010
0000
1010
0000
,  // measure 42
1000
0010
1000
0010
,  // measure 43
2020
0000
3030
0000
1000
0100
1000
0000
,  // measure 44
0001
0100
0001
0000
0100
0000
0100
0000
,  // measure 45
0001
0000
0100
0000
0001
0100
0001
0000
,  // measure 46
1000
0100
1000
0000
0001
0000
0100
0000
,  // measure 47
0202
0000
0303
0000
1000
0100
1000
0000
,  // measure 48
0010
0000
0100
0000
0001
0100
0001
0000
,  // measure 49
0010
0100
0010
0000
,  // measure 50
1001
0000
0001
0010
,  // measure 51
0200
0000
0300
0000
1000
0100
1000
0001
,  // measure 52
0100
0001
0100
0000
0001
0000
0010
0000
,  // measure 53
0001
0000
0100
0000
0001
0100
0001
0100
,  // measure 54
0001
1000
0100
1000
0001
0100
0010
1000
,  // measure 55
0002
0000
0003
0000
0100
0001
0100
0000
,  // measure 56
0001
0010
0001
0000
1000
0010
1000
0000
,  // measure 57
0100
1000
0100
0000
1000
0100
1000
0000
,  // measure 58
0100
1000
0010
0100
0001
0000
0100
0000
,  // measure 59
0202
0000
0303
0000
0001
0100
0001
0000
,  // measure 60
0100
0001
0100
0010
1000
0000
0010
0000
,  // measure 61
1000
0000
0010
0000
1000
0100
1000
0000
,  // measure 62
0100
1000
0010
0100
0001
0000
0100
0000
,  // measure 63
0202
0303
0001
0001
,  // measure 64
1000
1000
0010
0100
,  // measure 65
0002
0000
0003
0000
1000
0100
1000
0000
,  // measure 66
0100
1000
0010
0100
0001
0000
0100
0000
,  // measure 67
0202
0000
0303
0000
0001
0100
0001
0000
,  // measure 68
0100
0001
0100
0010
1000
0000
0100
0000
,  // measure 69
0010
0000
0100
0000
1000
0100
1000
0000
,  // measure 70
0100
1000
0010
0100
0001
0000
1000
0000
,  // measure 71
0002
0000
0003
0000
1000
0100
1000
0000
,  // measure 72
0001
0100
0001
0000
1000
0010
1000
0000
,  // measure 73
0001
0010
0001
0000
0011
0000
0011
0000
,  // measure 74
0001
0010
0001
0010
,  // measure 75
0022
0000
0033
0000
0001
0100
0001
0000
,  // measure 76
1000
0100
1000
0000
0100
0000
0100
0000
,  // measure 77
1000
0000
0100
0000
1000
0100
1000
0100
,  // measure 78
1000
0001
1000
0100
,  // measure 79
2200
0000
3300
0000
0001
0100
0001
0000
,  // measure 80
0010
0000
0100
0000
1000
0100
1000
0000
,  // measure 81
0010
0100
0010
1000
,  // measure 82
0001
0000
0100
0000
0010
1000
0010
0000
,  // measure 83
0200
0000
0300
0000
0001
0100
0001
1000
,  // measure 84
0100
1000
0100
0000
1000
0000
0010
0000
,  // measure 85
1000
0000
0100
0000
1000
0100
1000
0100
,  // measure 86
1000
0001
0100
0001
1000
0100
0010
0001
,  // measure 87
2000
0000
3000
0000
0010
0100
0010
0000
,  // measure 88
1000
0000
0001
0000
1000
0100
1000
0000
,  // measure 89
0001
0100
0001
0000
1000
0001
0100
0010
,  // measure 90
2000
0010
0000
3010
0000
0000
0020
0000
0000
0100
0000
0000
0130
0000
0000
0000
,  // measure 91
0001
0100
1000
0100
0001
0010
1000
0010
,  // measure 92
0002
0100
0000
0100
0003
0000
0200
0000
0000
0010
0000
0000
0310
0000
0000
0000
,  // measure 93
1000
0100
1000
0001
0100
0001
0100
0000
0001
0100
0001
0000
0010
0000
0100
0000
,  // measure 94
2000
0100
0000
0100
3000
0000
0001
0100
0000
0001
0000
0000
0100
0000
0000
0000
,  // measure 95
0001
0010
0000
0001
0010
0001
0100
0000
0002
0000
0000
0000
0000
0000
0000
0000
,  // measure 96
0000
0000
0000
0000
,  // measure 97
1000
1000
1003
0000
0010
0000
1000
0000
,  // measure 98
0100
0001
1000
0010
,  // measure 99
0001
1000
0100
0001
,  // measure 100
0100
1000
0010
0001
,  // measure 101
0010
0100
0001
0010
,  // measure 102
1000
0001
0100
1000
,  // measure 103
0010
0001
1000
0100
,  // measure 104
0001
1000
0001
1000
,  // measure 105
0001
1000
0001
0000
1000
0100
1000
0000
,  // measure 106
0001
0100
0001
0000
1000
0010
1000
0000
,  // measure 107
0001
0010
0001
0000
1000
0010
1000
0000
,  // measure 108
0001
0010
0001
0000
1000
0100
1000
0001
,  // measure 109
0100
0001
1000
0000
0001
1000
0100
1000
,  // measure 110
0001
0100
0001
0100
0010
1000
0001
0010
,  // measure 111
0001
1000
0010
1000
0020
0000
0000
0030
,  // measure 112
0000
0000
2000
0100
,  // measure 113
3100
0020
0001
0031
,  // measure 114
0100
0010
1000
0200
,  // measure 115
0010
0310
0001
1000
,  // measure 116
0000
1000
0002
0100
,  // measure 117
0103
0020
1000
1030
,  // measure 118
0100
0010
0001
0200
,  // measure 119
0010
0310
1000
0001
,  // measure 120
0000
0001
1000
0010
,  // measure 121
0100
0010
1000
0100
,  // measure 122
0010
0001
0100
0010
,  // measure 123
0100
0001
1000
0100
,  // measure 124
1000
0010
0100
0001
,  // measure 125
0010
0100
1000
0001
,  // measure 126
1000
0010
1000
0000
0001
0010
0001
0000
,  // measure 127
1000
0100
1000
0000
0001
0100
0001
0000
,  // measure 128
1000
0001
0010
0100
,  // measure 129
1000
0100
1000
0100
,  // measure 130
0010
0100
1000
0010
,  // measure 131
0100
0001
0100
0001
,  // measure 132
0010
0100
1000
0100
,  // measure 133
0001
0100
1000
0100
,  // measure 134
0001
0100
0001
0100
,  // measure 135
0001
0100
1000
0010
,  // measure 136
1000
0010
0100
0001
,  // measure 137
0010
0100
1000
0010
,  // measure 138
0100
0001
0010
0100
,  // measure 139
1000
0010
0100
0001
,  // measure 140
0010
0001
0010
0001
,  // measure 141
0100
0000
0000
0100
0010
0000
1000
0010
,  // measure 142
0100
0001
0100
0001
,  // measure 143
1000
0100
1000
0100
,  // measure 144
0220
0000
0000
0330
,  // measure 145
0001
1000
0001
0010
0000
0100
1000
0000
0000
0010
1000
0010
0100
0010
0001
0010
,  // measure 146
1000
0100
0001
0100
1001
0000
0001
0100
1000
0100
1001
0000
1000
0100
0001
0100
,  // measure 147
1001
0000
0001
0100
1000
0100
1001
0000
1000
1000
0100
0100
0010
0010
0001
0000
,  // measure 148
1000
0001
1000
0010
0000
0100
0001
0000
,  // measure 149
0000
0010
0001
0010
0100
0010
1000
0010
,  // measure 150
0002
0000
0000
2000
0000
0000
0000
0000
,  // measure 151
0000
3003
0011
1100
,  // measure 152
1000
0000
1000
0000
0100
0000
0010
0100
0010
0100
0010
0000
0001
0000
0100
0010
,  // measure 153
0100
0000
0100
0000
0010
0000
1000
0100
1000
0100
1000
0000
0001
0000
1000
0100
,  // measure 154
1000
0001
0010
0101
0000
0010
1100
0000
,  // measure 155
0010
1001
0000
0100
0010
0100
0110
0000
,  // measure 156
0001
0000
1000
0000
0100
0010
0100
0000
,  // measure 157
1000
0000
0001
0100
0001
0000
1000
0100
,  // measure 158
1000
0000
0010
0000
0100
0010
0100
0000
,  // measure 159
0001
0000
0010
0000
0100
0000
1000
0010
,  // measure 160
1000
0000
0001
0000
0010
0100
0010
0000
,  // measure 161
0100
0000
1000
0001
1000
0000
0010
0100
,  // measure 162
0010
0000
0100
0000
0001
0010
0001
0000
,  // measure 163
1000
0000
0010
0000
0100
0000
0010
1000
,  // measure 164
0100
0000
0010
0000
0100
1000
0010
0000
,  // measure 165
0100
0000
0010
1000
0100
0000
0010
0001
,  // measure 166
0100
0000
0010
0000
0100
0001
0010
0000
,  // measure 167
0001
0000
1000
0000
0010
0000
0100
0001
,  // measure 168
1000
0000
0100
0000
1000
0001
0100
0000
,  // measure 169
0010
0000
0100
0001
1000
0000
0100
1000
,  // measure 170
0001
0000
0100
0000
0001
0010
0100
0000
,  // measure 171
1000
0000
0001
0000
0100
0000
0010
1000
,  // measure 172
0001
1000
0100
0000
0010
0001
0100
0000
,  // measure 173
0010
0000
1000
0100
1000
0000
0001
0010
,  // measure 174
0200
0000
1300
0000
0001
0100
0001
0000
,  // measure 175
1000
0100
1000
0000
0100
0000
0010
0001
,  // measure 176
1000
0001
0100
0000
0010
1000
0100
0000
,  // measure 177
0010
0000
0001
0100
0001
0000
1000
0010
,  // measure 178
0200
0000
0301
0000
1000
0100
1000
0000
,  // measure 179
0001
0100
0001
0000
0010
0000
0001
0100
,  // measure 180
0010
0100
0001
0000
1000
0010
0100
0000
,  // measure 181
0010
0000
1000
0100
0010
0000
0001
1000
,  // measure 182
0010
0000
0100
0000
0001
1000
0100
0000
,  // measure 183
0010
0100
0010
0000
0001
0000
1000
0010
,  // measure 184
0100
0010
1000
0000
0001
0010
0100
0000
,  // measure 185
0010
0000
0001
0100
0010
0000
1000
0001
,  // measure 186
0010
0000
0100
0000
0010
0001
1000
0010
,  // measure 187
0100
0110
0000
1010
,  // measure 188
0000
0101
0000
0000
0000
1100
0000
0000
0000
0011
0000
0000
,  // measure 189
0000
1100
0000
0000
0000
0101
0000
0000
0000
1010
0000
0000
,  // measure 190
0000
1001
0000
0000
0000
1100
0000
0000
0000
0011
0000
0000
,  // measure 191
0000
1001
0000
0000
0000
0101
0000
0000
0000
0011
0000
0000
,  // measure 192
0000
1100
0000
0000
0000
0101
0000
0000
0000
1010
0000
0000
,  // measure 193
0000
0101
0000
0000
0000
1100
0000
0000
0000
0011
0000
0000
,  // measure 194
0000
1001
0000
0000
0000
0101
0000
0000
0000
1010
0000
0000
,  // measure 195
0000
1001
0000
0000
0000
1100
0000
0000
0000
0011
0000
0000
,  // measure 196
0000
1010
0000
0000
0000
1100
0000
0000
0000
0101
0000
0000
,  // measure 197
0000
1100
0000
0000
0000
1010
0000
0000
0000
0011
0000
0000
,  // measure 198
0000
1100
0000
0000
0000
0101
0000
0000
0000
1010
0000
0000
,  // measure 199
0000
0101
0000
0000
0000
1100
0000
0000
0000
1010
0000
0000
,  // measure 200
0000
0011
0000
0000
0000
0101
0000
0000
0000
1100
0000
0000
,  // measure 201
0000
0101
0000
0000
0000
0011
0000
0000
0000
1010
0000
0000
,  // measure 202
0000
0101
0000
0000
0000
1100
0000
0000
0000
0011
0000
0000
,  // measure 203
0000
1100
0000
0000
0000
0101
0000
0000
0000
0010
0000
0001
,  // measure 204
0000
0100
0000
0010
0000
0100
0000
0001
0000
0011
0000
0000
,  // measure 205
0000
1100
0000
0000
0000
0101
0000
0000
0000
0010
0000
1000
,  // measure 206
0000
0100
0000
0010
0000
0100
0000
1000
0000
1010
0000
0000
,  // measure 207
0000
0101
0000
0000
0000
1100
0000
0000
0000
0010
0000
0001
,  // measure 208
0000
0100
0000
0010
0000
0100
0000
0001
0000
0011
0000
0000
,  // measure 209
0000
1100
0000
0000
0000
0101
0000
0000
0000
0010
0000
1000
,  // measure 210
0000
0100
0000
0010
0000
0100
0000
1000
0000
1010
0000
0000
,  // measure 211
0000
0101
0000
0000
0000
1100
0000
0000
0000
1000
0000
0001
,  // measure 212
0000
0100
0000
0010
0000
0100
0000
0001
0000
1000
0000
0100
,  // measure 213
0000
0010
0000
0100
0000
1000
0000
0010
0000
1000
0000
0001
,  // measure 214
0000
0100
0000
0010
0000
0100
0000
0001
0000
1000
0000
0100
,  // measure 215
0000
0010
0000
0100
0000
1000
0000
0001
0000
0010
0000
0001
,  // measure 216
0000
0100
0000
0010
0000
0100
0000
0010
0000
1000
0000
0100
,  // measure 217
0000
0010
0000
0001
0000
0010
0000
0001
0000
1001
0000
0000
,  // measure 218
0000
1100
0000
0000
0000
0101
0000
0000
0000
0220
0000
0000
,  // measure 219
0000
0000
0000
0000
0000
0000
0000
0000
0330
0000
0000
0000
1000
0001
1000
0100
,  // measure 220
0000
0010
0001
0000
0000
0100
0001
0100
0010
0100
1000
0100
0001
1000
0001
0010
,  // measure 221
0000
0100
1000
0000
0000
0010
1000
0010
0100
0010
0001
0010
1000
0100
0001
0100
,  // measure 222
1001
0000
0001
0100
1000
0100
1001
0000
1000
0100
0001
0100
1001
0000
0001
0100
,  // measure 223
1000
0100
1001
0000
1000
1000
0100
0100
0010
0010
0001
0000
0001
0000
1000
0000
,  // measure 224
0001
0100
0000
0010
1000
0000
0000
0100
,  // measure 225
1000
0100
0010
0100
0001
0100
1000
0001
,  // measure 226
1000
0010
0000
0100
0001
0000
0000
0010
,  // measure 227
0001
0010
0100
0010
1000
0010
0001
0100
,  // measure 228
1000
0100
1001
0000
1000
0100
0001
0100
,  // measure 229
1001
0000
0001
0100
1000
0100
1001
0000
,  // measure 230
1000
0100
0001
0100
1001
0000
0010
0100
,  // measure 231
0010
0100
0001
1000
0100
0000
1000
0000
,  // measure 232
0010
0100
0001
0010
,  // measure 233
0100
1000
0001
0010
,  // measure 234
1000
0001
0100
1000
,  // measure 235
0010
0100
0001
1000
,  // measure 236
0100
0010
0001
0100
,  // measure 237
0010
1000
0001
0100
,  // measure 238
1000
0001
0010
1000
,  // measure 239
0001
0010
0001
0000
1000
0000
0001
0000
,  // measure 240
0100
0010
1000
0100
,  // measure 241
0010
0001
1000
0100
,  // measure 242
0001
1000
0010
0001
,  // measure 243
0100
0010
1000
0002
,  // measure 244
0000
2003
3020
0230
,  // measure 245
0302
0000
0003
0000
0010
0000
0100
1000
,  // measure 246
0100
0000
1000
0010
1000
0000
0001
0010
,  // measure 247
0001
0000
0100
0001
0100
0000
0020
2030
,  // measure 248
3002
0023
2030
3002
0203
0320
2030
3002
,  // measure 249
0023
2030
3200
0302
0023
2030
3200
0320
,  // measure 250
0032
0000
2003
3020
0230
0302
0003
0110
,  // measure 251
0000
1001
0000
0100
0110
0000
1001
0000
,  // measure 252
0001
0100
0001
0000
1000
0100
0000
1000
,  // measure 253
0100
0010
0001
0000
0010
0001
0100
0000
,  // measure 254
0001
1000
0100
0000
1000
0001
0000
0100
,  // measure 255
0001
0010
0100
0000
1000
0010
0100
0000
,  // measure 256
0010
1000
0001
0100
,  // measure 257
0010
1000
0001
0100
,  // measure 258
0010
1000
0010
0001
,  // measure 259
1000
0100
0001
0010
,  // measure 260
0001
0100
0010
0000
1000
0100
0000
0010
,  // measure 261
0001
0100
0010
0000
1000
0100
0000
0010
,  // measure 262
0001
0100
0010
0000
1000
0100
0000
0010
,  // measure 263
0001
0010
0100
0000
1000
0010
0100
0000
,  // measure 264
0002
0000
2003
3020
,  // measure 265
0230
0302
0003
1001
,  // measure 266
0000
0110
0000
1001
,  // measure 267
0000
0001
1000
0000
,  // measure 268
0100
1000
0010
0000
0100
0000
0001
0010
,  // measure 269
0001
0000
0010
0000
0100
1000
0010
0000
,  // measure 270
1000
0001
0010
0000
0001
0000
0001
1000
,  // measure 271
0100
0000
0010
0000
0100
0010
0001
0000
,  // measure 272
0100
0001
1000
0010
,  // measure 273
0100
0001
1000
0010
,  // measure 274
0100
0001
0100
1000
,  // measure 275
0001
0010
1000
0100
,  // measure 276
0010
0010
0001
0001
,  // measure 277
1000
1000
0010
0010
,  // measure 278
0100
0100
0001
0001
,  // measure 279
1000
1000
0100
0100
,  // measure 280
0012
0000
2003
3020
,  // measure 281
0230
0302
0003
0101
,  // measure 282
0000
1100
0000
0011
,  // measure 283
0000
1000
1010
0000
,  // measure 284
1000
0001
1000
0010
0000
0100
0001
0000
0000
0010
0001
0010
0100
0010
1000
0010
,  // measure 285
0001
1000
0010
0100
0001
1000
0010
0100
0001
0010
1000
0001
0100
1000
0010
1000
,  // measure 286
0001
0100
1000
0100
1001
0000
1000
0100
0001
0100
1001
0000
0001
0010
1000
0010
,  // measure 287
0001
0100
0010
1000
0001
0100
0010
1000
0010
0001
1000
0100
0001
0010
0100
1000
,  // measure 288
0001
1000
0001
0100
0000
0010
1000
0000
,  // measure 289
0000
0100
1000
0100
0010
0100
0001
0100
,  // measure 290
0010
0001
0100
0010
1000
0100
0001
0100
,  // measure 291
1000
0010
0001
0010
1000
0100
0110
0000
,  // measure 292
1000
0100
0001
0100
1001
0000
0001
0100
,  // measure 293
1000
0100
1001
0000
1000
0100
0001
0100
,  // measure 294
1000
0000
0000
0010
0000
0000
0100
0000
0000
0001
0000
0000
0010
0000
0100
0000
,  // measure 295
2000
3000
0000
0000
0000
0000
0000
0000
0001
0000
0000
0000
0100
0000
0000
0000
1000
0000
0000
0000
0100
0000
0000
0000
0001
0000
0000
0000
0010
0000
0000
0000
,  // measure 296
0001
1000
0010
0001
0010
1000
0100
1000
,  // measure 297
0100
0001
0100
1000
0010
0100
0001
0010
,  // measure 298
1000
0010
0001
0100
1000
0100
0001
0010
,  // measure 299
0110
0000
0001
0100
1000
0010
0100
0001
,  // measure 300
0100
1000
0001
0010
0100
0001
0010
0100
,  // measure 301
0001
0000
0100
0000
1000
0000
0000
0001
0000
0000
0010
0000
0000
0100
0000
0000
,  // measure 302
1000
0000
0000
0010
0000
0000
0200
0000
0000
0302
0000
0000
0023
0000
0000
0230
,  // measure 303
0000
0000
1300
0000
0010
0000
0100
0001
0000
0100
1000
0000
0100
0001
0000
0010
,  // measure 304
0100
0000
0110
0000
0100
0000
0010
1000
0000
0010
0001
0000
0100
1000
0000
0100
,  // measure 305
0010
0000
0110
0000
0100
0000
0001
0010
0000
1000
0001
0000
0100
1000
0000
0010
,  // measure 306
0100
0000
0110
0000
0010
0000
1000
0100
0000
0001
1000
0000
0010
0001
0000
0100
,  // measure 307
0010
0000
1000
0000
0100
0000
0010
0001
0000
0010
1000
0000
0010
0001
0000
0100
,  // measure 308
0010
0000
0110
0000
0010
0000
0100
1000
0000
0100
0001
0000
0010
1000
0000
0010
,  // measure 309
0100
0000
0110
0000
0010
0000
0001
0100
0000
1000
0001
0000
0010
1000
0000
0100
,  // measure 310
0010
0000
0001
0000
0100
0000
0020
0000
0000
2030
0000
0000
3200
0000
0000
0320
,  // measure 311
0000
0031
1000
0010
1000
0000
0010
1000
,  // measure 312
0100
0010
0001
0000
0010
0000
0022
0000
,  // measure 313
0033
0000
0001
0010
0001
0000
0010
0001
,  // measure 314
0010
0100
1000
0000
0100
0000
1000
0000
,  // measure 315
0100
0000
1000
0010
1000
0000
0010
1000
,  // measure 316
0100
0010
0001
0000
0010
0000
0022
0000
,  // measure 317
0033
1000
1000
0001
,  // measure 318
0001
0010
0100
2000
,  // measure 319
3000
0000
0001
0100
0001
0000
0100
0001
,  // measure 320
0010
0100
1000
0000
0100
0000
2200
0000
,  // measure 321
3300
0000
1000
0100
1000
0000
0100
1000
,  // measure 322
0100
0010
0001
0000
0100
0000
0010
0000
,  // measure 323
0100
0000
0001
0100
0001
0000
0100
0001
,  // measure 324
0010
0100
1000
0000
0001
0000
2000
0000
,  // measure 325
3000
0000
0001
0100
0001
0000
1000
0100
,  // measure 326
1000
0000
0001
0010
0001
0000
1000
0010
,  // measure 327
1000
1010
1010
1000
,  // measure 328
0010
1000
0010
2020
,  // measure 329
3030
0000
1000
0100
1000
0000
0001
0100
,  // measure 330
0001
0100
0100
0001
,  // measure 331
0100
0000
0001
0100
0001
0000
1000
0100
,  // measure 332
1000
0001
0100
0202
,  // measure 333
0303
0000
1000
0100
1000
0000
0010
0000
,  // measure 334
0100
0000
0001
0100
0001
0000
0010
0000
,  // measure 335
0100
0010
0000
1001
,  // measure 336
0000
0001
0010
0200
,  // measure 337
0300
0000
1000
0100
1000
0001
0100
0001
,  // measure 338
0100
0001
0010
0001
,  // measure 339
0100
0000
0001
0100
0001
0100
0001
1000
,  // measure 340
0100
1000
0001
0100
0010
1000
0002
0000
,  // measure 341
0003
0000
1000
0000
0100
0000
1000
0100
,  // measure 342
1000
0000
0001
0000
0010
0100
0020
0000
,  // measure 343
0030
0000
0100
0010
0100
0000
1000
0000
,  // measure 344
0100
0010
0100
0000
1000
0000
0001
0100
,  // measure 345
0001
0000
1000
0100
1000
0000
0001
0000
,  // measure 346
0100
0010
0100
0000
0001
0000
0010
0000
,  // measure 347
0100
0000
1000
0010
1000
0000
0001
0000
,  // measure 348
0010
0100
0010
0000
0100
0000
1000
0001
,  // measure 349
1000
0000
0001
0010
0001
0000
1000
0000
,  // measure 350
0001
0100
0001
0000
1000
0000
0010
0000
,  // measure 351
0100
0000
0010
1000
0001
0000
0010
0000
,  // measure 352
0001
1000
0010
0000
1000
0000
0001
0010
,  // measure 353
0100
0000
0010
0001
1000
0000
0010
0000
,  // measure 354
0100
0001
1000
0000
0001
0000
1000
0000
,  // measure 355
0010
0000
0100
0001
1000
0000
0100
0000
,  // measure 356
1000
0001
0100
0000
0010
0000
0100
0001
,  // measure 357
1000
0000
0100
1000
0100
0000
1000
0010
,  // measure 358
1000
0000
0001
0010
0001
0000
0100
0001
,  // measure 359
0100
0001
1000
0001
,  // measure 360
0100
0010
0100
0000
0001
0000
1000
0100
,  // measure 361
1000
0000
0001
0100
0001
0000
1000
0000
,  // measure 362
0100
0010
0100
0000
1000
0000
0010
0000
,  // measure 363
0100
0000
0001
0010
0001
0000
1000
0000
,  // measure 364
0010
0100
0010
0000
0100
0000
0001
1000
,  // measure 365
0001
0000
1000
0010
1000
0000
0001
0000
,  // measure 366
1000
0100
1000
0000
0001
0000
0010
0000
,  // measure 367
0100
0000
0010
0001
1000
0000
0010
0000
,  // measure 368
1000
0001
0010
0000
0001
0000
1000
0010
,  // measure 369
0100
0000
0010
1000
0001
0000
0010
0000
,  // measure 370
0100
1000
0001
0000
1000
0000
0001
0000
,  // measure 371
0010
0000
0100
1000
0001
0000
0100
0000
,  // measure 372
0001
1000
0100
0000
0010
0000
0100
1000
,  // measure 373
0001
0000
0100
0001
1000
0000
0100
0000
,  // measure 374
1000
0010
0100
0000
0001
0000
0010
0000
,  // measure 375
0100
0000
1000
0100
0010
0000
0001
0100
,  // measure 376
0010
1000
1010
0000
1100
0000
2001
0000
,  // measure 377
3001
0010
0001
0100
0010
0000
1000
0010
,  // measure 378
0100
0001
0011
0000
0101
0000
1002
0000
,  // measure 379
1003
0100
0001
0100
1000
0000
0001
0010
,  // measure 380
1000
0010
0100
1000
0010
0100
0002
0000
,  // measure 381
1003
0010
0001
0010
1000
0000
0001
0100
,  // measure 382
1000
0100
0000
0010
0100
0010
0000
1001
,  // measure 383
1001
0010
1000
0100
,  // measure 384
0000
0010
0001
0100
,  // measure 385
0010
1010
0100
1001
,  // measure 386
0010
0102
0000
1003
,  // measure 387
0100
0010
0001
0100
,  // measure 388
0000
0010
1000
0100
,  // measure 389
0010
0011
0000
0101
,  // measure 390
0010
2010
0000
3001
,  // measure 391
0010
1000
0010
0001
,  // measure 392
0100
1000
0100
0001
,  // measure 393
0010
1000
0010
0001
,  // measure 394
0100
0110
0000
1000
,  // measure 395
0010
0001
0010
2000
,  // measure 396
0000
3010
1000
0100
,  // measure 397
0010
0000
0001
0100
,  // measure 398
0010
0000
0110
0210
,  // measure 399
0000
0000
0000
0000
0000
0000
0301
1000
,  // measure 400
0010
0000
0100
0000
0001
0010
0100
1000
0010
0000
1000
0000
0010
0100
0001
0000
,  // measure 401
0100
0000
0001
0100
0010
0000
1000
0000
0100
1000
0010
0000
1000
0000
0100
0000
,  // measure 402
0010
0000
0001
0010
0100
1000
0010
0000
1000
0000
0100
1000
0010
0100
0001
0100
,  // measure 403
0001
0000
0100
0001
0010
0100
1000
0000
0100
1000
0010
0100
0001
0000
1000
0000
,  // measure 404
0100
0000
0010
0001
0100
0010
1000
0000
0010
0000
1000
0100
0010
0001
0010
0000
,  // measure 405
0001
0100
0010
0100
0001
0000
1001
0000
0220
0000
0000
0330
0001
0010
0100
0000
,  // measure 406
1000
0000
0001
0100
0010
0000
1000
0000
0010
0100
0001
0000
1000
0010
0100
0001
,  // measure 407
0010
0100
1000
0010
1000
0010
1000
0001
0100
1000
0001
0010
1000
0000
0001
0000
,  // measure 408
0100
0000
0001
1000
0100
0010
0001
0000
0010
0001
1000
0000
0001
0010
0100
0000
,  // measure 409
0010
0000
0001
0100
0010
0000
0100
0000
0001
0100
0010
0000
1000
0100
0010
0000
,  // measure 410
0100
0000
1000
0001
0010
0100
0001
0000
1000
0010
0100
0000
1000
0010
0100
0000
,  // measure 411
0010
0000
1000
0010
0100
0000
0001
0000
0010
0001
1000
0100
0010
0000
1000
0000
,  // measure 412
0010
0000
1000
0010
0100
0010
0001
0000
0010
0001
0100
0000
0001
0100
0010
1000
,  // measure 413
0100
0000
1000
0100
0010
0001
0100
0000
0010
1000
0001
0100
0010
1000
0100
0000
,  // measure 414
0010
0100
1000
0000
0100
1000
0010
0000
0100
0010
0100
0000
0010
1000
0001
0000
,  // measure 415
0010
0100
1000
0010
0100
0001
0010
0001
1000
0000
0000
0000
0001
0000
0000
0000
,  // measure 416
0100
0000
0010
0000
1000
0100
0010
0001
,  // measure 417
0100
0000
0010
0000
1000
0010
0100
0000
,  // measure 418
0010
0000
1000
0010
0100
0000
0001
0000
,  // measure 419
0010
0001
0100
0000
0001
0000
0100
0000
,  // measure 420
0010
0000
1000
0100
0010
0001
0100
0000
,  // measure 421
0001
0000
0010
0001
0100
0010
1000
0010
,  // measure 422
1000
0000
0010
1000
0100
0010
0001
0000
,  // measure 423
0010
0001
0100
0010
1000
0000
0001
0000
,  // measure 424
0010
0000
0100
1000
0010
0100
0001
0000
,  // measure 425
0100
0000
0001
0010
0100
1000
0100
0000
,  // measure 426
1000
0010
0100
0010
1000
0000
1001
0000
,  // measure 427
0220
0000
0000
0330
1000
0100
0010
0000
,  // measure 428
0001
0000
1000
0010
0100
0000
0001
0000
,  // measure 429
0100
0010
1000
0000
0001
0100
0010
1000
,  // measure 430
0100
0010
0001
0100
0001
0100
0001
1000
,  // measure 431
0010
0001
1000
0100
0001
0000
1000
0000
,  // measure 432
0010
0000
1000
0001
0010
0100
1000
0000
,  // measure 433
0100
1000
0001
0000
1000
0100
0010
0000
,  // measure 434
0100
0000
1000
0010
0100
0000
0010
0000
,  // measure 435
1000
0010
0100
0000
0001
0010
0100
0000
,  // measure 436
0010
0000
0001
1000
0010
0100
0001
0000
,  // measure 437
1000
0100
0110
0000
0001
0100
0110
0000
,  // measure 438
1000
0100
0110
0000
0001
0100
0110
0000
,  // measure 439
0010
1000
0001
0010
0100
0000
0001
0000
,  // measure 440
0100
0000
0001
0100
0010
0100
1000
0000
,  // measure 441
0100
1000
0010
0000
1000
0010
0100
0001
,  // measure 442
0010
0000
0001
0010
0100
1000
0010
0000
,  // measure 443
0100
0001
1000
0010
0100
0001
0010
0000
,  // measure 444
0100
0010
0001
0000
0010
0001
0100
0000
,  // measure 445
0010
0100
0010
0000
0100
0001
1000
0000
,  // measure 446
0100
0010
0001
0100
0010
1000
0100
1000
,  // measure 447
0010
0000
0000
0000
,  // measure 448
0000
0000
0000
0000
,  // measure 449
1000
0100
1000
0100
,  // measure 450
0001
0100
0001
0100
,  // measure 451
1000
0100
1000
0100
,  // measure 452
1000
0010
1000
0010
,  // measure 453
0001
0010
0001
0010
,  // measure 454
1000
0010
1000
0100
,  // measure 455
1000
0100
0010
0001
,  // measure 456
1000
0001
0100
0020
,  // measure 457
0000
0000
0000
0000
,  // measure 458
0000
0000
0000
0000
,  // measure 459
0000
0000
0000
0000
,  // measure 460
0000
0000
0000
0000
,  // measure 461
0030
0000
0000
0000
;

//---------------dance-single - NAOKI----------------
#NOTES:
     dance-single:
     NAOKI:
     Challenge:
     19:
     1.000,1.000,0.674,0.476,0.359: // measure 1
0000
0000
0000
0000
,  // measure 2
0010
1000
1100
0000
0010
0001
0101
0000
,  // measure 3
0001
1000
1100
0000
1000
0001
0101
0000
,  // measure 4
0001
0100
0110
0000
1000
0100
0110
0000
,  // measure 5
0001
0100
0010
0100
0001
1000
0100
0000
,  // measure 6
0010
0001
0101
0000
0010
1000
1100
0000
,  // measure 7
1000
0001
0101
0000
0001
1000
1100
0000
,  // measure 8
1000
0100
0110
0000
0001
0100
0110
0000
,  // measure 9
1000
0000
0100
0000
0010
0000
0100
0000
1000
0000
0001
0100
0010
1000
0001
0010
,  // measure 10
0100
1000
1010
0000
0100
0001
0011
0000
,  // measure 11
0001
1000
1010
0000
1000
0001
0011
0000
,  // measure 12
0001
0010
0110
0000
1000
0010
0110
0000
,  // measure 13
0001
0000
0010
0000
0100
0000
0010
0000
0001
0000
1000
0100
0010
0001
1000
0010
,  // measure 14
0100
0001
0011
0000
0100
1000
1010
0000
,  // measure 15
1000
0001
0011
0000
0001
1000
1010
0000
,  // measure 16
1000
0010
0110
0000
0001
0010
0110
0000
,  // measure 17
1000
0000
0010
0000
0100
0000
0010
0000
1000
0000
0001
0010
0100
1000
0010
0100
,  // measure 18
0002
0003
0010
0000
0100
0000
0010
0000
0001
0000
0010
0000
0100
0000
0000
0000
,  // measure 19
1000
0010
0100
0010
1000
0100
0010
0000
,  // measure 20
0001
0100
0010
0100
0001
0100
0010
0000
,  // measure 21
1000
0000
0100
0000
0010
0000
0100
0000
1000
0000
0100
0010
0001
1000
0010
0100
,  // measure 22
0001
0010
0100
0010
0001
0010
0100
0100
,  // measure 23
1000
0010
0100
0010
1000
0100
0010
0010
,  // measure 24
0001
0100
0010
0100
0001
0100
0010
0010
,  // measure 25
1000
0100
0010
0001
0100
0010
0100
0001
1000
0100
0010
0001
2000
0000
3000
0000
0001
0000
0000
0000
0100
0000
0000
0000
0001
0000
0000
0000
0100
0000
0000
0000
,  // measure 26
0001
0100
0010
1000
0100
0000
1000
0000
,  // measure 27
2200
0000
3300
0000
1000
0100
1000
0100
,  // measure 28
1000
0100
0010
0001
0010
0000
0001
0000
,  // measure 29
0010
0000
0001
0000
0001
0100
0001
0100
,  // measure 30
0001
0100
0001
0010
0100
0000
1000
0000
,  // measure 31
2200
0000
3300
0000
1000
0010
1000
0000
,  // measure 32
0001
0000
1000
0000
0001
0100
0001
0000
,  // measure 33
2000
0000
3000
0000
0001
0100
0001
0100
,  // measure 34
0001
0100
0001
0010
0100
0000
1000
0000
,  // measure 35
2200
0000
3300
0000
1000
0100
1000
0100
,  // measure 36
0010
0001
0100
0001
0100
0000
0001
0000
,  // measure 37
1000
0000
0001
0000
0100
0001
0100
0001
,  // measure 38
0100
0010
1000
0100
1000
0001
0100
0001
,  // measure 39
2000
0000
3000
0000
0001
0010
0001
0000
,  // measure 40
1000
0010
1000
0000
0001
0100
0001
0000
,  // measure 41
1000
0100
1000
0000
1000
0100
1000
0100
,  // measure 42
1000
0100
0010
0001
0100
0000
0001
0000
,  // measure 43
0202
0000
0303
0000
0001
0100
0001
0100
,  // measure 44
0001
0100
0010
1000
0010
0000
1000
0000
,  // measure 45
0010
0000
1000
0000
1000
0100
1000
0100
,  // measure 46
1000
0100
1000
0010
0100
0000
0001
0000
,  // measure 47
0202
0000
0303
0000
0001
0010
0001
0000
,  // measure 48
1000
0000
0001
0000
1000
0100
1000
0000
,  // measure 49
0002
0000
0003
0000
1000
0100
1000
0100
,  // measure 50
1000
0100
1000
0010
0100
0000
0001
0000
,  // measure 51
0202
0000
0303
0000
0001
0100
0001
0100
,  // measure 52
0010
1000
0100
1000
0100
0000
1000
0000
,  // measure 53
0001
0000
1000
0000
0100
1000
0100
1000
,  // measure 54
0100
0010
0001
0100
0001
1000
0100
1000
,  // measure 55
0002
0000
0003
0000
0001
0100
0001
0000
,  // measure 56
1000
0100
1000
0000
0001
0010
0001
0000
,  // measure 57
1000
0010
1000
0000
1010
0000
1010
0000
,  // measure 58
1000
0000
0010
0000
1000
0010
1000
0000
,  // measure 59
2020
0000
3030
0000
1000
0100
1000
0100
,  // measure 60
1000
0001
0100
0001
0100
0000
0001
0000
,  // measure 61
0010
0000
0001
0000
0100
0001
0100
0001
,  // measure 62
1000
0100
1000
0001
0100
0010
1000
0001
,  // measure 63
0200
0000
0300
0000
0001
0100
0001
0000
,  // measure 64
0010
0000
0100
0000
1000
0100
1000
0000
,  // measure 65
0010
0100
0010
0000
,  // measure 66
1001
0000
0000
0000
0001
0100
0001
1000
,  // measure 67
0200
0000
0300
0000
1000
0100
1000
0001
,  // measure 68
0100
0001
0100
0000
0001
0000
0010
0000
,  // measure 69
0001
0000
0100
0000
0001
0100
0001
0100
,  // measure 70
0001
1000
0100
1000
0001
0100
0010
1000
,  // measure 71
0002
0000
0003
0000
1000
0100
1000
0000
,  // measure 72
0001
0100
0001
0000
1000
0010
1000
0000
,  // measure 73
0001
0010
0001
0000
0011
0000
0011
0000
,  // measure 74
0001
0000
0010
0000
0001
0010
0001
0000
,  // measure 75
0022
0000
0033
0000
0001
0100
0001
0100
,  // measure 76
0001
1000
0100
1000
0100
0000
1000
0000
,  // measure 77
0010
0000
1000
0000
0100
1000
0100
1000
,  // measure 78
0001
0100
0001
1000
0100
0010
0001
1000
,  // measure 79
0200
0000
0300
0000
1000
0100
1000
0000
,  // measure 80
0010
0000
0100
0000
0001
0100
0001
0000
,  // measure 81
0010
0100
0010
0000
,  // measure 82
1001
0000
0000
0000
1000
0100
1000
0001
,  // measure 83
0200
0000
0300
0000
0001
0100
0001
1000
,  // measure 84
0100
1000
0100
0000
1000
0000
0010
0000
,  // measure 85
1000
0000
0100
0000
1000
0100
1000
0100
,  // measure 86
1000
0001
0100
0001
1000
0100
0010
0001
,  // measure 87
2000
3000
0220
0330
,  // measure 88
0001
0100
0001
0000
1000
0100
1000
0100
,  // measure 89
0020
0000
0030
0000
1000
0001
0100
0010
,  // measure 90
1000
0100
0000
0010
0001
0000
0100
0010
0000
1000
0100
0000
0010
0001
0000
0000
,  // measure 91
1000
0000
0010
0000
1000
0100
1000
0000
0001
0000
1000
0000
0010
0000
0100
0000
,  // measure 92
0001
0100
0000
0010
1000
0000
0001
0100
0000
0010
1000
0000
0100
0010
0000
0000
,  // measure 93
0001
0010
0100
1000
0100
1000
0100
0000
1000
0001
0100
0000
0010
0000
0100
0000
,  // measure 94
0001
0100
0000
0001
0100
0000
0010
1000
0000
0010
1000
0000
0001
0100
0000
0000
,  // measure 95
0001
0010
0000
0001
0010
0001
0100
0000
0001
0000
0100
0000
0010
0000
1000
0000
,  // measure 96
0001
0010
0000
0100
0010
0000
0001
0100
0000
0010
0100
0000
0001
0000
1000
0000
,  // measure 97
0001
0001
0001
0000
0010
0000
1000
0000
,  // measure 98
0100
0001
1000
0010
,  // measure 99
0001
1000
0100
0001
,  // measure 100
0100
1000
0010
0001
,  // measure 101
0010
0100
0001
0010
,  // measure 102
1000
0001
0100
1000
,  // measure 103
0010
0001
1000
0100
,  // measure 104
0001
1000
0001
1000
,  // measure 105
0001
1000
0001
0000
1000
0100
1000
0000
,  // measure 106
0001
0100
0001
0000
1000
0100
1000
0000
,  // measure 107
0001
0100
0001
0000
1000
0010
1000
0000
,  // measure 108
0001
0010
0001
0000
1000
0010
1000
0000
,  // measure 109
0001
0010
0001
0000
1000
0100
1000
0001
,  // measure 110
0100
0001
1000
0100
1000
0001
0010
0001
,  // measure 111
1000
0010
1000
0001
0200
0000
0020
0330
,  // measure 112
0000
0000
2000
0001
,  // measure 113
3001
0200
0010
0310
,  // measure 114
1000
0001
0010
0100
,  // measure 115
1000
0001
1000
0010
,  // measure 116
0000
0100
0002
1000
,  // measure 117
1003
0200
0010
0310
,  // measure 118
0001
1000
0010
0100
,  // measure 119
0001
1000
0001
0010
,  // measure 120
0000
0100
2000
0001
,  // measure 121
3001
0020
0100
0130
,  // measure 122
1000
0001
0100
0010
,  // measure 123
1000
0001
1000
0100
,  // measure 124
0000
0010
0002
1000
,  // measure 125
1003
0020
0100
0130
,  // measure 126
0001
0100
0001
0000
1000
0100
1000
0000
,  // measure 127
0001
0010
0001
0000
1000
0010
1000
0000
,  // measure 128
0100
1000
0010
0100
,  // measure 129
0001
0010
1000
0100
,  // measure 130
1000
0001
0010
0100
,  // measure 131
1000
0010
0001
0100
,  // measure 132
1000
0100
0001
0100
,  // measure 133
1000
0100
0001
0100
,  // measure 134
1000
0100
1000
0100
,  // measure 135
1000
0010
0001
0100
,  // measure 136
0001
0010
0100
1000
,  // measure 137
0010
0100
0001
0010
,  // measure 138
0100
1000
0010
0100
,  // measure 139
0001
0010
0100
1000
,  // measure 140
0010
1000
0010
0100
,  // measure 141
0001
0000
1000
0001
1000
0000
0001
0010
,  // measure 142
0100
1000
0100
1000
,  // measure 143
0001
0100
0001
0100
,  // measure 144
0220
0000
0000
0330
,  // measure 145
0010
0000
0100
0001
0000
1000
0100
0000
0010
0000
0011
0000
1100
0000
0101
0000
,  // measure 146
0001
0010
0100
1000
0011
0000
1000
0010
0100
0001
1010
0000
0001
0100
0010
1000
,  // measure 147
0101
0000
1000
0100
0010
0001
1100
0000
0011
0000
1010
0000
0101
0000
1100
0000
,  // measure 148
0010
0001
1000
0010
0000
0100
0002
0000
,  // measure 149
0010
0000
1000
0000
0103
0000
0010
1000
,  // measure 150
0002
0000
0000
2000
0000
0000
0000
0000
,  // measure 151
0000
3003
1010
0101
,  // measure 152
0001
0000
0001
0000
0100
0000
1000
0100
0010
0100
1000
0000
0010
0000
0100
0010
,  // measure 153
0100
0000
0100
0000
0010
0000
0001
0010
0100
0010
0001
0000
1000
0000
0001
0100
,  // measure 154
0001
1000
0010
1100
0000
0010
0101
0000
,  // measure 155
0010
1001
0000
0100
0010
0100
0110
0000
,  // measure 156
0001
0000
1000
0000
0100
0010
0100
0000
,  // measure 157
1000
0000
0001
0100
0001
0000
1000
0100
,  // measure 158
1000
0000
0010
0000
0100
0010
0100
0000
,  // measure 159
0001
0000
0010
0000
0100
0000
1000
0010
,  // measure 160
1000
0000
0001
0000
0010
0100
0010
0000
,  // measure 161
0100
0000
1000
0001
1000
0000
0010
0100
,  // measure 162
0010
0000
0100
0000
0001
0010
0001
0000
,  // measure 163
1000
0000
0010
0000
0100
0000
0020
1000
,  // measure 164
0130
0000
0010
0000
0200
1000
0310
0000
,  // measure 165
0100
0000
0020
1000
0130
0000
0020
0001
,  // measure 166
0130
0000
0010
0000
0200
0001
0310
0000
,  // measure 167
0001
0000
1000
0000
0010
0000
0200
0001
,  // measure 168
1300
0000
0100
0000
2000
0001
3100
0000
,  // measure 169
1000
0000
0200
0001
1300
0000
0200
1000
,  // measure 170
0310
0000
0100
0000
0002
0010
0103
0000
,  // measure 171
1000
0000
0001
1000
0001
0000
0010
0001
,  // measure 172
0100
0010
0200
0000
0310
1000
0100
0010
,  // measure 173
0200
0000
0301
0000
0100
0010
1000
0010
,  // measure 174
0200
0000
2300
0000
3001
0100
1000
0000
,  // measure 175
0001
0010
1000
0000
0001
0000
0010
1000
,  // measure 176
0100
0010
0200
0000
0310
0001
0100
0010
,  // measure 177
0200
0000
1300
0000
0100
0010
0001
0010
,  // measure 178
0200
0000
0302
0000
1003
0100
0001
0000
,  // measure 179
1000
0010
0001
0000
1000
0000
0001
0100
,  // measure 180
0010
0100
0001
0100
0010
0100
0001
0010
,  // measure 181
0100
0010
0001
0010
0100
0010
0001
0100
,  // measure 182
1000
0100
0001
0100
1000
0100
0001
0010
,  // measure 183
1000
0010
0001
0010
1000
0010
0001
1000
,  // measure 184
0100
0010
0001
1000
0010
0100
0001
0010
,  // measure 185
1000
0001
0100
1000
0010
1000
0100
0001
,  // measure 186
1000
0010
0001
0100
0010
0100
0001
0010
,  // measure 187
0100
1000
0001
0100
1000
0100
0011
0000
,  // measure 188
0000
1100
0000
0000
0000
0101
0000
0000
0000
1010
0000
0000
,  // measure 189
0000
0101
0000
0000
0000
1100
0000
0000
0000
0011
0000
0000
,  // measure 190
0000
1001
0000
0000
0000
0101
0000
0000
0000
1010
0000
0000
,  // measure 191
0000
1001
0000
0000
0000
1100
0000
0000
0000
1010
0000
0000
,  // measure 192
0000
0101
0000
0000
0000
1100
0000
0000
0000
0011
0000
0000
,  // measure 193
0000
1100
0000
0000
0000
0101
0000
0000
0000
1010
0000
0000
,  // measure 194
0000
1001
0000
0000
0000
1100
0000
0000
0000
0011
0000
0000
,  // measure 195
0000
1001
0000
0000
0000
0101
0000
0000
0000
1010
0000
0000
,  // measure 196
0000
0011
0000
0000
0000
0101
0000
0000
0000
1100
0000
0000
,  // measure 197
0000
0101
0000
0000
0000
0011
0000
0000
0000
1010
0000
0000
,  // measure 198
0000
0101
0000
0000
0000
1100
0000
0000
0000
0011
0000
0000
,  // measure 199
0000
1100
0000
0000
0000
0101
0000
0000
0000
0011
0000
0000
,  // measure 200
0000
1010
0000
0000
0000
1100
0000
0000
0000
0101
0000
0000
,  // measure 201
0000
1100
0000
0000
0000
1010
0000
0000
0000
0011
0000
0000
,  // measure 202
0000
1100
0000
0000
0000
0101
0000
0000
0000
1010
0000
0000
,  // measure 203
0000
0101
0000
0000
0000
1100
0000
0000
0000
0110
0000
1000
,  // measure 204
0000
0100
0000
0010
0000
0100
0000
1000
0000
1010
0000
0000
,  // measure 205
0000
0101
0000
0000
0000
1100
0000
0000
0000
0110
0000
0001
,  // measure 206
0000
0100
0000
0010
0000
0100
0000
0001
0000
0011
0000
0000
,  // measure 207
0000
1100
0000
0000
0000
0101
0000
0000
0000
1001
0000
0010
,  // measure 208
0000
1000
0000
0100
0000
0010
0000
0001
0000
1100
0000
0000
,  // measure 209
0000
0110
0000
0000
0000
0101
0000
0000
0000
1001
0000
0010
,  // measure 210
0000
0001
0000
0100
0000
0010
0000
1000
0000
0101
0000
0000
,  // measure 211
0000
0110
0000
0000
0000
1100
0000
0000
0000
0011
0000
1000
,  // measure 212
0000
0100
0000
0001
0000
0100
0000
1000
0000
1010
0000
0001
,  // measure 213
0000
0100
0000
1000
0000
0100
0000
0001
0000
0011
0000
1000
,  // measure 214
0000
0100
0000
0001
0000
0100
0000
1000
0000
1010
0000
0001
,  // measure 215
0000
0100
0000
1000
0000
0100
0000
0001
0000
1001
0000
0001
,  // measure 216
0000
0010
0000
1000
0000
0010
0000
0001
0000
1001
0000
1000
,  // measure 217
0000
0010
0000
0001
0000
0010
0000
1000
0000
1001
0000
0001
,  // measure 218
0000
0010
0000
1000
0000
0010
0000
0001
0000
0110
0000
0000
,  // measure 219
0010
0000
0000
0000
0001
0000
1000
0000
0001
0000
1000
0000
0200
0300
1000
0010
,  // measure 220
0000
0100
0001
0000
0100
0000
0010
0000
1010
0000
0101
0000
0100
0010
1000
0100
,  // measure 221
0000
0010
0001
0000
0010
0000
0100
0000
1100
0000
0011
0000
1000
0100
0010
0001
,  // measure 222
1100
0000
0001
0100
0010
1000
0101
0000
1000
0010
0100
0001
1010
0000
0001
0010
,  // measure 223
0100
1000
0011
0000
1100
0000
0101
0000
1010
0000
0011
0000
0100
0000
1000
0000
,  // measure 224
0001
0100
0000
0010
2000
0000
0100
0000
,  // measure 225
0001
0000
3010
0000
0110
0000
0100
0001
,  // measure 226
0010
0100
1000
0010
0200
0000
1000
0000
,  // measure 227
0301
0000
1010
0000
0101
0000
0001
0010
,  // measure 228
0100
1000
0011
0100
1000
0010
0100
0001
,  // measure 229
1010
0100
0001
0100
0010
1000
0101
0010
,  // measure 230
1000
0100
0010
0001
1100
0010
0001
1000
,  // measure 231
0001
1000
0010
0100
0000
0000
0010
0000
,  // measure 232
1000
0100
0001
0100
,  // measure 233
1000
0000
0010
0000
0100
0001
0100
0000
,  // measure 234
0010
1000
0010
0000
0100
0000
0001
0000
,  // measure 235
0010
0100
1000
0001
,  // measure 236
1000
0010
0001
0010
,  // measure 237
1000
0000
0100
0000
0010
0001
0010
0000
,  // measure 238
0100
1000
0100
0000
0010
0000
0001
0000
,  // measure 239
1000
0001
2000
0000
3010
0000
0100
0000
,  // measure 240
0001
0010
1000
0010
,  // measure 241
0001
0000
0100
0000
0010
1000
0010
0000
,  // measure 242
0100
0001
0100
0000
0010
0000
1000
0000
,  // measure 243
0100
0010
0001
2002
,  // measure 244
3000
0203
0320
2030
,  // measure 245
3002
0000
0000
0000
0013
0000
0001
0010
,  // measure 246
0001
0000
1000
0010
1000
0000
0001
0100
,  // measure 247
0001
0000
0000
0000
1000
0000
0100
0000
1000
0000
0000
0000
2200
3300
0022
0033
,  // measure 248
0220
0330
2002
3003
0202
0303
2200
3300
0220
0330
0022
0033
2200
3300
2020
3030
,  // measure 249
0220
0330
0022
0033
0220
0330
0022
0033
0202
0303
2200
3300
2020
3030
0022
0033
,  // measure 250
0210
0000
0302
0023
0230
2300
3000
0101
,  // measure 251
0000
1100
0000
0010
0001
0000
1001
0000
,  // measure 252
0001
0100
0010
0000
1000
0001
0000
0010
,  // measure 253
0100
1000
0010
0000
0100
0001
0010
0000
,  // measure 254
0100
1000
0010
0000
1000
0010
0000
0100
,  // measure 255
0001
0010
0100
0000
1000
0001
0010
0000
,  // measure 256
0020
0000
0031
0100
0010
0000
0010
0000
,  // measure 257
0020
0000
1030
0100
0010
0000
0001
0010
,  // measure 258
0100
0000
1000
0010
0100
0000
0200
0000
,  // measure 259
0302
0000
0023
0000
0031
0100
0010
1000
,  // measure 260
0100
1000
0001
0000
0010
0001
0000
1000
,  // measure 261
0010
0100
0001
0000
0010
0100
0000
0010
,  // measure 262
0001
0100
0010
0000
1000
0010
0000
0100
,  // measure 263
0001
0010
1000
0000
0010
0001
0000
1000
,  // measure 264
0200
0000
2300
3002
,  // measure 265
0023
0230
0300
1100
,  // measure 266
0000
0011
0000
1010
,  // measure 267
0000
0110
1001
0000
,  // measure 268
1000
0100
0010
0000
0001
1000
0000
0010
,  // measure 269
0100
0001
0010
0000
0100
1000
0010
0000
,  // measure 270
0100
0001
0010
0000
0001
0010
0000
0100
,  // measure 271
1000
0010
0100
0000
0001
1000
0010
0000
,  // measure 272
0020
0000
1030
0100
0010
0000
0010
0000
,  // measure 273
0020
0000
0031
0100
0010
0000
1000
0010
,  // measure 274
0100
0000
0001
0010
0100
0000
0200
0000
,  // measure 275
2300
0000
3020
0000
1030
0100
0010
0001
,  // measure 276
0100
0101
0010
1010
,  // measure 277
0100
0110
0001
1100
,  // measure 278
0011
1100
1010
0101
,  // measure 279
0110
1001
0011
1100
,  // measure 280
0020
0000
0032
2003
,  // measure 281
3200
0320
0030
0011
,  // measure 282
0000
1100
0000
0101
,  // measure 283
0000
0110
1001
0000
,  // measure 284
1001
0000
0001
0100
0000
0010
1000
0000
0100
0000
0011
0000
1010
0000
0101
0000
,  // measure 285
0010
0100
0001
0010
1000
0010
0001
0100
0010
1000
0100
0001
0100
1000
0010
0000
,  // measure 286
1000
0100
0010
0001
1100
0000
1000
0010
0100
0001
1010
0000
0001
0100
0010
1000
,  // measure 287
0101
0010
1000
0100
0001
0100
1000
0010
0100
0001
0010
1000
0010
0001
0100
0010
,  // measure 288
1000
0100
0010
0100
0001
0100
0010
0001
,  // measure 289
0100
0010
0100
1000
0100
0001
0010
0100
,  // measure 290
1000
0010
0100
0010
0001
0010
0100
0001
,  // measure 291
0010
0100
0010
1000
0010
0001
1000
0000
,  // measure 292
1000
0010
0100
0001
1010
0100
0001
0010
,  // measure 293
0100
1000
0011
0100
1000
0100
0010
0001
,  // measure 294
1100
0010
0001
0100
0010
1000
0101
0010
,  // measure 295
2000
3000
0000
0000
0000
0000
0000
0000
0001
0000
0000
0000
0100
0000
0000
0000
1000
0000
0000
0000
0100
0000
0000
0000
0001
0000
0000
0000
0010
0000
0000
0000
,  // measure 296
0001
1000
0010
0001
0010
1000
0100
1000
,  // measure 297
0100
0001
0100
1000
0010
0100
0001
0010
,  // measure 298
1000
0010
0001
0100
1000
0100
0001
0010
,  // measure 299
0110
0000
0001
0100
1000
0010
0100
0001
,  // measure 300
0100
1000
0001
0010
0100
0001
0010
0100
,  // measure 301
0001
0000
0100
0000
1000
0000
0000
0001
0000
0000
0010
0000
0000
0100
0000
0000
,  // measure 302
1000
0000
0000
0010
0000
0000
0200
0000
0000
0302
0000
0000
0023
0000
0000
0230
,  // measure 303
0000
0000
1300
0000
0010
0000
0100
0001
0000
0100
1000
0000
0100
0001
0000
0010
,  // measure 304
0100
0000
0110
0000
0100
0000
0010
1000
0000
0010
0001
0000
0100
1000
0000
0100
,  // measure 305
0010
0000
0110
0000
0100
0000
0001
0010
0000
1000
0001
0000
0100
1000
0000
0010
,  // measure 306
0100
0000
0110
0000
0010
0000
1000
0100
0000
0001
1000
0000
0010
0001
0000
0100
,  // measure 307
0010
0000
0110
0000
0001
0000
1000
0100
1000
0010
1000
0000
0001
0010
0001
0100
,  // measure 308
0010
0000
1000
0000
0100
0000
0001
0100
1000
0010
1000
0000
0001
0010
0001
1000
,  // measure 309
0010
0000
0100
0000
0001
0000
0010
1000
0010
0001
0100
0000
0010
1000
0010
0001
,  // measure 310
1000
0000
0100
0000
0001
0000
0022
0000
0033
0220
0000
0330
2020
0000
3030
2002
,  // measure 311
0000
3003
0110
0000
1000
0000
0100
0000
1000
0000
0100
0000
1000
0000
0100
0000
,  // measure 312
0010
0001
0100
0000
0001
0000
0202
0000
,  // measure 313
0303
0000
0001
0100
0001
0100
0001
0100
,  // measure 314
0010
1000
0010
0000
1000
0000
0001
0000
,  // measure 315
1000
0000
0100
1000
0100
0000
1000
0100
,  // measure 316
1000
0010
0100
0000
0001
0000
0202
0000
,  // measure 317
0303
0000
0001
0010
0001
0000
1000
0000
,  // measure 318
0001
0000
1000
0100
1000
0000
0002
0000
,  // measure 319
0003
0000
1000
0100
1000
0100
1000
0100
,  // measure 320
1000
0010
0100
0000
0001
0000
0202
0000
,  // measure 321
0303
0000
0001
0100
0001
0100
0010
1000
,  // measure 322
0100
1000
0100
0000
1000
0000
0010
0000
,  // measure 323
1000
0000
0100
1000
0100
1000
0100
0010
,  // measure 324
0001
0100
0001
1000
0100
1000
0002
0000
,  // measure 325
0003
0000
1000
0100
1000
0000
0001
0100
,  // measure 326
0001
0000
1000
0010
1000
0000
0001
0010
,  // measure 327
0001
0011
0011
0001
,  // measure 328
0010
0000
0001
0010
0001
0000
0022
0000
,  // measure 329
0033
0000
0001
0100
0001
0100
0001
1000
,  // measure 330
0100
1000
0100
0000
1000
0000
0010
0000
,  // measure 331
1000
0000
0100
1000
0100
1000
0100
0000
,  // measure 332
1000
0100
0010
0001
0010
0100
2000
0000
,  // measure 333
3000
0000
1000
0100
1000
0000
0001
0100
,  // measure 334
0001
0000
1000
0100
1000
0000
0001
0100
,  // measure 335
0001
0000
0010
0100
0010
0100
1000
0100
,  // measure 336
1000
0010
0100
0000
0001
0000
0200
0000
,  // measure 337
0300
0000
0001
0100
0001
1000
0100
1000
,  // measure 338
0100
1000
0010
1000
,  // measure 339
0100
0000
1000
0100
1000
0001
0100
0001
,  // measure 340
1000
0100
1000
0100
0010
0001
2000
0000
,  // measure 341
3000
0000
1000
0000
1100
0000
0001
0100
,  // measure 342
0001
0000
0100
0000
0010
0100
0020
0000
,  // measure 343
0030
0000
0100
0010
0100
0000
0001
0000
,  // measure 344
0100
0010
0100
0000
0001
0000
1000
0100
,  // measure 345
1000
0000
0001
0100
0001
0000
0010
0000
,  // measure 346
0100
0010
0100
0000
1000
0000
0010
0000
,  // measure 347
0100
0000
0001
0010
0001
0000
1000
0000
,  // measure 348
0010
0100
0010
0000
0100
0000
0001
1000
,  // measure 349
0001
0000
0010
0100
0010
0000
0100
0000
,  // measure 350
1000
0010
1000
0000
0001
0000
0010
0000
,  // measure 351
0100
0000
0020
0001
0130
0000
0010
0000
,  // measure 352
0200
0001
0310
0000
0100
0000
0020
0001
,  // measure 353
0130
0000
0020
1000
0130
0000
0010
0000
,  // measure 354
0200
1000
0310
0000
1000
0000
0001
0000
,  // measure 355
0010
0000
0200
1000
0301
0000
0100
0000
,  // measure 356
0002
1000
0103
0000
0001
0000
0200
1000
,  // measure 357
0301
0000
1000
0001
0200
0000
0001
1000
,  // measure 358
0000
0000
1000
0001
0000
0000
0001
1000
,  // measure 359
0300
0010
0001
1000
,  // measure 360
0010
0100
0010
0000
1000
0000
0001
0010
,  // measure 361
0001
0000
1000
0010
1000
0000
0100
0000
,  // measure 362
0010
0100
0010
0000
0001
0000
0100
0000
,  // measure 363
0010
0000
1000
0100
1000
0000
0001
0000
,  // measure 364
0100
0010
0100
0000
0010
0000
1000
0001
,  // measure 365
1000
0000
0100
0010
0100
0000
0010
0000
,  // measure 366
0001
0100
0001
0000
1000
0000
0100
0000
,  // measure 367
0010
0000
0200
1000
0310
0000
0100
0000
,  // measure 368
0020
1000
0130
0000
0010
0000
0200
1000
,  // measure 369
0310
0000
0200
0001
0310
0000
0100
0000
,  // measure 370
0020
0001
0130
0000
0001
0000
1000
0000
,  // measure 371
0100
0000
0020
0001
1030
0000
0010
0000
,  // measure 372
2000
0001
3010
0000
1000
0000
0020
0001
,  // measure 373
1030
0000
0020
1000
0130
0000
0010
0000
,  // measure 374
0001
2000
3020
0230
,  // measure 375
0302
0000
1003
0100
0010
0000
0001
0100
,  // measure 376
0010
1000
0101
0000
1100
0000
0021
0000
,  // measure 377
0130
1000
0001
0100
0010
0000
1000
0100
,  // measure 378
0010
0001
1100
0000
0101
0000
1020
0000
,  // measure 379
0130
0001
1000
0010
0100
0000
0001
0010
,  // measure 380
0100
1000
0011
0100
1001
0010
2100
0000
,  // measure 381
3001
0100
0010
1000
0100
0000
0010
0001
,  // measure 382
1000
0010
0000
0100
0001
0010
0000
1001
,  // measure 383
1001
0010
1000
0100
,  // measure 384
0000
0010
0001
0100
,  // measure 385
0010
1010
0100
1001
,  // measure 386
0010
0102
0000
1003
,  // measure 387
0100
0010
0001
0100
,  // measure 388
0000
0010
1000
0100
,  // measure 389
0010
0011
0000
0101
,  // measure 390
0010
2010
0000
3001
,  // measure 391
0010
1000
0010
0001
,  // measure 392
0100
1000
0100
0001
,  // measure 393
0010
0100
1000
0001
,  // measure 394
0100
2010
0000
3001
,  // measure 395
0010
0100
1000
0010
,  // measure 396
0000
0100
0001
1000
,  // measure 397
0100
0000
0010
0001
,  // measure 398
0100
0000
0110
0120
,  // measure 399
0000
0000
0000
0000
0000
0000
1030
0010
,  // measure 400
0100
0001
0010
1000
0010
0000
0001
0100
1000
0100
0110
0000
0001
0000
0010
0000
,  // measure 401
0100
0000
1000
0010
0100
0010
0001
0000
1000
0100
0001
0010
0110
0000
1000
0000
,  // measure 402
0010
0000
0100
0000
0001
0100
1000
0000
0100
0001
0010
0000
0001
0010
0100
0000
,  // measure 403
1000
0010
0100
0001
0101
0000
0001
0010
0100
1000
1100
0000
0010
1000
0100
0000
,  // measure 404
0010
0000
0001
0010
1000
0010
0011
0000
0001
0100
1000
0100
0101
0000
0010
0000
,  // measure 405
0001
0000
0010
0000
1000
0010
0001
0010
1000
0000
0001
0100
1000
0000
0100
0000
,  // measure 406
1000
0000
0010
0000
0100
0001
0010
0001
0101
0000
1000
0010
0001
0010
1010
0000
,  // measure 407
1000
0010
0100
0010
1010
0000
0010
0100
0010
0000
0100
0000
1001
0000
1000
0000
,  // measure 408
0010
0000
0100
0000
0001
0000
0010
0000
0100
1000
0010
0000
0100
0000
0001
0010
,  // measure 409
0100
0000
1000
0000
0010
0000
0100
0000
0010
0100
0001
0000
0010
0000
1000
0000
,  // measure 410
0010
0001
0100
0000
0001
1000
0100
0000
1000
0100
0110
0000
0001
0100
0110
0000
,  // measure 411
1000
0100
0110
0000
0001
0100
0110
0000
1000
0010
0001
0010
1000
0100
0001
0100
,  // measure 412
1000
0010
1000
0100
0001
0100
1000
0001
0100
1000
0100
0001
0010
1000
0010
0001
,  // measure 413
0100
1000
0100
0001
0010
0001
0100
1000
0100
0001
1000
0010
0001
0010
1000
0100
,  // measure 414
0001
0100
1000
0100
0010
0001
0010
1000
0001
0100
1000
0100
0001
1000
0010
0001
,  // measure 415
1000
0010
0001
0010
0100
0001
0010
0100
1001
0000
0000
0000
0100
0000
0000
0000
,  // measure 416
0010
1000
0100
0001
0100
0000
1000
0010
,  // measure 417
0001
0010
0110
0000
1000
0000
0100
0000
,  // measure 418
0010
0000
0001
0100
0010
0100
1000
0000
,  // measure 419
0001
0010
1000
0100
0110
0000
0001
0000
,  // measure 420
0100
0000
0010
0000
1000
0010
0001
0000
,  // measure 421
0010
1000
0100
0000
1000
0100
0010
0000
,  // measure 422
0001
0100
0010
1000
1010
0000
1000
0100
,  // measure 423
0010
0001
0011
0000
0100
0001
0010
0000
,  // measure 424
0100
0000
1000
0100
0001
0100
1100
0000
,  // measure 425
1000
0010
0001
0010
1010
0000
0100
0000
,  // measure 426
1000
0000
0100
0000
0001
0100
1000
0100
,  // measure 427
0001
0000
1000
0010
0001
0000
0010
0000
,  // measure 428
0001
0000
0100
0000
0010
1000
0100
1000
,  // measure 429
1010
0000
0001
0100
1000
0100
0101
0000
,  // measure 430
0001
0100
0010
0100
0101
0000
0100
0010
,  // measure 431
0100
0010
1001
0001
,  // measure 432
0100
0010
1000
0100
,  // measure 433
0010
0001
0100
0000
0010
0000
1000
0100
,  // measure 434
0010
0001
0100
0010
,  // measure 435
0100
0010
1000
0000
0100
0000
0001
0000
,  // measure 436
0100
1000
0010
0000
1000
0001
0010
0000
,  // measure 437
0001
0010
0110
0000
1000
0010
0110
0000
,  // measure 438
0001
0010
0110
0000
1000
0010
0110
0000
,  // measure 439
0001
0100
1000
0100
0001
0010
1000
0010
,  // measure 440
0001
0100
0001
0010
1000
0010
0001
1000
,  // measure 441
0010
0001
0010
1000
0100
0001
0100
1000
,  // measure 442
0010
0001
0010
1000
0100
1000
0010
0001
,  // measure 443
0010
1000
0001
0100
1000
0100
0001
0010
,  // measure 444
1000
0010
0001
0010
0100
1000
0100
0001
,  // measure 445
1000
0010
0001
0010
1000
0001
0100
1000
,  // measure 446
0001
0100
1000
0100
0010
1000
0100
0010
,  // measure 447
1001
0000
0000
0000
,  // measure 448
0000
0000
0000
0000
,  // measure 449
0001
0100
0010
1000
,  // measure 450
0100
0010
0001
0100
,  // measure 451
1000
0100
0001
0010
,  // measure 452
1000
0010
0001
0100
,  // measure 453
1000
0100
0001
0010
,  // measure 454
1000
0001
0100
1100
,  // measure 455
0010
1000
0100
0001
,  // measure 456
0100
1000
0100
0020
,  // measure 457
0000
0000
0000
0000
,  // measure 458
0000
0000
0000
0000
,  // measure 459
0000
0000
0000
0000
,  // measure 460
0000
0000
0000
0000
,  // measure 461
0030
0000
0000
0000
;

//---------------dance-single - NAOKI----------------
#NOTES:
     dance-single:
     NAOKI:
     Edit:
     19:
     1.000,1.000,0.473,0.495,0.456: // measure 1
0000
0000
0000
0000
,  // measure 2
0001
1000
0001
0000
0100
0000
0010
0000
1000
0001
0100
0000
0001
0010
0100
0000
,  // measure 3
1000
0001
1000
0000
0010
0000
0100
0000
0001
1000
0010
0000
1000
0100
0010
0000
,  // measure 4
0001
1000
0001
0000
0010
0000
0100
0000
1000
0001
0010
0000
0001
0100
0010
0000
,  // measure 5
1000
0001
1000
0000
0010
0000
0100
0000
0001
1000
0010
0000
1000
0100
0010
0000
,  // measure 6
0001
0100
0001
0000
1000
0000
0100
0000
0010
0001
1000
0000
0010
0100
0001
0000
,  // measure 7
1000
0100
1000
0000
0001
0000
0100
0000
0010
1000
0001
0000
0010
0100
1000
0000
,  // measure 8
0001
0010
0001
0000
1000
0000
0010
0000
0100
0001
1000
0000
0100
0010
0001
0000
,  // measure 9
1000
0010
1000
0000
0010
0100
0001
0000
1000
0000
0001
0010
0100
1000
0010
0100
,  // measure 10
0002
0003
1000
0010
0100
0000
0001
1000
0100
0000
0010
0001
1000
0000
0010
0000
,  // measure 11
0100
0000
0001
0100
0010
0000
1000
0001
0010
0000
0100
1000
0001
0000
0100
0000
,  // measure 12
0010
0000
1000
0100
0010
0000
0001
1000
0010
0000
0100
0001
1000
0000
0100
0000
,  // measure 13
0010
0000
0001
0100
0010
0000
1000
0001
0010
0000
0100
1000
0001
0100
0010
1000
,  // measure 14
0100
0000
1000
0001
0100
0000
0010
1000
0001
0000
0010
0100
1000
0000
0010
0000
,  // measure 15
0100
0000
0001
1000
0100
0000
0010
0001
1000
0000
0010
0100
0001
0000
0100
0000
,  // measure 16
0010
0000
1000
0001
0010
0000
0100
1000
0001
0000
0100
0010
1000
0000
0100
0000
,  // measure 17
0010
0000
0100
1000
0001
0000
0100
0000
0010
0000
1000
0100
0010
0001
0100
0010
,  // measure 18
2000
3000
0001
0000
1000
0100
0010
0000
0001
1000
0010
0000
0100
0010
0100
0000
,  // measure 19
0010
0000
1000
0000
0001
0010
0100
0000
1000
0001
0100
0000
0010
0100
0010
0000
,  // measure 20
0100
0000
0001
0000
1000
0010
0100
0000
0001
1000
0100
0000
0010
0100
0010
0000
,  // measure 21
0100
0000
1000
0000
0001
0100
0010
0000
1000
0000
0001
0010
0100
1000
0001
0100
,  // measure 22
0010
0000
1000
0000
0001
0010
0001
0000
0010
0100
0010
0000
0100
1000
0100
0000
,  // measure 23
1000
0000
0001
0000
1000
0010
1000
0000
0010
0100
0010
0000
0100
0001
0100
0000
,  // measure 24
0001
0000
1000
0000
0001
0010
0001
0000
1000
0010
1000
0000
0001
0010
0100
1000
,  // measure 25
0002
0000
2000
3003
0001
0100
0010
1000
,  // measure 26
0001
1000
0100
0010
0001
0000
1000
0000
,  // measure 27
2200
0000
3300
0000
1000
0100
1000
0000
,  // measure 28
0001
0100
0001
0000
0100
0000
0101
0000
,  // measure 29
0010
0000
1001
0000
1000
0100
0010
0001
,  // measure 30
1000
0001
0100
0010
1000
0000
0001
0000
,  // measure 31
0202
0000
0303
0000
0100
0010
1000
0001
,  // measure 32
0010
0100
1000
0001
,  // measure 33
2002
0000
3003
0000
1000
0010
0100
0001
,  // measure 34
1000
0001
0010
0100
1000
0000
0001
0000
,  // measure 35
0022
0000
0033
0000
0001
0010
0001
0000
,  // measure 36
1000
0010
1000
0000
0010
0000
1010
0000
,  // measure 37
0100
0000
1001
0000
0001
0010
0100
1000
,  // measure 38
0001
1000
0010
0100
0001
0000
1000
0000
,  // measure 39
2020
0000
3030
0000
1000
0010
1000
0000
,  // measure 40
0001
0010
0001
0000
1000
0100
1000
0000
,  // measure 41
0001
0100
0001
0000
1000
0100
0010
0001
,  // measure 42
1000
0001
0100
0010
1000
0000
0001
0000
,  // measure 43
0022
0000
0033
0000
0001
0100
0001
0000
,  // measure 44
1000
0100
1000
0000
0100
0000
1100
0000
,  // measure 45
0010
0000
1001
0000
0001
0100
0010
1000
,  // measure 46
0001
1000
0100
0010
0001
0000
1000
0000
,  // measure 47
2020
0000
3030
0000
0010
0100
0001
1000
,  // measure 48
0100
0010
0001
1000
,  // measure 49
2002
0000
3003
0000
0001
0010
0100
1000
,  // measure 50
0001
1000
0010
0100
0001
0000
1000
0000
,  // measure 51
2200
0000
3300
0000
1000
0010
1000
0000
,  // measure 52
0001
0010
0001
0000
0010
0000
0011
0000
,  // measure 53
0100
0000
1001
0000
1000
0010
0100
0001
,  // measure 54
1000
0001
0010
0100
1000
0000
0001
0000
,  // measure 55
0202
0000
0303
0000
0001
0010
0001
0000
,  // measure 56
1000
0010
1000
0000
0001
0100
0001
0000
,  // measure 57
1000
0100
1000
0000
0001
1000
0001
1000
,  // measure 58
0100
0010
0100
0010
0002
0000
2003
0000
,  // measure 59
3020
0000
0130
0000
0010
1000
0001
0010
,  // measure 60
0100
0000
1000
0000
0001
0010
0001
0000
,  // measure 61
1000
0010
1000
0000
0001
1000
0001
1000
,  // measure 62
0010
0100
0010
0100
0002
0000
2003
0000
,  // measure 63
3200
0000
0310
0000
0100
1000
0001
0100
,  // measure 64
0010
0000
1000
0001
1000
0000
0100
0000
,  // measure 65
0010
0000
0001
0000
1000
0001
1000
0001
,  // measure 66
0010
0100
0010
0100
2000
0000
3002
0000
,  // measure 67
0203
0000
0310
0000
0100
0001
1000
0100
,  // measure 68
0010
0000
0001
0000
1000
0100
1000
0000
,  // measure 69
0001
0100
0001
0000
1000
0001
1000
0001
,  // measure 70
0100
0010
0100
0010
2000
0000
3002
0000
,  // measure 71
0023
0000
0130
0000
1000
0100
1000
0000
,  // measure 72
0001
0100
0001
0000
1000
0010
1000
0000
,  // measure 73
0001
0010
0001
0000
1000
0100
1000
0100
,  // measure 74
1000
0001
1000
0001
0100
0000
0010
0000
,  // measure 75
2020
0000
3030
0000
0100
0000
0001
1000
,  // measure 76
0001
0010
0100
1100
,  // measure 77
0010
0000
1001
0000
0001
0100
0001
0100
,  // measure 78
0001
1000
0001
1000
0100
0000
0010
0000
,  // measure 79
0022
0000
0033
0000
0100
1000
0001
1000
,  // measure 80
0010
0100
0101
0010
,  // measure 81
1001
0000
0100
0000
0001
0010
0001
0010
,  // measure 82
0001
1000
0001
1000
0010
0000
0100
0000
,  // measure 83
0202
0000
0303
0000
0010
0000
1000
0001
,  // measure 84
1000
0100
0010
0011
,  // measure 85
0100
0000
1001
0000
1000
0010
1000
0010
,  // measure 86
1000
0001
1000
0001
0010
0000
0100
0000
,  // measure 87
1001
0000
0220
0330
,  // measure 88
0000
0000
0000
0000
0001
0100
0001
0000
,  // measure 89
1000
0100
1000
0000
0002
0203
2300
3020
,  // measure 90
0032
1000
0000
0103
0020
0000
2030
0001
0000
3100
0010
0000
0002
0000
1003
0010
,  // measure 91
0000
0100
0001
0000
0000
0110
0000
0000
2000
0000
3200
0000
0302
0000
0023
0000
,  // measure 92
2030
0001
0000
3100
0020
0000
0032
1000
0000
0103
0010
0000
2000
0000
0001
3001
,  // measure 93
0100
0010
1000
0001
1000
0001
0100
0000
0002
0000
0023
0000
2030
0000
3200
0000
,  // measure 94
0302
1000
0000
0013
0200
0000
2300
0001
0000
3010
0100
0000
0002
0000
1000
1003
,  // measure 95
0010
0100
0001
0000
1000
0001
0010
0100
2000
0000
0000
0000
0000
0000
0000
0000
,  // measure 96
0001
0000
0001
0001
,  // measure 97
0001
0001
3001
0000
0100
0000
0010
0100
,  // measure 98
0010
0000
1000
0000
0002
0010
0000
0103
,  // measure 99
0010
0000
1000
0100
0000
0010
0001
0000
,  // measure 100
2000
0010
0000
3001
0100
0000
0001
1000
,  // measure 101
0010
1000
0001
0000
0010
0100
1000
0001
,  // measure 102
0100
0000
0010
0000
2000
0100
0000
3010
,  // measure 103
0100
0000
0001
0010
0000
0100
1000
0000
,  // measure 104
0002
0100
0000
1003
0010
0000
1000
0001
,  // measure 105
0100
0001
1000
0000
0001
0100
0001
0000
,  // measure 106
1000
0100
1000
0000
0001
0010
0001
0000
,  // measure 107
1000
0010
1000
0000
0001
0100
0001
0000
,  // measure 108
1000
0100
1000
0000
0001
0010
0001
1000
,  // measure 109
0010
1000
0001
0000
1000
0010
1000
0001
,  // measure 110
0010
0100
1000
0001
0100
0001
1000
0100
,  // measure 111
0010
0001
1000
0010
0200
0000
0000
0300
,  // measure 112
0000
0000
0002
1000
,  // measure 113
1003
0020
0100
0130
,  // measure 114
0001
1000
0100
0010
,  // measure 115
0001
1000
0001
0100
,  // measure 116
0000
0010
2000
0001
,  // measure 117
3001
0020
0100
0130
,  // measure 118
1000
0001
0100
0010
,  // measure 119
1000
0001
1000
0100
,  // measure 120
0000
0010
0002
1000
,  // measure 121
1003
0200
0010
0310
,  // measure 122
0001
1000
0010
0100
,  // measure 123
0001
1000
0001
0010
,  // measure 124
0000
0100
2000
0001
,  // measure 125
3001
0200
0010
0310
,  // measure 126
1000
0100
1000
0000
0001
0100
0001
0000
,  // measure 127
1000
0010
1000
0000
0001
0010
0001
0000
,  // measure 128
1000
0010
0100
0001
,  // measure 129
0010
1000
0010
0100
,  // measure 130
1000
0001
0100
0010
,  // measure 131
1000
0010
1000
0001
,  // measure 132
1000
0100
0001
0100
,  // measure 133
0010
0001
1000
0010
,  // measure 134
0100
0001
1000
0100
,  // measure 135
0010
0001
1000
0010
,  // measure 136
0000
0100
0010
1000
,  // measure 137
0100
0001
0100
0010
,  // measure 138
0001
1000
0010
0100
,  // measure 139
0001
0100
0001
1000
,  // measure 140
0001
0010
1000
0010
,  // measure 141
0100
0000
1000
0010
1000
0000
0001
0010
,  // measure 142
0001
0100
0010
1000
,  // measure 143
0100
0010
0001
0100
,  // measure 144
0220
0000
0000
0330
,  // measure 145
0010
0000
0100
0001
0000
1000
0100
0000
0010
0000
0011
0000
1100
0000
0101
0000
,  // measure 146
0001
0010
0100
1000
0011
0000
1000
0010
0100
0001
1010
0000
0001
0100
0010
1000
,  // measure 147
0101
0000
1000
0100
0010
0001
1100
0000
0011
0000
1010
0000
0101
0000
1100
0000
,  // measure 148
0010
0001
1000
0010
0000
0100
0002
0000
,  // measure 149
0010
0000
1000
0000
0103
0000
0010
1000
,  // measure 150
2100
0000
3001
0102
0000
0013
0200
0000
,  // measure 151
0001
1300
1100
0011
,  // measure 152
0001
0000
0100
0000
0010
0000
1000
0001
1000
0001
0010
0000
0100
0000
1000
0000
,  // measure 153
0001
0100
0001
0000
0100
0000
0001
1000
0001
1000
0100
0000
0010
0000
0001
0000
,  // measure 154
0102
0000
1003
2100
0000
3010
0120
0000
,  // measure 155
1030
0001
1000
0001
0010
0100
1001
0000
,  // measure 156
1000
0000
0001
0000
0100
0010
0100
0000
,  // measure 157
0001
0000
1000
0100
1000
0000
0001
0100
,  // measure 158
0001
0000
0010
0000
0100
0010
0100
0000
,  // measure 159
1000
0000
0001
0000
0100
0000
0010
1000
,  // measure 160
0001
0000
0010
0000
0001
1000
0010
0000
,  // measure 161
0100
0000
0001
1000
0001
0000
0010
0001
,  // measure 162
1000
0000
0010
0000
1000
0001
0010
0000
,  // measure 163
0100
0000
1000
0000
0001
0000
1000
0010
,  // measure 164
0100
0000
0010
0000
1000
0100
0010
0000
,  // measure 165
0100
0000
1000
0001
0100
0000
0010
1000
,  // measure 166
0001
0000
0010
0000
0100
1000
0002
0000
,  // measure 167
0203
0000
0320
0000
2030
0000
3001
0100
,  // measure 168
0010
0000
0100
0000
0001
0010
0100
0000
,  // measure 169
0010
0000
0001
1000
0010
0000
0100
0001
,  // measure 170
1000
0000
0100
0000
0010
0001
2000
0000
,  // measure 171
3020
0000
0230
0000
0302
0000
1003
0100
,  // measure 172
0010
0100
1000
0000
0001
0100
0010
0000
,  // measure 173
1000
0000
0100
0000
0010
0000
0001
0100
,  // measure 174
0010
0100
0001
0000
1000
0100
0010
0000
,  // measure 175
0001
0000
0100
0000
0010
0000
1000
0010
,  // measure 176
0100
0010
1000
0000
0001
0010
0100
0000
,  // measure 177
1000
0000
0010
0000
0100
0000
0001
0010
,  // measure 178
0100
0010
0001
0000
1000
0010
1000
0001
,  // measure 179
0010
0001
1000
0000
0010
0000
0100
0001
,  // measure 180
1000
0001
0010
0000
0100
1000
0001
0000
,  // measure 181
0100
0000
0010
0100
0010
0000
1000
0001
,  // measure 182
0010
0000
0100
0000
1000
0010
1000
0000
,  // measure 183
0001
0010
0001
0000
0100
0000
0010
1000
,  // measure 184
0001
1000
0100
0000
0010
0001
1000
0000
,  // measure 185
0010
0000
0100
0010
0100
0000
0001
1000
,  // measure 186
0100
0000
0010
0001
1000
0010
1000
0001
,  // measure 187
0010
0100
1000
0000
0000
0000
1010
0000
,  // measure 188
0000
0011
0000
0000
0000
0101
0000
0000
0000
1100
0000
0000
,  // measure 189
0000
0101
0000
0000
0000
1010
0000
0000
0000
0011
0000
0000
,  // measure 190
0000
1010
0000
0000
0000
1100
0000
0000
0000
0011
0000
0000
,  // measure 191
0000
0101
0000
0000
0000
1100
0000
0000
0000
0101
0000
0000
,  // measure 192
0000
0011
0000
0000
0000
1010
0000
0000
0000
0011
0000
0000
,  // measure 193
0000
1100
0000
0000
0000
0101
0000
0000
0000
1010
0000
0000
,  // measure 194
0000
0011
0000
0000
0000
1100
0000
0000
0000
0101
0000
0000
,  // measure 195
0000
0011
0000
0000
0000
1001
0000
0000
0000
1100
0000
0000
,  // measure 196
0000
0101
0000
0000
0000
1100
0000
0000
0000
0011
0000
0000
,  // measure 197
0000
1010
0000
0000
0000
1001
0000
0000
0000
0011
0000
0000
,  // measure 198
0000
1100
0000
0000
0000
0101
0000
0000
0000
1100
0000
0000
,  // measure 199
0000
0011
0000
0000
0000
1001
0000
0000
0000
0101
0000
0000
,  // measure 200
0000
1010
0000
0000
0000
0011
0000
0000
0000
1010
0000
0000
,  // measure 201
0000
0101
0000
0000
0000
1001
0000
0000
0000
0011
0000
0000
,  // measure 202
0000
0101
0000
0000
0000
1100
0000
0000
0000
0101
0000
0000
,  // measure 203
0000
1010
0000
0000
0000
1001
0000
0000
0000
2010
0000
0000
,  // measure 204
0000
0001
0000
0000
0000
3100
0000
0000
0000
0011
0000
0000
,  // measure 205
0000
1001
0000
0000
0000
1010
0000
0000
0000
0012
0000
0000
,  // measure 206
0000
1000
0000
0000
0000
0103
0000
0000
0000
1010
0000
0000
,  // measure 207
0000
1001
0000
0000
0000
0011
0000
0000
0000
2100
0000
0000
,  // measure 208
0000
0001
0000
0000
0000
3010
0000
0000
0000
0101
0000
0000
,  // measure 209
0000
1001
0000
0000
0000
1100
0000
0000
0000
0102
0000
0000
,  // measure 210
0000
1000
0000
0000
0000
0013
0000
0000
0000
1100
0000
0000
,  // measure 211
0000
1001
0000
0000
0000
0101
0000
0000
0000
0010
0000
1000
,  // measure 212
0000
0001
0000
0010
0000
0100
0000
1000
0000
0001
0000
0100
,  // measure 213
0000
0010
0000
1000
0000
0100
0000
0010
0000
0001
0000
1000
,  // measure 214
0000
0010
0000
0100
0000
0001
0000
1000
0000
0100
0000
0000
,  // measure 215
0000
0011
0000
0000
0000
1010
0000
0000
0000
0100
0000
0001
,  // measure 216
0000
1000
0000
0100
0000
0010
0000
0001
0000
1000
0000
0010
,  // measure 217
0000
0100
0000
0001
0000
0010
0000
0100
0000
1001
0000
0000
,  // measure 218
0000
1100
0000
0000
0000
0101
0000
0000
0000
0220
0000
0000
,  // measure 219
0000
0000
0000
0000
0000
0000
0000
0000
0330
0000
0000
0000
1001
0000
1000
0010
,  // measure 220
0000
0100
0001
0000
0100
0000
0010
0000
1010
0000
0101
0000
0100
0010
1000
0100
,  // measure 221
0000
0010
0001
0000
0010
0000
0100
0000
1100
0000
0011
0000
1000
0100
0010
0001
,  // measure 222
1100
0000
0001
0100
0010
1000
0101
0000
1000
0010
0100
0001
1010
0000
0001
0010
,  // measure 223
0100
1000
0011
0000
1100
0000
0101
0000
1010
0000
0011
0000
0100
0000
1000
0000
,  // measure 224
0001
0100
0000
0010
2000
0000
0100
0000
,  // measure 225
0001
0000
3010
0000
0110
0000
0100
0001
,  // measure 226
0010
0100
1000
0010
0200
0000
1000
0000
,  // measure 227
0301
0000
1010
0000
0101
0000
0001
0010
,  // measure 228
0100
1000
0011
0100
1000
0010
0100
0001
,  // measure 229
1010
0100
0001
0100
0010
1000
0101
0010
,  // measure 230
1000
0100
0010
0001
1100
0010
0001
1000
,  // measure 231
0001
1000
0010
0100
0000
0000
0010
0000
,  // measure 232
1000
0100
0001
0100
,  // measure 233
1000
0000
0010
0000
0100
0001
0100
0000
,  // measure 234
0010
1000
0010
0000
0100
0000
0001
0000
,  // measure 235
0010
0100
1000
0001
,  // measure 236
1000
0010
0001
0010
,  // measure 237
1000
0000
0100
0000
0010
0001
0010
0000
,  // measure 238
0100
1000
0100
0000
0010
0000
0001
0000
,  // measure 239
1000
0001
2000
0000
3010
0000
0100
0000
,  // measure 240
0001
0010
1000
0010
,  // measure 241
0001
0000
0100
0000
0010
1000
0010
0000
,  // measure 242
0100
0001
0100
0000
0010
0000
1000
0000
,  // measure 243
0100
0010
0001
2002
,  // measure 244
3000
0203
0320
2030
,  // measure 245
3002
0000
0000
0000
0013
0000
0100
1000
,  // measure 246
0100
0000
1000
0010
1000
0000
0001
0010
,  // measure 247
0001
0000
0100
0001
0100
0000
0020
2030
,  // measure 248
3002
0000
0023
0030
2200
3300
0202
0303
0020
0000
0032
0000
2003
0000
3020
0030
,  // measure 249
0202
0303
2020
3030
0200
0000
0302
0000
2003
0000
3200
0300
0022
0033
2020
3030
,  // measure 250
0200
0000
0302
0023
0230
2300
3000
0101
,  // measure 251
0000
1100
0000
0010
0001
0000
1001
0000
,  // measure 252
1000
0010
0100
0000
0001
0000
1000
0000
,  // measure 253
0100
0010
0001
0000
1000
0000
0010
0000
,  // measure 254
0100
0001
1000
0000
0100
0000
0010
0000
,  // measure 255
0100
1000
0001
0000
0100
0000
0010
0000
,  // measure 256
0100
0001
1000
0100
0000
0100
0010
0000
,  // measure 257
0010
0001
1000
0010
0000
0010
0100
0000
,  // measure 258
0100
0001
1000
0100
1000
0001
0100
0001
,  // measure 259
1000
0010
0100
0001
1000
0001
0010
0100
,  // measure 260
1000
0000
0001
0000
0100
0010
0100
0000
,  // measure 261
0001
0000
1000
0000
0100
0010
0100
0000
,  // measure 262
0010
0000
0001
0000
1000
0010
1000
0000
,  // measure 263
0010
0000
0100
0000
0001
1000
0001
0000
,  // measure 264
2000
0000
3002
0203
,  // measure 265
0320
2030
3000
1001
,  // measure 266
0000
0011
0000
1010
,  // measure 267
0100
0000
0001
0000
1000
0001
1000
0000
,  // measure 268
0001
1000
0001
0000
0010
0000
0100
0000
,  // measure 269
1000
0010
0100
0000
0001
0000
0010
0000
,  // measure 270
0100
1000
0001
0000
0100
0000
0010
0000
,  // measure 271
1000
0001
1000
0000
0100
0000
0010
0000
,  // measure 272
0100
1000
0001
0100
0000
0100
0010
0000
,  // measure 273
0010
1000
0001
0010
0000
0010
0100
0000
,  // measure 274
0100
1000
0001
0100
0001
1000
0100
1000
,  // measure 275
0001
0010
0100
1000
0001
1000
0010
0100
,  // measure 276
0001
0010
0100
1000
,  // measure 277
0001
0000
0100
0000
0010
0100
0010
0000
,  // measure 278
1000
0100
0010
0001
,  // measure 279
1000
0000
0010
0000
0100
0010
0100
0000
,  // measure 280
0002
0000
2003
3200
,  // measure 281
0320
0032
0003
1001
,  // measure 282
0000
0110
0000
2001
,  // measure 283
0000
0001
3001
0000
,  // measure 284
1001
0000
0001
0100
0000
0010
1000
0000
0100
0000
0011
0000
1010
0000
0101
0000
,  // measure 285
0010
0100
0001
0010
1000
0010
0001
0100
0010
1000
0100
0001
0100
1000
0010
0000
,  // measure 286
1000
0100
0010
0001
1100
0000
1000
0010
0100
0001
1010
0000
0001
0100
0010
1000
,  // measure 287
0101
0010
1000
0100
0001
0100
1000
0010
0100
0001
0010
1000
0010
0001
0100
0010
,  // measure 288
1000
0100
0010
0100
0001
0100
0010
0001
,  // measure 289
0100
0010
0100
1000
0100
0001
0010
0100
,  // measure 290
1000
0010
0100
0010
0001
0010
0100
0001
,  // measure 291
0010
0100
0010
1000
0010
0001
1000
0000
,  // measure 292
1000
0010
0100
0001
1010
0100
0001
0010
,  // measure 293
0100
1000
0011
0100
1000
0100
0010
0001
,  // measure 294
1100
0010
0001
0100
0010
1000
0101
0010
,  // measure 295
2000
3000
0000
0000
0000
0000
0000
0000
0001
0000
0100
0000
0001
0000
0000
0000
1000
0000
0000
0000
0001
0000
0010
0000
0001
0000
0000
0000
1000
0000
0000
0000
,  // measure 296
0010
0100
0010
0000
0100
0000
0001
0000
1000
0000
0100
0000
0010
0001
1000
0001
,  // measure 297
0010
0000
0100
0000
1000
0100
1000
0000
0001
0000
1000
0010
1000
0000
0001
0000
,  // measure 298
0010
0100
0010
0000
0100
0000
1000
0000
0001
0000
0100
0000
0010
1000
0001
1000
,  // measure 299
0010
0000
0100
0000
0001
0100
0010
0000
0100
0000
0001
0010
0100
0000
0010
0000
,  // measure 300
0001
1000
0001
0000
0010
0000
0100
0000
1000
0000
0010
0000
0100
0001
1000
0001
,  // measure 301
0100
0000
0010
0000
1000
0010
0100
0000
0010
0000
1000
0100
0010
0000
0100
0000
,  // measure 302
1000
0001
1000
0001
0100
0000
0002
0000
0000
0023
0000
0000
0230
0000
0000
2300
,  // measure 303
0000
0000
3001
0000
0100
0010
1000
0000
0100
0000
0010
0100
1000
0000
0100
0000
,  // measure 304
0010
0001
0100
0000
0010
0000
1000
0100
0000
0010
0001
0000
1000
0010
0000
0100
,  // measure 305
0001
0000
1000
0000
0100
0010
0001
0000
0100
0000
0010
0100
0001
0000
0100
0000
,  // measure 306
0010
1000
0100
0000
0010
0000
0001
0100
0000
0010
1000
0000
0001
0010
0000
0100
,  // measure 307
1000
0000
0100
0000
0010
0100
1000
0000
0010
0000
0100
0010
1000
0000
0010
0000
,  // measure 308
0100
0001
0010
0000
0100
0000
1000
0010
0000
0100
0001
0000
1000
0100
0000
0010
,  // measure 309
0001
0000
1000
0000
0010
0100
0001
0000
0010
0000
0100
0010
0001
0000
1000
0010
,  // measure 310
0100
0000
0001
0010
0100
0000
2000
0000
0000
3020
0000
0000
0230
0000
0000
0302
,  // measure 311
0000
0013
0100
1000
0001
0100
0001
1000
,  // measure 312
0001
0100
0010
0000
1000
0000
2020
0000
,  // measure 313
3030
0000
0010
0100
0001
0000
1000
0100
,  // measure 314
0010
0100
1000
0000
0001
0000
0100
0000
,  // measure 315
0010
0000
1000
0001
1000
0100
1000
0001
,  // measure 316
1000
0100
0010
0000
0001
0000
0022
0000
,  // measure 317
0033
0000
0010
0100
1000
0000
0001
0100
,  // measure 318
0010
0000
1000
0001
1000
0001
0010
0000
,  // measure 319
0100
0000
1000
0001
1000
0010
1000
0001
,  // measure 320
1000
0010
0100
0000
0001
0000
0202
0000
,  // measure 321
0303
0000
0100
0010
1000
0000
0001
0010
,  // measure 322
0100
1000
0001
0000
1000
0000
0010
0000
,  // measure 323
0100
0000
0001
1000
0001
0010
0001
1000
,  // measure 324
0001
0010
0100
0000
1000
0000
2200
0000
,  // measure 325
3300
0000
1000
0010
1000
0000
0001
0010
,  // measure 326
0001
0000
1000
0100
1000
0000
0001
0100
,  // measure 327
0001
0000
1000
0001
0010
0100
1000
0001
,  // measure 328
0100
0010
2000
0000
0001
0000
3200
0000
,  // measure 329
0000
0000
0310
0000
0001
1000
0001
0000
,  // measure 330
0100
0000
0010
1000
0001
0010
0100
0000
,  // measure 331
1000
0000
0001
1000
0010
0100
0001
1000
,  // measure 332
0100
0010
0002
0000
1000
0000
0203
0000
,  // measure 333
0000
0000
0310
0000
1000
0001
1000
0000
,  // measure 334
0100
0000
0010
0001
1000
0010
0100
0000
,  // measure 335
0001
0000
1000
0001
0100
0010
1000
0001
,  // measure 336
0010
0100
2000
0000
0001
0000
3020
0000
,  // measure 337
0000
0000
0130
0000
0001
1000
0001
0000
,  // measure 338
0010
0000
0100
1000
0001
0000
0100
0000
,  // measure 339
0010
0000
0000
0000
1000
0000
0100
M00M
0100
0000
00M1
0000
0100
M00M
0100
0000
,  // measure 340
1000
00M0
0001
0000
0100
M00M
0100
0000
10M0
0000
0100
M00M
0100
0000
0001
0000
,  // measure 341
0010
0100
2000
0000
0000
0000
3002
0000
,  // measure 342
0000
0000
0103
0010
1000
0001
0020
0000
,  // measure 343
0030
0000
0100
0010
0100
0000
1000
0000
,  // measure 344
0100
0010
0100
0000
1000
0000
0001
0100
,  // measure 345
0001
0000
1000
0100
1000
0000
0001
0000
,  // measure 346
0100
0010
0100
0000
0001
0000
0010
0000
,  // measure 347
0100
0000
1000
0010
1000
0000
0001
0000
,  // measure 348
0010
0100
0010
0000
0100
0000
1000
0001
,  // measure 349
1000
0000
0001
0010
0001
0000
1000
0000
,  // measure 350
0001
0100
0001
0000
1000
0000
0010
0000
,  // measure 351
0100
0000
0001
0010
1000
0000
0010
0000
,  // measure 352
1000
0010
0001
0000
1000
0000
0010
0100
,  // measure 353
0001
0000
1000
0100
0010
0000
0001
0000
,  // measure 354
0100
0010
1000
0000
0001
0000
0010
0000
,  // measure 355
0100
0000
1000
0010
0001
0000
0010
0000
,  // measure 356
0001
0010
1000
0000
0001
0000
1000
0001
,  // measure 357
1000
0000
0001
0010
0001
0000
1000
0010
,  // measure 358
1000
0000
0001
0100
0001
0000
1000
0100
,  // measure 359
1000
0001
0100
0010
,  // measure 360
1000
0100
1000
0000
0001
0000
1000
0010
,  // measure 361
1000
0000
0001
0010
0100
0000
1000
0000
,  // measure 362
0001
0100
0010
0000
1000
0000
0100
0000
,  // measure 363
0010
0000
0001
0100
1000
0000
0100
0000
,  // measure 364
1000
0100
0001
0000
0010
0000
0100
1000
,  // measure 365
0001
0000
1000
0010
1000
0000
0001
0000
,  // measure 366
1000
0100
1000
0000
0001
0000
0100
0000
,  // measure 367
0010
0000
1000
0100
0010
0100
1000
0001
,  // measure 368
0100
0010
1000
0001
0010
0001
1000
0010
,  // measure 369
1000
0001
0010
0100
1000
0001
0100
0010
,  // measure 370
0100
0001
1000
0100
1000
0001
0100
0010
,  // measure 371
1000
0010
0100
0001
1000
0100
0010
0001
,  // measure 372
0010
0100
1000
0001
0100
0010
1000
0001
,  // measure 373
1000
0001
0200
0000
0000
0000
0320
0000
,  // measure 374
0000
1030
0100
0010
,  // measure 375
0001
0000
1000
0010
0100
0000
0001
0010
,  // measure 376
0100
1000
0011
0000
1010
0000
0201
0000
,  // measure 377
0310
1000
0001
0010
0100
0000
1000
0010
,  // measure 378
0100
0001
1010
0000
0011
0000
1200
0000
,  // measure 379
0310
0001
1000
0100
0010
0000
0001
0100
,  // measure 380
0010
1000
0101
0010
1001
0100
2010
0000
,  // measure 381
3001
0010
0100
1000
0010
0000
0100
0001
,  // measure 382
1000
0100
0000
0010
0001
0100
0000
1001
,  // measure 383
1001
0010
1000
0100
,  // measure 384
0000
0010
0001
0100
,  // measure 385
0010
1010
0100
1001
,  // measure 386
0010
0102
0000
1003
,  // measure 387
0100
0010
0001
0100
,  // measure 388
0000
0010
1000
0100
,  // measure 389
0010
0011
0000
0101
,  // measure 390
0010
2010
0000
3001
,  // measure 391
0010
1000
0010
0001
,  // measure 392
0100
1000
0100
0001
,  // measure 393
0010
0100
1000
0001
,  // measure 394
0100
2010
0000
3001
,  // measure 395
0010
0100
1000
0010
,  // measure 396
0000
0100
0001
1000
,  // measure 397
0100
0000
0010
0001
,  // measure 398
0100
0000
0110
0210
,  // measure 399
0000
0000
0000
0000
0000
0000
0000
0000
0000
0000
0000
0000
0301
0000
1000
0010
,  // measure 400
0000
0100
0001
0000
1000
0100
0000
0010
0001
1000
0010
0100
0001
0000
1000
0100
,  // measure 401
0000
0010
0001
0000
1000
0010
0100
0001
1000
0001
0100
0010
1000
0000
0001
0010
,  // measure 402
0000
0100
1000
0000
0001
0100
0000
0010
1000
0001
0010
0000
0100
1000
0001
1000
,  // measure 403
0001
0010
0001
1000
0001
0010
0100
1000
0001
0100
0010
0000
1000
0000
0001
0010
,  // measure 404
0000
0100
1000
0000
0001
0100
0000
0010
1000
0001
0010
0100
1000
0000
0001
0100
,  // measure 405
0000
0010
1000
0000
0100
0010
0001
1000
0020
0000
0230
0000
0310
1000
0001
0010
,  // measure 406
0000
0010
0100
0000
0100
1000
0001
0100
0000
0100
0010
0000
0100
0001
1000
0100
,  // measure 407
0000
0100
0010
0001
1000
0001
0100
0001
1000
0100
0010
0001
2000
0000
3010
0000
,  // measure 408
0100
0001
0000
0010
0100
1000
0001
0100
0010
0000
1000
0010
0000
0100
0001
0000
,  // measure 409
1000
0100
0010
0001
1000
0001
0010
0100
1000
0000
0001
0100
0000
0010
1000
0000
,  // measure 410
0001
0010
0000
0100
1000
0001
0100
0000
0001
0100
0001
1000
0100
1000
0001
1000
,  // measure 411
0001
0100
0010
1000
0001
0010
0100
0000
1000
0000
0001
0100
0000
0010
1000
0000
,  // measure 412
0001
0010
0000
0100
1000
0000
0001
0100
0010
0000
1000
0100
0000
0010
0001
0000
,  // measure 413
0100
0010
1000
0001
0020
0000
0230
0000
0310
0001
1000
0010
0000
0010
0100
0000
,  // measure 414
0100
0001
1000
0100
0000
0100
0010
0000
0100
1000
0001
1000
0010
1000
0001
0010
,  // measure 415
0100
1000
0001
0100
0001
1000
0001
0010
0100
0000
0000
0000
1000
0000
0001
0000
,  // measure 416
0100
0010
1000
0001
0010
0100
1000
0001
,  // measure 417
0100
0010
1000
0001
1000
0001
0010
0100
,  // measure 418
1000
0001
0100
0010
1000
0001
1000
0100
,  // measure 419
0010
0001
1000
0001
1000
0010
0000
0100
,  // measure 420
0001
0000
1000
0100
0000
0010
0001
1000
,  // measure 421
0010
1000
0001
0100
0001
1000
0100
1000
,  // measure 422
0001
0010
0001
1000
0010
1000
0001
1000
,  // measure 423
0001
0010
0100
1000
0001
1000
0010
0100
,  // measure 424
0001
1000
0100
0010
0100
1000
0001
0010
,  // measure 425
0100
0010
0001
0100
0010
1000
0001
1000
,  // measure 426
0100
0010
0001
1000
0001
1000
0010
0100
,  // measure 427
0002
0000
2003
0000
3001
0010
0100
1000
,  // measure 428
0000
0010
0100
0000
0001
0010
0100
1000
,  // measure 429
0000
0010
0100
0000
0001
0010
0100
1000
,  // measure 430
0001
0100
0010
1000
0100
0010
0001
1000
,  // measure 431
0001
1000
0010
0100
0002
0000
0013
0000
,  // measure 432
0100
1000
0001
1000
0100
1000
0001
0000
,  // measure 433
0100
0010
0100
0001
0100
0010
1000
0000
,  // measure 434
0100
0010
0100
1000
0100
0010
0001
0000
,  // measure 435
1000
0010
0000
0100
0001
0000
1000
0100
,  // measure 436
0000
0010
0001
1000
0010
0100
0001
0000
,  // measure 437
1000
0010
0100
0010
1000
0001
0010
0100
,  // measure 438
0010
0001
1000
0010
0100
0001
1000
0000
,  // measure 439
0100
0010
0001
0010
0100
0010
0001
0000
,  // measure 440
0100
0010
1000
0010
0100
0010
1000
0001
,  // measure 441
1000
0001
0010
0100
1000
0001
0100
0010
,  // measure 442
1000
0001
0010
0100
2000
0000
3002
0000
,  // measure 443
0103
0010
1000
0100
0010
1000
0001
0100
,  // measure 444
0010
0001
1000
0010
0100
1000
0001
0010
,  // measure 445
0100
0001
1000
0100
0010
0001
1000
0010
,  // measure 446
1000
0001
0010
0001
1000
0100
0010
0001
,  // measure 447
1000
0000
0000
0000
,  // measure 448
0000
0000
0000
0000
,  // measure 449
1000
0100
0010
0100
,  // measure 450
1000
0100
0010
0100
,  // measure 451
1000
0001
0100
0010
,  // measure 452
0100
0001
0100
0010
,  // measure 453
0001
0010
1000
0010
,  // measure 454
0001
0010
1000
0100
,  // measure 455
0001
0100
1000
0100
,  // measure 456
0001
0100
1000
0020
,  // measure 457
0000
0000
0000
0000
,  // measure 458
0000
0000
0000
0000
,  // measure 459
0000
0000
0000
0000
,  // measure 460
0000
0000
0000
0000
,  // measure 461
0030
0000
0000
0000
;
