#VERSION:0.83;
#TITLE:Replicant D-action;
#SUBTITLE:-Overhead T.T Remix-;
#ARTIST:橘 朋之;
#TITLETRANSLIT:;
#SUBTITLETRANSLIT:;
#ARTISTTRANSLIT:Tachibana Tomoyuki;
#GENRE:;
#CREDIT:NAOKI Restep (2015 to 2022);
#MUSIC:Replicant D-action -Overhead T.T Remix-.ogg;
#BANNER:ReplicantD-action-bn.png;
#BACKGROUND:ReplicantD-action-bg.png;
#CDTITLE:naokicdtitle.png;
#SAMPLESTART:303.507;
#SAMPLELENGTH:10.000;
#SELECTABLE:YES;
#OFFSET:3.138;
#BPMS:0.000=190.000
,0.021=75.000
,4.000=79.000
,5.000=80.000
,8.000=81.750
,9.000=83.500
,10.000=84.000
,11.000=85.000
,12.000=87.000
,13.000=88.000
,14.000=89.000
,15.000=90.500
,16.000=91.000
,17.000=92.500
,18.000=95.000
,20.000=96.000
,21.000=97.500
,22.000=99.000
,24.000=102.000
,26.000=103.000
,26.500=104.500
,28.000=107.000
,30.000=108.000
,31.000=110.000
,32.000=112.000
,34.000=113.000
,35.000=114.000
,36.000=115.000
,37.000=117.000
,38.000=119.000
,40.000=120.000
,41.000=122.000
,42.000=124.000
,43.000=125.000
,44.000=125.500
,45.000=126.000
,46.000=127.500
,47.000=129.000
,48.000=131.000
,50.000=132.000
,51.000=133.300
,52.000=136.500
,53.000=137.000
,55.000=138.000
,56.000=139.500
,57.000=140.000
,58.000=142.000
,59.000=145.000
,60.000=146.000
,62.000=147.000
,63.000=148.000
,64.000=150.000
,65.000=152.000
,67.000=154.000
,68.000=155.000
,70.000=156.000
,71.000=158.000
,72.000=160.000
,74.000=162.000
,75.000=163.000
,76.000=165.000
,78.000=166.000
,79.000=168.000
,80.000=170.000
,82.000=172.000
,84.000=175.000
,86.000=176.000
,88.000=178.000
,89.000=180.000
,90.000=181.000
,91.000=182.000
,92.000=184.000
,94.000=186.000
,95.000=188.000
,95.500=190.000
;
#STOPS:;
#SCROLLS:0.000=1.000,
1203.750=2.000
;
#DISPLAYBPM:190.000;
#BGCHANGES:;
#FGCHANGES:;

//--------------- dance-single - NAOKI 10*/23*/22*/8/16/32*/47*/32* ----------------
#NOTEDATA:;
#STEPSTYPE:dance-single;
#DESCRIPTION:NAOKI 10*/23*/22*/8/16/32*/47*/32*;
#DIFFICULTY:Challenge;
#METER:17;
#RADARVALUES:0,0,0,0,0;
#NOTES:
0000
0000
0000
0000
,
1000
0100
1000
0000
0001
0100
0010
0000
1000
0001
0010
0000
0100
1000
0001
0000
,
1000
0010
1000
0000
0001
0010
0100
0000
1000
0001
0100
0000
0010
1000
0001
0000
,
1000
0100
0010
0000
0001
1000
0010
0000
0100
0001
1000
0000
0100
0010
0001
0000
,
1000
0010
0100
0000
0001
1000
0100
0000
0010
0001
1000
0000
0010
0100
0100
0000
,
0001
0100
0001
0000
1000
0100
0010
0000
0001
1000
0010
0000
0100
0001
1000
0000
,
0001
0010
0001
0000
1000
0010
0100
0000
0001
1000
0100
0000
0010
0001
1000
0000
,
0001
0100
0010
0000
1000
0001
0010
0000
0100
1000
0001
0000
0100
0010
1000
0000
,
0001
0010
0100
0000
1000
0001
0100
0000
0010
0000
0100
0001
1000
0100
0010
0001
,
1000
0010
1000
0000
0001
0010
0100
0000
1000
0001
0100
0000
0010
1000
0001
0000
,
1000
0100
1000
0000
0001
0100
0010
0000
1000
0001
0010
0000
0100
1000
0001
0000
,
1000
0010
0100
0000
0001
1000
0100
0000
0010
0001
1000
0000
0010
0100
0001
0000
,
1000
0100
0010
0000
0001
1000
0010
0000
0100
0000
0010
1000
0001
0010
0100
1000
,
0001
0010
0001
0000
1000
0010
0100
0000
0001
1000
0100
0000
0010
0001
1000
0000
,
0001
0100
0001
0000
1000
0100
0010
0000
0001
1000
0010
0000
0100
0001
1000
0000
,
0001
0010
0100
0000
1000
0001
0100
0000
0010
1000
0001
0000
0010
0100
1000
0000
,
0001
0000
1000
0010
0100
0001
1000
0000
0100
0000
0010
0001
1000
0010
0100
0001
,
0010
0000
0100
0000
1000
0000
0001
0000
0100
0000
0010
0000
1000
0001
0010
0000
,
0100
0000
1000
0000
0001
0000
0100
0000
0010
0000
1000
0000
0001
0010
0100
0000
,
1000
0000
0010
0000
0100
0000
0001
0000
1000
0000
0100
0000
0010
0001
1000
0000
,
0010
0000
0100
0000
0001
0000
1000
0000
0100
0000
0010
0001
1000
0010
0100
0001
,
1000
0100
0010
0100
1000
0001
0100
0010
1000
0001
0010
0001
1000
0010
0100
0001
,
1000
0100
1000
0001
0010
0100
1000
0001
0100
0001
1000
0100
0010
0001
1000
0001
,
0100
0010
1000
0001
0010
0100
1000
0001
1000
0010
0100
0001
1000
0100
0010
0001
,
2000
0000
0000
3000
,
0001
0100
0001
1000
0001
0100
0010
1000
0001
0010
0001
1000
0010
0100
0001
1000
,
0100
1000
0001
1000
0100
0010
0001
1000
0001
0100
0010
1000
0001
0010
0100
1000
,
0001
0010
0001
1000
0001
0010
0100
1000
0001
0100
0001
1000
0100
0010
0001
1000
,
0010
0100
0010
1000
0001
0010
0100
0010
0001
1000
0010
0100
0001
1000
0100
0010
,
0001
1000
0010
1000
0001
1000
0010
0100
0001
0010
0100
1000
0001
0100
0010
1000
,
0001
0010
0001
1000
0001
0010
0100
1000
0010
0100
0001
1000
0100
0010
0001
1000
,
0100
1000
0001
1000
0100
0010
0001
1000
0001
0100
0010
1000
0002
0000
0003
0000
,
0010
0100
1000
0000
0010
0100
0001
0000
1000
0100
0010
0000
0001
0100
0010
0000
,
1000
0100
1000
0001
1000
0100
0010
0001
1000
0010
1000
0001
0010
0100
1000
0001
,
0100
0001
1000
0001
0100
0010
1000
0001
1000
0100
0010
0001
1000
0010
0100
0001
,
1000
0010
1000
0001
1000
0010
0100
0001
1000
0100
1000
0001
0100
0010
1000
0001
,
0010
0001
0100
0001
1000
0100
1000
0001
0100
0010
1000
0001
0010
0100
1000
0010
,
1000
0001
0010
0001
1000
0001
0010
0100
1000
0010
0100
0001
1000
0100
0010
0001
,
1000
0010
1000
0001
1000
0010
0100
0001
0010
0100
1000
0001
0100
0010
1000
0001
,
0100
0001
1000
0001
0100
0010
1000
0001
0010
0100
0010
0001
1000
0010
1000
0001
,
0010
0100
1000
0001
0100
0010
1000
0001
0010
0100
1000
0001
0100
0010
1000
0001
,
1000
0100
0010
0001
1000
0010
0100
0001
1000
0100
1000
0001
0100
0001
1000
0001
,
0010
0100
1000
0001
0100
0010
1000
0001
0010
0001
1000
0010
0100
0001
1000
0100
,
1000
0010
0100
0001
1000
0100
0010
0001
1000
0010
1000
0001
0010
0001
1000
0001
,
0100
0010
0100
0001
1000
0100
0010
0100
1000
0001
0100
0010
1000
0100
0010
0001
,
0100
0010
1000
0001
0010
0100
1000
0001
0100
0010
0100
0001
1000
0100
1000
0001
,
1000
0010
0100
0001
1000
0100
0010
0001
1000
0010
0100
0010
1000
0001
0010
0001
,
0100
0010
1000
0001
0010
0100
1000
0001
0100
0010
0100
0001
1000
0100
1000
0001
,
0100
0010
1000
0001
0010
0100
1000
0001
0100
0010
1000
0001
0010
0100
1000
0000
,
0001
0100
0010
1000
0001
0010
0100
1000
0001
0100
0001
1000
0100
1000
0001
1000
,
0010
0100
0001
1000
0100
0010
0001
1000
0010
1000
0001
0010
0100
1000
0001
0100
,
0001
0010
0100
1000
0001
0100
0010
1000
0001
0010
0001
1000
0010
1000
0001
1000
,
0100
0010
0100
1000
0001
0100
0010
0100
0001
1000
0100
0010
0001
0100
0010
1000
,
0100
0010
0001
1000
0010
0100
0001
1000
0100
0010
0100
1000
0001
0100
0001
1000
,
0001
0010
0100
1000
0001
0100
0010
1000
0001
0010
0100
0010
0001
1000
0010
1000
,
0100
0010
0001
1000
0010
0100
0001
1000
0100
0010
0001
1000
0010
0000
0100
0001
,
1000
0100
0010
0000
0001
0100
0010
0000
1000
0100
0010
0000
0001
0100
0010
0000
,
1000
0100
0010
0001
1000
0010
0100
0001
0010
0001
1000
0010
1000
0001
0010
0001
,
1000
0010
0100
0001
1000
0100
1000
0001
0100
0001
1000
0100
1000
0001
0100
0010
,
1000
0001
1000
0100
0010
0001
1000
0010
0100
0001
1000
0100
1000
0001
0100
0001
,
1000
0100
0010
0001
1000
0010
1000
0001
0010
0100
0010
0001
1000
0010
1000
0001
,
0010
0100
1000
0001
0100
0010
1000
0001
0010
0001
1000
0010
1000
0001
0010
0001
,
1000
0010
0100
0001
1000
0100
1000
0001
0100
0001
1000
0100
1000
0001
0100
0010
,
1000
0001
1000
0100
0010
0001
1000
0010
0100
0001
1000
0100
1000
0001
0100
0001
,
1000
0100
1000
0001
0100
0010
1000
0001
0010
0001
1000
0001
0100
0010
1000
0001
,
0010
0100
1000
0001
0100
0010
1000
0001
0010
0001
1000
0010
1000
0001
0010
0100
,
1000
0001
0100
0001
1000
0100
1000
0001
0100
0001
1000
0100
0010
0001
1000
0001
,
0100
0010
0100
0001
1000
0100
0010
0001
0100
0001
1000
0100
1000
0001
0100
0001
,
1000
0100
0010
0001
1000
0010
1000
0001
0010
0001
1000
0010
0100
0001
1000
0100
,
0010
0001
1000
0001
0100
0010
1000
0001
0010
0001
1000
0010
1000
0001
0100
0001
,
1000
0100
1000
0001
0010
0001
1000
0010
1000
0001
0010
0100
1000
0010
0100
0001
,
1000
0100
1000
0001
0100
0010
1000
0001
0010
0100
1000
0010
0100
0001
0010
0100
,
2000
0000
0000
3000
,
0001
0100
0001
1000
0100
0010
0001
1000
0010
1000
0100
0010
0001
1000
0010
1000
,
0100
0010
0001
1000
0010
1000
0100
0010
0001
1000
0010
0100
0001
1000
0100
1000
,
0010
1000
0001
0100
0010
0100
0001
1000
0100
1000
0010
0100
0001
1000
0100
1000
,
0010
0100
0001
1000
0100
1000
0010
0100
0001
1000
0100
1000
0001
1000
0010
0100
,
0001
0100
0010
1000
0100
1000
0001
0100
0010
1000
0100
1000
0001
0100
0010
1000
,
0100
1000
0001
0100
0010
1000
0001
0010
0100
1000
0001
0100
0010
1000
0001
0010
,
0001
1000
0001
0100
0010
1000
0001
0010
0100
1000
0010
1000
0001
0010
0100
0000
,
1000
0010
0100
0000
0001
0010
0100
0000
1000
0010
0100
0000
0001
0010
0100
0000
,
1000
0100
1000
0001
0100
0010
1000
0001
0010
0001
0100
0010
1000
0001
0010
0001
,
0100
0010
1000
0001
0010
0001
0100
0010
1000
0001
0010
0100
1000
0001
0100
0001
,
0010
0001
1000
0100
0010
0100
1000
0001
0100
0001
0010
0100
1000
0001
0100
0001
,
0010
0100
1000
0001
0100
0001
0010
0100
1000
0001
0100
0001
1000
0001
0010
0100
,
1000
0100
0010
0001
0100
0001
1000
0100
0010
0001
0100
0001
1000
0100
0010
0001
,
0100
0001
1000
0100
0010
0001
1000
0010
0100
0001
1000
0100
0010
0001
1000
0010
,
1000
0001
1000
0100
0010
0001
1000
0010
0100
0001
0010
0001
1000
0010
0100
0001
,
0010
0100
1000
0001
0100
0010
1000
0100
0010
0001
1000
0001
0100
0010
1000
0001
,
0020
0000
0030
0200
0000
0000
0000
0000
,
0000
0000
0000
0300
0000
0000
0000
0000
,
1000
0000
0001
0100
0000
0010
1000
0000
,
0000
0001
0010
0100
,
1000
0010
0100
0001
1000
0000
0001
0010
,
0100
1000
0001
0000
1000
0010
0100
0001
,
1000
0000
0001
0010
0100
1000
0001
0000
,
1000
0010
0100
0001
,
0020
0030
0000
0000
0000
0000
0000
0000
0100
0000
0000
0000
0000
0000
0000
0000
1000
0000
0000
0000
0000
0000
0000
0000
0001
0000
0000
0000
0000
0000
0000
0000
0100
0000
0000
0000
0000
0000
0000
0000
0010
0000
0000
0000
0000
0000
0000
0000
1000
0000
0000
0000
0000
0000
0000
0000
0001
0000
0000
0000
0000
0000
0000
0000
,
0010
0000
0000
0000
0000
0000
0000
0000
0100
0000
0000
0000
0000
0000
0000
0000
1000
0000
0000
0000
0000
0000
0000
0000
0001
0000
0000
0000
0000
0000
0000
0000
1000
0000
0000
0000
0000
0000
0000
0000
0010
0000
0000
0000
0000
0000
0000
0000
1000
0000
0000
0000
0000
0000
0000
0000
0200
0300
0000
0000
0000
0000
0000
0000
,
0020
0030
0000
0000
0000
0000
0000
0000
0001
0000
0000
0000
0000
0000
0000
0000
1000
0000
0000
0000
0000
0000
0000
0000
0020
0030
0000
0000
0000
0000
0000
0000
0100
0000
0000
0000
0000
0000
0000
0000
0001
0000
0000
0000
0000
0000
0000
0000
0010
0000
0000
0000
0000
0000
0000
0000
0100
0000
0000
0000
0000
0000
0000
0000
,
1000
0000
0000
0000
0000
0000
0000
0000
0001
0000
0000
0000
0000
0000
0000
0000
0100
0000
0000
0000
0000
0000
0000
0000
0001
0000
0000
0000
0000
0000
0000
0000
0020
0030
0000
0000
0000
0000
0000
0000
0100
0000
0000
0000
0000
0000
0000
0000
0020
0030
0000
0000
0000
0000
0000
0000
0001
0000
0000
0000
0000
0000
0000
0000
,
2000
3000
0000
0000
0000
0000
0000
0000
0010
0000
0000
0000
0000
0000
0000
0000
0100
0000
0000
0000
0000
0000
0000
0000
0002
0003
0000
0000
0000
0000
0000
0000
1000
0000
0000
0000
0000
0000
0000
0000
0000
0000
0000
0000
0000
0000
0000
0000
0001
0000
0000
0000
0000
0000
0000
0000
0010
0000
0000
0000
0000
0000
0000
0000
,
0100
0000
0000
0000
0000
0000
0000
0000
1000
0000
0000
0000
0000
0000
0000
0000
0001
0000
0000
0000
0000
0000
0000
0000
0000
0000
0000
0000
0000
0000
0000
0000
1000
0000
0000
0000
0000
0000
0000
0000
0010
0000
0000
0000
0000
0000
0000
0000
0100
0000
0000
0000
0000
0000
0000
0000
0002
0003
0000
0000
0000
0000
0000
0000
,
2000
3000
0000
0000
0000
0000
0000
0000
0000
0000
0000
0000
0000
0000
0000
0000
0001
0000
0000
0000
0000
0000
0000
0000
0020
0030
0000
0000
0000
0000
0000
0000
0100
0000
0000
0000
0000
0000
0000
0000
1000
0000
0000
0000
0000
0000
0000
0000
0002
0003
0000
0000
0000
0000
0000
0000
0000
0000
0000
0000
0000
0000
0000
0000
,
1000
0000
0000
0000
0000
0000
0000
0000
0020
0030
0000
0000
0000
0000
0000
0000
0100
0000
0000
0000
0000
0000
0000
0000
0001
0000
0000
0000
0000
0000
0000
0000
2000
3000
0000
0000
0000
0000
0000
0000
0100
0000
0000
0000
0000
0000
0000
0000
2000
3000
0000
0000
0000
0000
0000
0000
0001
0000
0000
0000
0000
0000
0000
0000
,
0100
0010
1000
0001
1000
0100
0010
0001
1000
0010
1000
0001
0010
0100
1000
0001
,
0100
0010
1000
0001
1000
0100
0010
0001
0100
0010
1000
0001
0010
0100
1000
0001
,
0100
0010
1000
0001
0010
0001
0100
0010
1000
0001
0010
0001
1000
0010
0100
0001
,
1000
0100
0010
0001
1000
0001
0100
0010
1000
0100
0010
0001
1000
0010
0100
0001
,
0010
0100
1000
0001
1000
0010
0100
0001
1000
0100
1000
0001
0100
0010
1000
0001
,
0010
0100
1000
0001
1000
0010
0100
0001
0010
0100
1000
0001
0100
0010
1000
0001
,
0010
0100
1000
0001
0100
0001
0010
0100
1000
0001
0100
0001
1000
0100
0010
0001
,
1000
0010
0100
0001
1000
0001
0010
0100
1000
0010
0100
0001
1000
0100
0010
0001
,
1000
0010
0100
0010
1000
0001
0010
0100
1000
0001
1000
0010
0100
0001
1000
0100
,
0010
0001
1000
0010
1000
0001
0010
0100
1000
0001
1000
0010
0100
0001
1000
0100
,
0010
0001
1000
0001
0100
0010
1000
0001
0010
0100
1000
0001
0100
0010
1000
0001
,
0010
0100
1000
0001
1000
0010
0100
0001
1000
0100
0010
0001
1000
0010
0100
0001
,
1000
0001
0010
0100
0010
0001
1000
0010
0100
0001
1000
0001
0010
0100
1000
0001
,
0100
0010
1000
0001
0010
0001
1000
0010
0100
0001
1000
0001
0010
0100
1000
0001
,
0100
0010
1000
0001
1000
0100
0010
0001
1000
0010
0100
0001
1000
0100
0010
0001
,
1000
0010
1000
0001
0010
0100
1000
0001
0100
0001
1000
0100
0010
0001
0100
0010
,
1000
0100
1000
0010
0100
0001
1000
0100
1000
0010
0100
0001
,
1000
0100
1000
0010
0100
0001
1000
0100
1000
0001
1000
0010
,
0100
0001
0010
0100
1000
0001
0100
0001
0010
0100
1000
0001
,
0100
0001
0010
0100
1000
0001
0100
0001
1000
0001
0010
0100
,
1000
0010
1000
0100
0010
0001
1000
0010
1000
0100
0010
0001
,
1000
0010
1000
0100
0010
0001
1000
0010
1000
0001
1000
0100
,
0010
0001
0100
0010
1000
0001
0010
0001
0100
0010
1000
0001
,
0010
0001
0100
0010
1000
0001
0010
0001
1000
0001
0100
0010
,
1000
0100
1000
0010
0100
0001
1000
0100
1000
0010
0100
0001
,
1000
0010
1000
0100
0010
0001
1000
0010
1000
0100
0010
0001
,
0100
0001
0010
0100
1000
0001
0100
0001
0010
0100
1000
0001
,
0010
0001
0100
0010
1000
0001
0010
0001
0100
0001
0010
0100
,
1000
0010
1000
0100
0010
0001
1000
0010
1000
0100
0010
0001
,
1000
0100
1000
0010
0100
0001
1000
0100
1000
0010
0100
0001
,
0010
0001
0100
0010
1000
0001
0010
0001
0100
0010
1000
0001
,
0100
0000
0000
0000
0001
0000
0000
0000
0010
0000
0000
0000
0100
0000
0000
0000
1000
0000
0000
0000
0001
0000
0000
0000
0200
0000
0000
0000
0000
0000
0000
0000
0000
0000
0000
0000
0310
0000
0000
0000
0000
0000
1000
0000
0000
0001
0000
0000
,
0010
0000
0100
1000
0000
0001
0100
0000
,
0000
0010
1000
0001
,
0010
0000
0100
1000
0000
0001
0100
0000
,
0000
0010
0100
0001
,
1000
0100
0010
0001
1000
0000
0001
0100
,
0010
1000
0001
0000
1000
0100
0010
0001
,
1000
0000
0001
0100
0010
1000
0001
0000
,
1000
0100
0010
0001
,
0100
0010
1000
0001
,
0010
0100
1000
0001
,
1000
0010
0100
0001
,
1000
0100
0010
0001
,
1000
0010
0100
0001
0010
0001
1000
0010
,
0100
0001
0010
0001
1000
0010
0100
0001
,
0010
0001
1000
0010
0100
0001
0010
0001
,
0100
0010
1000
0001
0010
0100
0000
0000
,
1000
0010
0100
0001
1000
0100
0010
0001
1000
0100
1000
0001
0100
0010
1000
0001
,
0010
0100
1000
0001
0100
0010
1000
0001
0010
0001
1000
0010
0100
0001
1000
0100
,
0010
0001
1000
0010
1000
0001
0010
0100
1000
0001
1000
0010
0100
0001
1000
0100
,
0010
0001
1000
0010
0100
0001
1000
0100
0010
0001
1000
0010
0100
0010
1000
0001
,
0010
0100
1000
0001
0100
0010
1000
0001
0010
0100
0010
0001
1000
0001
0100
0010
,
1000
0001
0010
0100
1000
0001
0100
0010
1000
0001
1000
0100
0010
0001
1000
0010
,
0100
0001
0100
0010
1000
0001
1000
0100
0010
0001
0100
0010
1000
0001
0010
0100
,
1000
0010
1000
0100
0010
0001
0100
0001
0010
0100
1000
0010
1000
0100
0010
0001
,
0200
0300
0000
0000
0001
0000
0000
0000
1000
0000
0000
0000
0100
0000
0000
0000
0010
0000
0000
0000
0001
0000
0000
0000
0200
0300
0000
0000
0001
0000
0000
0000
1000
0000
0000
0000
0100
0000
0000
0000
0010
0000
0000
0000
0001
0000
0000
0000
0200
0300
0000
0000
0001
0000
0000
0000
1000
0000
0000
0000
0100
0000
0000
0000
,
0010
0000
0000
0000
0001
0000
0000
0000
0200
0300
0000
0000
0001
0000
0000
0000
1000
0000
0000
0000
0100
0000
0000
0000
0010
0000
0000
0000
0001
0000
0000
0000
0200
0300
0000
0000
0010
0000
0000
0000
1000
0000
0000
0000
0001
0000
0000
0000
0020
0030
0000
0000
0100
0000
0000
0000
1000
0000
0000
0000
0001
0000
0000
0000
,
0020
0030
0000
0000
0001
0000
0000
0000
1000
0000
0000
0000
0010
0000
0000
0000
0100
0000
0000
0000
0001
0000
0000
0000
0020
0030
0000
0000
0001
0000
0000
0000
1000
0000
0000
0000
0010
0000
0000
0000
0100
0000
0000
0000
0001
0000
0000
0000
0020
0030
0000
0000
0001
0000
0000
0000
1000
0000
0000
0000
0010
0000
0000
0000
,
0100
0000
0000
0000
0001
0000
0000
0000
0020
0030
0000
0000
0001
0000
0000
0000
1000
0000
0000
0000
0010
0000
0000
0000
0100
0000
0000
0000
0001
0000
0000
0000
0020
0030
0000
0000
0100
0000
0000
0000
1000
0000
0000
0000
0001
0000
0000
0000
0200
0000
0000
0000
0300
0000
0000
0000
0010
0000
0000
0000
1000
0000
0000
0000
,
0200
0300
0000
0000
1000
0000
0000
0000
0001
0000
0000
0000
0100
0000
0000
0000
0010
0000
0000
0000
1000
0000
0000
0000
0200
0300
0000
0000
1000
0000
0000
0000
0001
0000
0000
0000
0100
0000
0000
0000
0010
0000
0000
0000
1000
0000
0000
0000
0200
0300
0000
0000
1000
0000
0000
0000
0001
0000
0000
0000
0100
0000
0000
0000
,
0010
0000
0000
0000
1000
0000
0000
0000
0200
0300
0000
0000
1000
0000
0000
0000
0001
0000
0000
0000
0100
0000
0000
0000
0010
0000
0000
0000
1000
0000
0000
0000
0200
0300
0000
0000
0010
0000
0000
0000
0001
0000
0000
0000
1000
0000
0000
0000
0020
0030
0000
0000
0100
0000
0000
0000
0001
0000
0000
0000
1000
0000
0000
0000
,
0020
0030
0000
0000
1000
0000
0000
0000
0001
0000
0000
0000
0010
0000
0000
0000
0100
0000
0000
0000
1000
0000
0000
0000
0020
0030
0000
0000
1000
0000
0000
0000
0001
0000
0000
0000
0010
0000
0000
0000
0100
0000
0000
0000
1000
0000
0000
0000
0020
0030
0000
0000
1000
0000
0000
0000
0001
0000
0000
0000
0010
0000
0000
0000
,
0100
0000
0000
0000
1000
0000
0000
0000
0020
0030
0000
0000
1000
0000
0000
0000
0001
0000
0000
0000
0010
0000
0000
0000
0100
0000
0000
0000
1000
0000
0000
0000
0020
0030
0000
0000
0100
0000
0000
0000
0001
0000
0000
0000
1000
0000
0000
0000
0200
0300
0000
0000
0010
0000
0000
0000
0001
0000
0000
0000
1000
0000
0000
0000
,
0010
0100
0001
0010
0100
0010
0001
1000
0010
0100
0001
0010
0100
0010
0001
1000
,
0010
0100
0001
0010
0100
0010
0001
1000
0010
0100
0001
0010
0100
0010
0001
1000
,
0010
1000
0001
0010
0100
1000
0001
0100
0001
1000
0100
0010
0001
1000
0010
0100
,
0001
1000
0100
1000
0001
0100
0010
1000
0001
0010
0001
1000
0010
0100
0001
1000
,
0001
0010
0100
1000
0010
0100
0010
1000
0001
0010
0100
1000
0010
0100
0010
1000
,
0001
0010
0100
1000
0010
0100
0010
1000
0001
0010
0100
1000
0010
0100
0010
1000
,
0001
0010
0001
1000
0001
0100
0010
0100
0001
1000
0100
1000
0001
1000
0010
0100
,
0001
1000
0100
0010
0001
1000
0010
0100
0001
1000
0100
1000
0001
0100
0010
1000
,
0100
0010
0001
0100
0010
0100
0001
1000
0100
0010
0001
0100
0010
0100
0001
1000
,
0100
0010
0001
0100
0010
0100
0001
1000
0100
0010
0001
0100
0010
0100
0001
1000
,
0100
1000
0001
0100
0010
1000
0001
0010
0001
1000
0010
0100
0001
1000
0100
0010
,
0001
1000
0010
1000
0001
0010
0100
1000
0001
0100
0001
1000
0100
0010
0001
1000
,
0001
0100
0010
1000
0100
0010
0100
1000
0001
0100
0010
1000
0100
0010
0100
1000
,
0001
0100
0010
1000
0100
0010
0100
1000
0001
0100
0010
1000
0100
0010
0100
1000
,
0001
0100
0010
1000
0001
0010
0001
1000
0010
0100
0001
1000
0100
1000
0001
0100
,
0010
1000
0001
0010
0100
1000
0001
0100
0010
1000
0001
0010
0001
1000
0010
0100
,
0001
0000
1000
0100
0000
0010
0001
0000
,
0000
1000
0010
0100
,
0001
0010
0100
1000
0001
0100
0010
0100
,
0001
1000
0100
0010
0001
1000
0010
0100
,
0001
0010
0100
1000
0001
0000
1000
0010
,
0100
0001
1000
0000
0001
0010
0100
1000
,
0001
0100
0010
1000
0001
0010
0100
0010
,
0001
0000
1000
0000
0010
0000
0100
0000
0001
0000
0010
0000
0100
1000
0001
0100
,
0010
1000
0001
1000
0100
1000
0001
0100
,
0010
1000
0001
0010
0001
1000
0010
0100
,
0001
0010
0001
1000
0001
0100
0010
1000
,
0001
0010
0001
1000
0010
0100
0001
1000
,
0001
0010
0100
1000
0010
1000
0001
0010
,
0100
1000
0010
1000
0001
0010
0100
1000
,
0010
0100
0001
0010
0100
1000
0010
0100
,
0002
0000
0003
0000
,
1000
0100
1000
0001
0100
0001
1000
0010
1000
0001
0010
0001
1000
0010
0100
0001
,
0010
0001
1000
0010
1000
0001
0100
0001
1000
0100
1000
0001
0100
0010
1000
0001
,
0010
0100
1000
0010
0100
0001
0010
0100
1000
0010
0100
0001
0010
0100
1000
0010
,
0100
0001
0010
0100
1000
0010
0100
0001
0010
0001
1000
0010
1000
0001
0010
0100
,
1000
0010
1000
0001
0010
0001
1000
0100
1000
0001
0100
0001
1000
0100
0010
0001
,
0100
0001
1000
0100
1000
0001
0010
0001
1000
0010
1000
0001
0010
0100
1000
0001
,
0100
0010
1000
0100
0010
0001
0100
0010
1000
0100
0010
0001
0100
0010
1000
0100
,
0010
0000
0000
0000
0001
0000
0000
0000
0200
0300
0000
0000
0001
0000
0000
0000
1000
0000
0000
0000
0200
0300
0000
0000
1000
0000
0000
0000
0001
0000
0000
0000
0020
0030
0000
0000
0001
0000
0000
0000
0100
0000
0000
0000
0020
0030
0000
0000
1000
0000
0000
0000
0100
0000
0000
0000
0020
0030
0000
0000
0001
0000
0000
0000
,
0100
0001
1000
0100
1000
0001
0010
0001
1000
0010
1000
0001
0010
0100
0010
0001
,
1000
0010
1000
0001
0010
0001
1000
0100
1000
0001
0100
0001
1000
0100
0010
0001
,
0100
0001
0010
0100
1000
0010
0100
0001
0010
0100
1000
0010
0100
0001
0010
0100
,
1000
0010
0100
0001
0010
0100
1000
0010
1000
0001
0010
0001
1000
0010
0100
0001
,
0010
0001
1000
0010
1000
0001
0100
0001
1000
0100
1000
0001
0100
0010
0100
0001
,
1000
0100
1000
0001
0100
0001
1000
0010
1000
0001
0010
0001
1000
0010
0100
0001
,
0010
0001
0100
0010
1000
0100
0010
0001
0100
0010
1000
0001
0010
0100
0010
0001
,
1000
0001
0100
0010
1000
0100
1000
0001
0100
0010
1000
0100
0010
0001
0100
0001
,
1000
0100
0010
0001
1000
0010
0100
0001
1000
0100
1000
0001
0100
0001
1000
0001
,
0010
0100
1000
0001
0100
0010
1000
0001
0010
0100
0010
0001
1000
0010
0100
0010
,
1000
0100
1000
0001
0100
0001
0010
0100
1000
0001
1000
0010
0100
0001
1000
0100
,
0010
0001
1000
0010
1000
0001
0010
0100
1000
0001
0100
0001
1000
0100
0010
0001
,
0100
0010
1000
0001
0010
0100
1000
0001
0100
0010
0100
0001
1000
0100
1000
0001
,
1000
0010
0100
0001
1000
0100
0010
0001
0100
0010
0100
0001
1000
0100
0010
0100
,
1000
0001
0100
0001
1000
0100
0010
0001
1000
0001
0100
0010
1000
0100
1000
0001
,
0100
0010
0100
0001
0010
0100
0010
0001
0100
0010
0100
0001
0010
0100
1000
0001
,
1000
0010
0100
0001
1000
0100
0010
0001
1000
0010
1000
0001
0010
0001
1000
0001
,
0100
0010
1000
0001
0010
0100
1000
0001
0100
0010
0100
0001
1000
0100
0010
0100
,
1000
0010
1000
0001
0010
0001
0100
0010
1000
0001
1000
0100
0010
0001
1000
0010
,
0100
0001
1000
0100
1000
0001
0100
0010
1000
0001
0010
0001
1000
0010
0100
0001
,
0010
0100
1000
0001
0100
0010
1000
0001
0010
0001
1000
0010
1000
0001
1000
0100
,
0010
0001
1000
0010
0100
0001
1000
0100
0010
0100
1000
0001
0100
0010
0100
0001
,
0010
0001
1000
0010
1000
0100
0010
0001
1000
0001
0100
0010
1000
0100
1000
0001
,
0200
0000
0000
0000
0000
0000
0000
0000
0000
0000
0300
0000
0001
0010
0100
1000
,
0001
0100
0010
1000
0010
0100
0001
1000
0100
1000
0001
0100
0010
1000
0001
0010
,
0100
1000
0001
0100
0001
1000
0100
0010
0001
1000
0010
1000
0001
1000
0010
0100
,
0001
1000
0100
1000
0010
0100
0001
1000
0100
0010
0001
0100
0010
1000
0001
0010
,
0100
1000
0001
0010
0001
1000
0010
0100
0001
1000
0001
0010
0001
1000
0010
0100
,
0001
1000
0100
0010
0100
1000
0001
1000
0010
0100
0010
1000
0001
0010
0100
1000
,
0001
0100
0010
1000
0100
1000
0001
0100
0010
1000
0001
1000
0010
1000
0001
0010
,
0100
1000
0010
0100
0010
1000
0001
1000
0100
0010
0100
1000
0001
0100
0010
1000
,
0100
0010
0100
1000
0010
0100
0010
1000
0100
0010
0100
1000
0001
0100
0010
1000
,
0001
0010
0100
1000
0100
0010
0001
0100
0001
1000
0100
0010
0001
1000
0010
0100
,
0001
1000
0100
1000
0001
0100
0010
1000
0001
0010
0001
1000
0001
0010
0100
1000
,
0001
0100
0001
0010
0100
1000
0001
0100
0010
1000
0100
0010
0001
1000
0010
0100
,
0001
1000
0010
1000
0001
0010
0100
1000
0001
1000
0010
1000
0001
0010
0100
1000
,
0001
0100
0010
0100
0001
1000
0001
0010
0100
0010
0001
1000
0010
0100
0001
1000
,
0100
0010
0001
0100
0001
1000
0100
0010
0001
1000
0001
0010
0001
1000
0010
0100
,
0001
0010
0100
0010
0001
1000
0001
0100
0010
0100
0001
1000
0100
0010
0001
1000
,
0010
1000
0001
0010
0100
1000
0001
0100
0010
1000
0001
1000
0100
1000
0001
0100
,
0010
1000
0200
0300
0010
0001
1000
0010
,
0100
0001
1000
0001
0020
0030
0100
1000
,
0001
0100
0020
0030
0100
0001
1000
0100
,
0020
0000
0030
0000
0002
0000
0003
0000
2000
0000
3010
0000
0100
0001
1000
0100
,
0010
0001
0200
0300
0010
1000
0001
0010
,
0100
1000
0001
1000
0020
0030
0100
0001
,
1000
0100
0020
0030
0001
0100
0010
1000
,
0000
0100
0010
0001
0000
0100
0010
0000
,
1000
0001
0010
0001
1000
0010
0100
0010
,
1000
0001
0010
0100
1000
0000
0001
0100
,
0010
0100
0001
1000
0001
0010
0100
1000
,
0001
0000
0100
0000
0001
0000
1000
0000
0100
0000
0010
0000
0001
0100
0010
1000
,
0001
0010
0100
1000
0001
0100
0010
1000
,
0100
0010
0001
1000
0010
0100
0001
1000
,
0001
0010
0100
1000
0001
0100
0010
1000
,
0000
0000
0000
0000
0000
0000
0000
0000
0002
0003
0000
0000
0000
0000
0000
0000
0020
0030
0000
0000
0000
0000
0000
0000
0200
0000
0000
0000
0300
0000
0000
0000
0000
0000
0000
0000
0000
0000
0000
0000
2000
0000
0000
0000
3000
0000
0000
0000
0002
0000
0000
0000
0003
0000
0000
0000
0000
0000
0000
0000
0000
0000
0000
0000
,
0100
0001
1000
0100
1000
0001
0100
0001
1000
0100
0010
0001
1000
0010
0100
0001
,
0010
0001
1000
0010
1000
0001
0100
0001
1000
0100
0010
0001
0100
0010
1000
0001
,
0010
0001
1000
0010
1000
0001
0010
0100
1000
0001
0100
0001
1000
0100
0010
0001
,
0100
0010
1000
0100
0010
0001
0100
0010
1000
0100
1000
0001
0100
0010
1000
0001
,
0010
0001
1000
0010
1000
0001
0010
0001
1000
0010
0100
0001
1000
0100
0010
0001
,
0100
0001
1000
0100
1000
0001
0010
0001
1000
0010
0100
0001
0010
0100
0010
0001
,
0100
0001
1000
0100
1000
0001
0100
0010
1000
0001
0010
0001
1000
0010
0100
0001
,
0010
0100
1000
0010
0100
0001
0010
0100
1000
0001
0100
0010
1000
0001
1000
0100
,
0010
0001
1000
0010
1000
0001
0010
0100
1000
0001
0100
0001
1000
0100
0010
0001
,
0100
0001
1000
0100
1000
0001
0100
0010
1000
0001
0010
0001
1000
0010
0100
0001
,
1000
0100
1000
0001
0100
0001
1000
0100
0010
0001
1000
0010
0100
0001
0010
0001
,
0100
0010
1000
0100
0010
0001
0100
0010
1000
0100
0010
0001
1000
0010
0100
0001
,
0010
0001
1000
0010
1000
0001
0010
0001
1000
0010
0100
0001
1000
0100
0010
0001
,
0100
0001
1000
0100
1000
0001
0100
0001
1000
0100
0010
0001
0100
0010
0100
0001
,
0010
0100
1000
0010
1000
0001
0010
0001
0100
0010
1000
0100
1000
0001
0100
0001
,
1000
0100
0010
0001
1000
0010
0100
0001
0010
0100
1000
0010
0100
0001
0010
0000
,
0100
1000
0001
0100
0001
1000
0100
1000
0001
0100
0010
1000
0001
0010
0100
1000
,
0010
1000
0001
0010
0001
1000
0100
1000
0001
0100
0010
1000
0100
0010
0001
1000
,
0010
1000
0001
0010
0001
1000
0010
0100
0001
1000
0100
1000
0001
0100
0010
1000
,
0100
0010
0001
0100
0010
1000
0100
0010
0001
0100
0001
1000
0100
0010
0001
1000
,
0010
1000
0001
0010
0001
1000
0010
1000
0001
0010
0100
1000
0001
0100
0010
1000
,
0100
1000
0001
0100
0001
1000
0010
1000
0001
0010
0100
1000
0010
0100
0010
1000
,
0100
1000
0001
0100
0001
1000
0100
0010
0001
1000
0010
1000
0001
0010
0100
1000
,
0010
0100
0001
0010
0100
1000
0010
0100
0001
1000
0100
0010
0001
1000
0001
0100
,
0010
1000
0001
0010
0001
1000
0010
0100
0001
1000
0100
1000
0001
0100
0010
1000
,
0100
1000
0001
0100
0001
1000
0100
0010
0001
1000
0010
1000
0001
0010
0100
1000
,
0001
0100
0001
1000
0100
1000
0001
0100
0010
1000
0001
0010
0100
1000
0010
1000
,
0100
0010
0001
0100
0010
1000
0100
0010
0001
0100
0010
1000
0001
0010
0100
1000
,
0010
1000
0001
0010
0001
1000
0010
1000
0001
0010
0100
1000
0001
0100
0010
1000
,
0100
1000
0001
0100
0001
1000
0100
1000
0001
0100
0010
1000
0100
0010
0100
1000
,
0010
0100
0001
0010
0001
1000
0010
1000
0100
0010
0001
0100
0001
1000
0100
1000
,
0001
0100
0010
1000
0001
0010
0100
1000
0010
0100
0001
0010
0100
1000
0010
0000
,
0000
0000
0000
0000
,
0000
0000
0000
0000
,
4000
3000
0000
0000
0400
0300
0000
0000
4000
3000
0000
0000
0040
0030
0000
0000
0400
0300
0000
0000
0004
0003
0000
0000
0040
0030
0000
0000
0004
0003
0000
0000
0400
0300
0000
0000
0040
0030
0000
0000
4000
3000
0000
0000
0400
0300
0000
0000
4000
3000
0000
0000
0004
0003
0000
0000
0400
0300
0000
0000
0004
0003
0000
0000
,
0040
0030
0000
0000
0400
0300
0000
0000
4000
3000
0000
0000
0040
0030
0000
0000
4000
3000
0000
0000
0400
0300
0000
0000
0040
0030
0000
0000
0004
0003
0000
0000
0400
0300
0000
0000
0004
0003
0000
0000
0040
0030
0000
0000
0400
0300
0000
0000
4000
3000
0000
0000
0004
0003
0000
0000
0400
0300
0000
0000
0020
0000
0000
0000
,
0000
0000
0000
0030
;
