#TITLE:Real or Fake;
#SUBTITLE:;
#ARTIST:森羅万象;
#TITLETRANSLIT:;
#SUBTITLETRANSLIT:;
#ARTISTTRANSLIT:Shinra Bansho;
#GENRE:;
#CREDIT:NAOKI;
#MUSIC:Real or Fake.ogg;
#BANNER:Real-or-Fake-bn.png;
#BACKGROUND:Real-or-Fake-bg.png;
#CDTITLE:naokicdtitle.png;
#SAMPLESTART:63.683;
#SAMPLELENGTH:14.769;
#SELECTABLE:YES;
#OFFSET:-0.914;
#BPMS:0.000=130.000;
#STOPS:;
#BGCHANGES:;
#FGCHANGES:;

//--------------- dance-single - NAOKI Fantastic Attack [BR FS XO] ----------------
#NOTES:
     dance-single:
     NAOKI Fantastic Attack [BR FS XO]:
     Challenge:
     10:
     0,0,0,0,0:
0000
0000
0000
0000
,
0000
0000
0000
0000
,
0000
0000
0000
0000
,
1000
0000
0001
0000
0010
0001
1000
0000
0010
0000
0100
0000
2002
0000
3003
0000
,
0001
0000
0010
0000
0100
1000
0000
0001
0000
0100
0010
0000
1000
0000
0001
0000
,
0010
0000
0100
0000
0010
0001
0000
1000
0000
0020
0100
0000
0130
0000
0001
0000
,
1000
0000
0100
0000
0010
0001
0000
1000
0000
0010
0100
0000
0001
0000
1000
0000
,
0100
0000
0010
0000
0100
1000
0000
0001
0000
0200
0010
0000
0310
0000
1000
0000
,
0001
0000
0010
0000
0100
1000
0000
0001
0000
0100
0010
0000
1000
0000
0001
0000
,
0010
0000
0100
0000
0010
0001
0000
1000
0000
0020
0100
0000
0130
0000
0001
0000
,
1000
0000
0100
0000
0010
0001
0000
1000
0000
0010
0100
0000
0001
0000
1000
0000
,
0001
0000
0010
0000
0100
1000
0000
0001
0100
0000
0000
0000
2002
0000
3003
0000
,
0001
0010
0100
1000
0001
0000
1000
0020
0100
0000
1030
0000
0100
0000
0010
0001
,
1000
0000
0010
0000
0001
0000
0010
0000
1000
0000
0100
00M0
0100
0000
0001
0000
,
1000
0100
1000
0001
0100
0000
0010
2000
0001
0000
3100
0000
0010
0000
0001
1000
,
0010
0100
1000
0100
0010
1000
1001
0000
,
0001
0000
0001
0000
1000
0000
0001
0020
0100
0000
0031
0000
1000
0000
0010
0100
,
0001
0000
0010
0000
1000
0000
0010
0000
0001
0000
0100
00M0
0100
0000
1000
0000
,
0011
1100
0001
1010
0001
1100
0011
1000
,
0101
1010
0001
1100
0001
1010
0101
0000
,
1002
0000
0103
0000
0010
1000
0000
0001
0000
0010
0100
0000
1000
0000
0001
0000
,
0100
0000
0010
0000
1000
0001
0020
0000
0100
0000
0031
0000
1000
0000
0010
0000
,
0200
0000
0310
0000
1000
0001
0000
0010
0000
0100
1000
0000
0001
0000
0100
0000
,
0010
0000
1000
0000
0100
0010
0000
0001
1000
0010
0100
0000
0110
0000
0000
0000
,
0001
0100
0001
1000
0100
0000
0010
0000
0002
0000
0100
0000
2003
0000
3100
0010
,
0001
0000
1000
0000
0010
0000
0100
0000
0001
0000
0010
0M00
0010
0000
1000
0000
,
0001
0010
0000
0001
1000
0010
0100
0001
2000
0000
0100
0000
3002
0000
0103
0010
,
1000
0000
0100
0000
0001
0000
0100
0000
1000
0000
0010
0M00
0010
0000
0001
0000
,
1000
0000
0010
0100
0001
0000
1000
0100
0010
0000
0001
1000
0000
0000
0010
0000
,
0100
0000
0010
1000
0001
0010
0100
1000
0001
0000
0100
0010
1000
0000
0001
0000
,
1010
0101
1000
0011
1000
0101
1010
0001
,
1100
0011
1000
0101
1000
0011
1100
0000
,
0001
0000
0010
0000
0100
0000
1000
0001
0100
0000
0000
0000
0010
0000
1000
0000
,
1010
M011
1010
1101
,
0011
0000
1100
0000
0001
0000
1000
0100
0010
0001
1000
0000
0010
0M00
0010
0000
,
0101
0000
1010
0000
0001
0000
1000
0010
0100
0001
1000
0000
0100
00M0
0100
0000
,
0002
0000
2003
0000
3100
0000
0020
0000
0032
0000
2003
0000
3020
0000
0130
0001
,
2000
3002
0013
0200
2300
3002
0203
0310
,
1100
0000
0011
0000
1000
0000
0001
0010
0100
1000
0001
0000
0100
00M0
0100
0000
,
1010
0000
0101
0000
1000
0000
0001
0100
0010
1000
0001
0000
0010
0M00
0010
0000
,
2000
0000
3002
0000
0013
0000
0200
0000
2300
0000
3002
0000
0203
0000
0310
1000
,
0002
2003
3100
0020
0032
0100
2003
0000
,
3001
0000
0100
0000
0100
0000
0100
0000
0001
0000
0010
0001
0000
1000
0010
0000
,
1000
0000
0100
0000
0100
0000
0100
0000
1000
0000
0001
0100
0010
0000
1000
0000
,
0001
0000
0010
0000
0010
0000
0010
0000
0001
0000
1000
0010
0100
0000
0001
0000
,
1000
0000
0100
0000
0110
0000
0000
0000
1001
0000
1000
0000
0001
0100
0000
0001
,
1000
0000
0001
0010
0000
0100
1000
0001
0100
0010
1000
0001
0010
0100
1000
0001
,
0100
0000
0010
1000
0000
0001
0020
0000
0130
0000
1000
0000
0010
0100
0001
1000
,
0100
0000
0010
0001
0000
0000
1000
0010
1000
0000
0001
0000
0010
0000
0100
0000
,
1000
0000
0001
0100
0010
0000
0000
0000
1000
0000
0200
0000
0310
0000
0001
0000
,
1000
0010
0000
0100
0001
0000
1000
0000
0100
0010
0001
1000
0010
0000
0100
0000
,
0001
1000
0100
0010
0001
0100
0010
1000
0001
0000
0010
0000
0100
0000
1000
0010
,
0100
0000
0001
0000
1000
0000
0100
0000
0010
0000
0000
0000
0001
0000
0000
0000
1000
0000
0001
0000
0100
00M0
0100
0000
1000
0000
0001
0000
0100
00M0
0100
0000
,
1000
0010
0100
0100
1000
0001
0100
0100
0010
0001
0100
0100
1000
0010
0100
0100
,
0010
0001
0100
0100
1000
0010
0100
0001
0020
0000
0130
0000
1000
0000
0002
0003
,
0100
0000
2000
3000
0100
0000
0020
0030
0100
0000
0001
0000
1000
0000
0100
0010
,
0000
0001
1000
0000
0010
0000
0010
0000
0200
0000
0310
0000
1000
0000
0002
0003
,
0010
0000
2000
3000
0010
0000
0002
0003
1000
0000
0010
0000
0100
0000
0010
1000
,
0001
0010
0100
0000
1100
0000
1000
0000
0020
0000
0130
0000
0001
0000
2000
3000
,
0100
0000
0002
0003
0100
0000
0020
0030
0001
0000
1000
0000
0010
0000
0100
0000
,
0001
1000
0100
0000
0010
0000
0001
0000
0000
0000
0000
0000
0000
0000
0000
0000
,
0000
0000
0000
0000
2000
0010
3002
0010
,
2003
0010
0002
3003
0220
0000
0000
0000
,
0330
0000
1000
0000
2002
0000
3003
0000
1010
0000
0101
0000
1000
0000
0001
0100
,
0010
1000
0001
0000
0010
0M00
0010
0000
1100
0000
0011
0000
1000
0000
0001
0010
,
0100
1000
0001
0000
0100
00M0
0100
0000
2000
0000
3002
0000
0103
0000
0020
0000
,
2030
0000
3002
0000
0023
0000
0130
1000
0002
0000
2003
0000
3010
0000
0200
0000
,
0302
0000
2003
0000
3200
0000
0310
0000
0101
0000
1010
0000
0001
0000
1000
0010
,
0100
0001
1000
0000
0100
00M0
0100
0000
0011
0000
1100
0000
0001
0000
1000
0100
,
0010
0001
1000
0000
0010
0M00
0010
0000
0002
0000
2003
0000
3010
0000
0200
0000
,
0302
0000
2003
0000
3200
0000
0310
0001
2000
0000
3002
0000
0103
0000
0020
0000
,
2030
0000
0100
0000
3002
0000
0000
0003
1000
0000
0100
0000
0100
0000
0100
0000
,
1000
0000
0010
1000
0000
0001
0010
0000
0001
0000
0100
0000
0100
0000
0100
0000
,
0001
0000
1000
0100
0010
0000
0001
0000
1000
0000
0010
0000
0010
0000
0010
0000
,
1000
0000
0001
0010
0100
0000
1000
0000
0001
0000
0100
0000
1010
0000
0000
0000
,
1000
0100
0011
0000
0001
0100
1000
0100
,
0010
0000
1000
0001
0010
0000
0100
0000
1000
0000
0010
0000
0001
0000
0010
0000
,
0100
0000
0001
1000
0200
0000
0010
0000
1300
0000
0010
0000
0001
0000
0010
0000
,
0100
0000
0001
1000
0100
0000
0010
0000
0001
0000
0100
0000
0210
0000
0000
0000
,
0310
0000
1000
0000
0001
0010
0000
0100
1000
0001
0100
0000
0010
0000
1000
0001
,
0010
0000
0100
0000
1000
0001
0100
0001
1000
0100
0010
0000
0002
0000
0100
0000
,
1003
0000
0010
0000
1000
0100
0000
0010
0001
1000
0010
0000
0100
0000
0001
1000
,
0100
0000
0010
0000
0001
1000
0010
0100
0001
1000
0101
0000
1010
0000
0000
0000
,
0100
0000
1000
0000
0001
0100
0000
0010
1000
0001
0010
0000
0100
0000
1000
0001
,
0100
0000
0010
0000
1000
0001
0010
0001
1000
0010
1100
0000
0011
0000
1000
0000
,
0100
0000
0010
0000
0001
0100
0000
0010
1000
0001
0010
0000
0100
0000
1000
0001
,
0100
0000
0010
0000
1000
0100
0010
0001
0100
0000
0011
0000
2200
0000
3300
0000
,
0010
0000
0100
0000
0001
1000
0000
0100
0000
0010
0001
0000
1000
0000
0001
0000
,
0100
0000
0000
0000
0000
0000
0000
0000
0010
0000
0000
0000
0000
0000
0000
0000
1000
0000
0000
0000
0001
0000
0000
0000
0000
0000
0000
0000
0010
0000
0000
0000
0000
0000
0000
0000
0100
0000
0000
0000
1000
0000
0000
0000
0000
0000
0000
0000
0001
0000
0000
0000
0000
0000
0000
0000
0200
0000
0000
0000
0000
0000
0000
0300
;
