#VERSION:0.83;
#TITLE:Pump it;
#SUBTITLE:;
#ARTIST:Getty;
#TITLETRANSLIT:;
#SUBTITLETRANSLIT:;
#ARTISTTRANSLIT:;
#GENRE:;
#CREDIT:NAOKI;
#MUSIC:pump_it.ogg;
#BANNER:pump_it-bn.png;
#BACKGROUND:Pump_it-bg.png;
#CDTITLE:naokicdtitle.png;
#SAMPLESTART:79.645;
#SAMPLELENGTH:10.941;
#SELECTABLE:YES;
#OFFSET:-0.233;
#BPMS:0.000=170.000;
#STOPS:;
#DISPLAYBPM:170.000;
#BGCHANGES:;
#FGCHANGES:;

//--------------- dance-single - NAOKI FS+ BR STR ----------------
#NOTEDATA:;
#STEPSTYPE:dance-single;
#DESCRIPTION:NAOKI FS+ BR STR;
#DIFFICULTY:Challenge;
#METER:13;
#RADARVALUES:0,0,0,0,0;
#CREDIT:NAOKI;
#NOTES:
1000
0000
0010
0100
0001
0000
1000
0000
0001
0000
0010
0100
0000
0000
1000
0000
,
0001
0000
0000
0000
0100
0000
0010
0000
1000
0000
0000
0000
0400
0300
0000
0000
0010
0000
0000
0000
0001
0000
1000
0000
0010
0000
0000
0000
0100
0000
0000
0000
,
0001
0000
1000
0000
0100
0000
1000
0000
0001
0000
0100
0010
0000
0000
1000
0000
,
0001
0000
0000
0000
0000
0000
0010
0000
0000
0100
0000
0000
1000
0000
0000
0000
0000
0000
0001
0000
0000
0000
0000
0000
0100
0000
00M0
0000
0100
0000
0000
0000
0100
0000
0000
0000
0001
0000
0000
0000
0000
0000
1000
0000
0000
0000
0000
0000
,
0001
0000
0010
0100
1000
0000
0001
0000
1000
0000
0010
0100
0000
0000
0001
0000
,
1000
0000
0000
0000
0100
0000
0010
0000
0001
0000
0000
0000
0400
0300
0000
0000
0010
0000
0000
0000
1000
0000
0001
0000
0010
0000
0000
0000
0100
0000
0000
0000
,
1000
0000
0001
0000
0100
0000
0001
0000
1000
0000
0100
0010
0000
0000
0001
0000
,
1000
0000
0001
0100
0001
1000
0001
0010
0001
1000
0010
0100
0002
0000
1003
0000
,
1100
0000
0100
0010
0001
0000
1000
0000
0001
0000
0100
0010
0000
0000
1000
0000
,
0001
0000
0000
0000
0010
0000
0100
0000
1000
0000
0000
0000
0040
0030
0000
0000
0100
0000
0000
0000
0001
0000
1000
0000
0100
0000
0000
0000
0010
0000
0000
0000
,
0001
0000
1000
0000
0010
0000
0100
0000
0001
0000
1000
0100
1000
0000
0001
0000
,
0100
0000
0000
0000
0000
0000
0000
0000
0010
0000
0000
0000
0000
0000
0000
0000
1000
0000
0000
0000
0000
0000
0000
0000
0100
0000
0000
0000
0000
0000
0000
0000
0010
0000
0000
0000
0000
0000
0000
0000
0001
0000
0000
0000
0100
0000
0000
0000
0020
0030
0000
0000
0000
0000
0000
0000
1000
0000
0000
0000
0001
0000
0000
0000
,
0020
0000
0130
1000
0001
0000
0100
0000
0010
0000
1000
0100
0010
0000
0001
0000
,
2000
0000
3010
0100
0001
0000
1000
0000
0100
0000
0010
0001
1000
0000
0010
0000
,
0200
0000
0310
0000
1000
0000
0001
0000
0020
0000
0130
1000
0001
0000
0100
0000
,
0010
M00M
0010
0000
0010
0000
0010
0000
0010
0000
1000
0000
2002
0000
3003
0000
,
0001
0010
0001
1000
0010
0100
0001
1000
0100
0010
0001
1000
0010
1000
0001
0010
,
0100
1000
0001
0100
0010
1000
0001
0010
0100
0010
0001
1000
0010
0100
0001
1000
,
0100
0010
0001
1000
0010
1000
0001
0010
0100
1000
0001
0100
0010
1000
0001
0010
,
0001
0000
0000
0000
0000
0000
1000
0000
0000
0010
0000
0000
0100
0000
0000
0000
0000
0000
0001
0000
0000
1000
0000
0000
0100
0000
00M0
0000
0100
0000
0000
0000
0100
0000
0000
0000
1010
0000
0000
0000
0000
0000
0101
0000
0000
0000
0000
0000
,
1000
0010
1000
0001
0010
0100
1000
0001
0100
0010
1000
0001
0010
0001
1000
0010
,
0100
0001
1000
0100
0010
0001
1000
0010
0100
0010
1000
0001
0010
0100
1000
0001
,
0100
0010
1000
0001
0010
0001
1000
0010
0100
0001
1000
0100
0010
0100
1000
0001
,
0100
0000
0010
0000
1000
0000
0100
00M0
0100
0000
0001
0000
0100
00M0
0100
0000
1000
0000
0001
0000
0100
0000
0010
0000
2000
0000
0000
0000
3001
0000
0000
0000
,
0020
0030
0000
0000
0000
0000
0000
0000
0100
0000
0000
0000
0000
0000
0000
0000
1000
0000
0000
0000
0000
0000
0000
0000
1000
0000
0000
0000
0000
0000
0000
0000
0001
0000
0000
0000
0000
0000
0000
0000
0001
0000
0000
0000
0000
0000
0000
0000
0100
0000
0000
0000
0000
0000
0000
0000
0100
0000
0000
0000
0000
0000
0000
0000
,
0020
0030
0000
0000
0000
0000
0000
0000
1000
0000
0000
0000
0000
0000
0000
0000
0001
0000
0000
0000
0000
0000
0000
0000
0001
0000
0000
0000
0000
0000
0000
0000
0010
0000
0000
0000
0000
0000
0000
0000
0010
0000
0000
0000
0000
0000
0000
0000
0100
0000
0000
0000
0000
0000
0000
0000
0100
0000
0000
0000
0000
0000
0000
0000
,
2000
3000
0000
0000
0000
0000
0000
0000
0010
0000
0000
0000
0000
0000
0000
0000
0100
0000
0000
0000
0000
0000
0000
0000
0100
0000
0000
0000
0000
0000
0000
0000
0001
0000
0000
0000
0000
0000
0000
0000
0001
0000
0000
0000
0000
0000
0000
0000
1000
0000
0000
0000
0000
0000
0000
0000
1000
0000
0000
0000
0000
0000
0000
0000
,
0200
0300
0000
0000
0000
0000
0000
0000
0010
0000
0000
0000
0000
0000
0000
0000
0001
0000
0000
0000
0000
0000
0000
0000
0001
0000
0000
0000
0000
0000
0000
0000
1000
0000
0000
0000
0000
0000
0000
0000
1000
0000
0000
0000
0000
0000
0000
0000
0011
0000
0000
0000
0000
0000
0000
0000
1100
0000
0000
0000
0000
0000
0000
0000
,
0001
0000
0100
M000
0100
0000
0010
0000
0001
0000
0100
0000
0100
0000
0010
0000
0001
0000
0100
0000
0100
0000
0010
0000
0001
0000
0100
0000
0100
0000
0010
0000
,
0001
0100
0100
1000
0010
0100
0100
1000
0010
0100
0100
1000
0010
0100
0100
1000
,
0001
0100
0001
1000
0001
0010
0100
1000
0010
1000
0001
1000
0100
0010
0001
1000
,
0020
0000
0000
0000
0000
0000
0000
0000
0130
0000
0000
0000
0001
0000
0000
0000
1000
0000
0000
0000
0000
0000
0000
0000
0200
0000
0000
0000
0000
0300
0000
0000
0010
0000
0000
0000
0001
0000
0000
0000
1000
0000
0000
0000
0000
0000
0000
0000
0010
0000
0000
0000
0100
0000
M00M
0000
0100
0000
0000
0000
0100
0000
0000
0000
,
0002
0000
1003
0000
0011
0000
0100
0001
1000
0100
0010
0000
0001
0000
1000
0001
,
0200
0300
0000
0010
1000
0001
0010
0001
1000
0010
0100
0001
1000
0000
0100
0000
,
0020
0000
0030
0100
0000
1000
0001
0000
0000
0100
0001
1000
0100
0000
0010
0000
,
0000
0000
0001
0100
0100
0100
0001
1000
0100
0100
0100
1000
0001
0100
0010
0000
,
0000
0000
1000
0000
0010
0100
0001
0000
1000
0000
0001
0010
0001
1000
0010
0000
,
0100
0000
0000
0000
0000
0000
0001
0000
0000
0000
0000
0000
1000
0000
0000
0000
0100
0000
0000
0000
1000
0000
0000
0000
0001
0000
0000
0000
0100
0000
0000
0000
0001
0000
0000
0000
0020
0000
0000
0030
0000
0000
0200
0000
0000
0300
0000
0000
,
1000
0000
0001
0000
0100
0100
1000
0000
0010
0000
1000
0100
0100
0001
0010
0000
,
0100
0000
0000
0000
0000
0000
1000
0000
0000
0000
0000
0000
0010
0000
0000
0100
0000
0000
0001
0000
0000
1000
0000
0000
0100
0000
0000
0000
0010
0000
0000
0000
0001
0000
0000
0000
0200
0000
0000
0000
0000
0000
0310
0000
0000
0000
0000
0000
,
0110
0000
1000
0001
0010
0000
0100
0000
1000
0000
0010
0100
0001
0000
1000
0100
,
0020
0030
0001
1000
0010
0000
0100
0000
0001
0000
0010
0100
1000
0000
0001
0100
,
0020
0030
1000
0100
0010
0000
0001
0000
0100
0000
0010
1000
0001
0000
0010
0100
,
2000
3000
0001
0100
0010
0000
1000
0000
0100
0000
0010
0001
0200
0000
0310
0000
,
1000
0100
1000
0010
0100
0001
0010
0001
1000
0010
1000
0100
0010
0001
0100
0001
,
1000
0100
0010
0001
1000
0010
1000
0001
0010
0100
1000
0001
0100
0010
1000
0001
,
0010
0001
0100
0010
1000
0100
1000
0001
0100
0001
0010
0100
1000
0010
1000
0001
,
0010
0010
0010
0010
0010
0001
2002
3003
,
1000
0000
1000
0000
0001
0100
0100
1000
0100
0100
0001
1000
0100
0010
0001
1000
,
0011
0000
1100
0000
0001
0010
0010
1000
0010
0010
0001
1000
0010
0100
0001
1000
,
0101
0000
1010
0000
0001
0100
0100
1000
0100
0100
0001
1000
0100
0010
0001
1000
,
0010
0010
0001
0100
0100
1000
0001
0100
0001
0010
0010
1000
0100
0100
0001
1000
,
0011
0000
0000
0000
1000
0100
0100
0001
0100
0100
1000
0001
0100
0010
1000
0001
,
1010
0000
0000
0000
0001
0010
0010
1000
0010
0010
0001
1000
0001
0100
0010
1000
,
0101
0000
0000
0000
1000
0100
0100
0001
0100
0100
1000
0010
1000
0001
0010
0001
,
0100
0010
1000
0001
1000
0100
1000
0001
0100
0001
1000
0001
0020
0000
0130
0000
,
1010
0000
0101
0000
1000
0010
1000
0001
0010
0100
1000
0001
0100
0001
1000
0100
,
0010
0001
1000
0010
0100
0001
1000
0100
0010
0100
1000
0001
0100
0010
1000
0001
,
0010
0100
1000
0001
0100
0001
1000
0100
0010
0001
1000
0010
0100
0001
1000
0100
,
1000
0000
0000
0000
0000
0000
0001
0000
0000
0100
0000
0000
0010
0000
0000
0000
0000
0000
1000
0000
0000
0001
0000
0000
0010
0000
0M00
0000
0010
0000
0000
0000
0010
0000
0000
0000
0001
0000
0000
0000
0000
0000
1000
0000
0000
0000
0000
0000
,
0011
0000
1100
0000
0001
0010
0001
1000
0010
0100
0001
1000
0100
1000
0001
0100
,
0010
1000
0001
0010
0100
1000
0001
0100
0010
0100
0001
1000
0100
0010
0001
1000
,
0010
0100
0001
1000
0100
1000
0001
0100
0010
1000
0001
0010
0100
1000
0001
0100
,
0001
0000
0000
0000
1000
0000
0100
00M0
0100
0000
0001
0000
0100
00M0
0100
0000
1000
0000
0001
0000
0100
0000
0001
0000
1000
0000
0000
0000
0010
0000
0000
0000
,
0100
0000
0001
0000
1000
0100
0100
0001
1000
0100
0100
0001
1000
0100
0100
0001
,
2000
3000
0000
0000
0001
0000
0000
0000
0010
0000
0000
0000
0010
0000
0000
0000
1000
0000
0000
0000
0001
0000
0000
0000
0010
0000
0000
0000
0010
0000
0000
0000
1000
0000
0000
0000
0001
0000
0000
0000
0010
0000
0000
0000
0010
0000
0000
0000
1000
0000
0000
0000
0001
0000
0000
0000
0010
0000
0000
0000
0010
0000
0000
0000
,
2000
3000
0001
0010
0001
0100
0100
1000
0001
0100
0100
1000
0001
0100
0100
1000
,
0002
0003
0000
0000
1000
0000
0000
0000
0010
0000
0000
0000
0010
0000
0000
0000
0001
0000
0000
0000
1000
0000
0000
0000
0010
0000
0000
0000
0010
0000
0000
0000
0001
0000
0000
0000
1000
0000
0000
0000
0010
0000
0000
0000
0010
0000
0000
0000
0001
0000
0000
0000
1000
0000
0000
0000
0010
0000
0000
0000
0010
0000
0000
0000
,
0001
0100
0100
0100
0010
0100
0100
0100
0001
0100
0100
0100
0010
1000
0001
1000
,
0100
0100
0100
0010
0100
0100
0100
1000
0100
0100
0100
0010
0100
0100
0100
1000
,
0001
0100
0010
1000
0001
0010
0100
1000
0010
0100
0001
1000
0100
0010
0001
0100
,
0010
M00M
0010
0000
0010
0000
0010
0000
0010
0000
1000
0000
2002
0000
3003
0000
,
0001
0000
0010
0100
1000
0000
0001
0000
1000
0000
0010
0100
0000
0000
0001
0000
,
1000
0000
0000
0000
0100
0000
0010
0000
0001
0000
0000
0000
0400
0300
0000
0000
0010
0000
0000
0000
1000
0000
0001
0000
0010
0000
0000
0000
0100
0000
0000
0000
,
1000
0000
0001
0000
0100
0000
0001
0000
1000
0000
0100
0010
0000
0000
0001
0000
,
1000
0000
0000
0000
0000
0000
0001
0000
0000
0100
0000
0000
0010
0000
0000
0000
0000
0000
1000
0000
0000
0000
0000
0000
0100
0000
00M0
0000
0100
0000
0000
0000
0100
0000
0000
0000
1000
0000
0000
0000
0000
0000
0001
0000
0000
0000
0000
0000
,
1000
0000
0010
0100
0001
0000
1000
0000
0001
0000
0010
0100
0000
0000
1000
0000
,
0001
0000
0000
0000
0100
0000
0010
0000
1000
0000
0000
0000
0400
0300
0000
0000
0010
0000
0000
0000
0001
0000
1000
0000
0010
0000
0000
0000
0100
0000
0000
0000
,
0001
0000
1000
0000
0100
0000
1000
0000
0001
0000
0100
0010
0000
0000
1000
0000
,
0100
00M0
0100
0000
0100
0000
0100
0000
0100
0000
1000
0000
2002
0000
3003
0000
,
0220
0330
0000
0000
0000
0000
0000
0000
;
