#TITLE:Prot Comporation;
#SUBTITLE:;
#ARTIST:ζ©˜γ€€ζœ‹δΉ‹;
#TITLETRANSLIT:;
#SUBTITLETRANSLIT:;
#ARTISTTRANSLIT:TACHIBANA TOMOYUKI;
#GENRE:;
#CREDIT:;
#MUSIC:Prot Comporation.ogg;
#BANNER:prot_comporation-bn.png;
#BACKGROUND:prot_comporation-bg.png;
#CDTITLE:NAOKI_cdtitle.png;
#SAMPLESTART:30.240;
#SAMPLELENGTH:15.000;
#SELECTABLE:YES;
#OFFSET:1.860;
#BPMS:0.000=382.000
,140.000=191.000
,171.000=382.000
,299.000=191.000
,330.000=95.500
,338.000=191.000
,354.000=382.000
;
#STOPS:171.000=0.324
,330.000=0.314
,353.000=0.157
;
#LASTBEATHINT:5.654;
#BGCHANGES:;
#FGCHANGES:;

//--------------- dance-single - NAOKI ----------------
#NOTES:
     dance-single:
     NAOKI:
     Beginner:
     6:
     0.33,0.471,0.017,0.21,0,238,2,24,0,0,0,0.33,0.471,0.017,0.21,0,238,2,24,0,0,0:
0000
0000
0000
0000
,
0000
0000
0000
0000
,
0000
0000
0000
0000
,
0000
0000
0000
0000
,
0000
0000
0000
0000
,
0000
0000
0000
0000
,
0000
0000
0000
0000
,
0000
0000
0000
0000
,
0000
0000
0000
0000
,
0000
0000
0000
0000
,
0000
0000
0000
0000
,
0010
0000
0010
0000
,
1000
0000
1000
0000
,
0100
0000
0100
0000
,
0001
0000
0001
0000
,
0100
0000
0100
0000
,
1000
0000
1000
0000
,
0010
0000
0010
0000
,
1000
0000
0001
0000
,
0100
0000
0100
0000
,
0001
0000
0001
0000
,
0010
0000
0010
0000
,
1000
0000
1000
0000
,
0010
0000
0010
0000
,
0001
0000
0001
0000
,
0100
0000
0100
0000
,
0001
0000
1000
0000
,
0010
0000
0100
0000
,
0010
0000
0100
0000
,
0001
0000
1000
0000
,
0001
0000
1000
0000
,
0010
0000
0100
0000
,
0001
0000
1000
0000
,
0100
0000
0000
0010
,
0000
0000
0100
0000
,
1000
0000
1000
0000
,
0001
0000
0001
0000
,
0100
0000
0100
0000
,
0010
0000
1000
0000
,
0100
0000
0100
0000
,
0010
0000
0010
0000
,
0001
0000
0000
1000
0000
0000
0001
0000
,
0000
1000
0000
0000
0001
0000
1001
0000
,
0000
1000
0000
0010
,
0000
0010
0000
0100
,
0000
0001
0000
0010
,
0000
0010
0000
0100
,
0000
1000
0000
0001
,
0000
0001
0000
0100
,
0000
0010
0000
1000
,
0000
0001
0000
1000
,
0000
0010
0000
0100
,
0000
0100
0000
0001
,
0000
0010
0000
0100
,
0000
0100
0000
0010
,
0000
0001
0000
1000
,
0000
0001
0000
0100
,
0000
0000
0010
0000
,
0000
0100
0000
0010
,
0000
0000
0000
1000
,
0000
0000
0000
0100
,
0000
0000
0000
0001
,
0000
0000
0000
0010
,
0000
0000
0000
1000
,
0000
0000
0000
0100
,
0000
0000
0000
0001
,
0000
0000
0000
0010
,
0000
0000
0000
0001
,
0000
0000
0000
0100
,
0000
0000
0000
1000
,
0000
0000
0000
0010
,
0000
0000
0000
0001
,
0000
0000
0000
0100
,
0000
0000
0000
1000
,
0000
0001
0000
2000
,
0000
3010
0000
0020
,
0000
0130
0000
0200
,
0000
0301
0000
0002
,
0000
1003
0000
1000
,
0000
0010
0000
0001
,
0000
0100
0000
2000
,
0000
0001
0000
3001
,
0000
1000
0000
0000
0001
0000
0001
0000
,
0100
0100
0010
0010
,
1000
1000
0001
0000
,
0001
0000
1000
0000
,
1000
0000
0100
0000
,
0100
0000
0010
0000
,
0020
0030
0000
0100
,
0000
1000
0000
0010
,
0000
0100
0000
0001
,
0000
0010
0000
0010
,
0000
0001
0000
1000
,
0000
0010
0000
0010
,
0000
0100
0000
0001
,
0000
1000
0000
0010
,
0000
0100
0000
0001
,
0000
0010
0000
0010
,
0000
0100
0000
1000
,
0000
0010
0000
0010
,
0000
0100
0000
0001
,
0000
0010
0000
0100
,
0000
1000
0000
0000
,
0001
0000
0000
1000
,
0000
0010
0000
0010
,
0000
1000
0000
0001
,
0000
0010
0000
0010
,
0000
0001
0000
1000
,
0000
0100
0000
0100
,
0000
1000
0000
0001
,
0000
0100
0000
0100
,
0000
0001
0000
1000
,
0000
0010
0000
1000
,
0000
0100
0000
0001
,
0000
0010
0000
0001
,
0000
0100
0000
1000
,
0000
0010
0000
0001
,
0000
0100
0000
1000
,
0000
0010
0000
0000
,
0100
0000
0000
0010
,
0000
0100
0000
0000
,
0000
1000
0000
0000
,
0000
0010
0000
0000
,
0000
0001
0000
0000
,
0000
0100
0000
0000
,
0000
1000
0000
0000
,
0000
0010
0000
0000
,
0000
0001
0000
0000
,
0000
0100
0000
0000
,
0000
0001
0000
0000
,
0000
0010
0000
0000
,
0000
1000
0000
0000
,
0000
0100
0000
0000
,
0000
0001
0000
0000
,
0000
0010
0000
0000
,
0000
1000
0000
0000
,
0000
0200
0000
0000
,
0300
2000
0000
0000
,
3000
0020
0000
0000
,
0030
0002
0000
0000
,
0003
0200
0000
0000
,
0300
2000
0000
0000
,
3000
0020
0000
0000
,
0030
0002
0000
0000
,
0003
0200
0000
0000
,
0300
0002
0000
0000
,
0003
0020
0000
0000
,
0030
2000
0000
0000
,
3000
0200
0000
0000
,
0300
0002
0000
0000
,
0003
0020
0000
0000
,
0030
0200
0000
0000
,
0300
2002
0000
0000
,
0000
0000
0000
0000
,
3003
0000
0000
0000
;

//--------------- dance-single - NAOKI ----------------
#NOTES:
     dance-single:
     NAOKI:
     Easy:
     10:
     0.547,0.673,0.192,0.122,0.402,402,22,14,0,0,0,0.547,0.673,0.192,0.122,0.402,402,22,14,0,0,0:
0000
0000
0000
0000
,
0000
0000
0000
0000
,
0000
0000
0000
0000
,
0000
0000
0000
0000
,
0000
0000
0000
0000
,
0000
0000
0000
0000
,
0000
0000
0000
0000
,
0000
0000
0000
0000
,
0000
0000
0000
0000
,
0000
0000
0000
0000
,
0000
0000
0000
0000
,
0010
0000
1000
0000
,
0100
0010
0001
0000
,
0010
0000
0001
0000
,
0100
0010
1000
0000
,
0100
0000
1000
0000
,
0010
0100
0001
0000
,
0100
0000
0001
0000
,
0010
0100
1000
0000
,
0010
0000
0001
0000
,
0100
0010
1000
0000
,
0100
0000
1000
0000
,
0010
0100
0001
0000
,
0100
0000
0001
0000
,
0010
0100
1000
0000
,
0100
0000
1000
0000
,
0010
0100
0001
0000
,
1000
0100
1000
0000
,
0001
0100
0001
0000
,
1000
0010
1000
0000
,
0001
0010
0001
0000
,
0100
0010
0100
0010
,
1000
0001
1000
0001
,
0010
0000
0000
1001
,
0000
0000
0110
0000
,
1000
0000
0000
0100
0000
0000
0010
0000
,
0000
0001
0000
0000
0200
0000
0010
0000
,
0301
0000
0000
0010
0000
0000
0100
0000
,
0000
1000
0000
0000
0020
0000
0100
0000
,
1030
0000
0000
0010
0000
0000
0100
0000
,
0000
0001
0000
0000
0020
0000
0100
0000
,
0031
0000
0000
0110
0000
0000
1001
0000
,
0000
0210
0000
0000
0010
0000
0310
0000
,
0000
0100
0000
0010
,
1000
0100
0000
0010
,
0000
0100
0000
0010
,
0001
0100
0000
0001
,
0000
0010
0000
0100
,
1000
0010
0000
0100
,
0000
0010
0000
0100
,
0001
0010
0000
0100
,
0000
1000
0000
0010
,
1000
0100
0000
0001
,
0000
0100
0000
0010
,
0001
0100
0000
1000
,
0000
0100
0000
0001
,
1000
0001
0000
0110
,
0000
0000
1001
0000
,
0000
0110
0000
0100
,
0000
0100
0000
0000
0000
0100
0000
0000
0000
0001
0000
0000
,
0000
0001
0000
0000
0000
0001
0000
0000
0000
0010
0000
0000
,
0000
0010
0000
0000
0000
0010
0000
0000
0000
1000
0000
0000
,
0000
1000
0000
0000
0000
1000
0000
0000
0000
0100
0000
0000
,
0000
0100
0000
0000
0000
0100
0000
0000
0000
0001
0000
0000
,
0000
0001
0000
0000
0000
0001
0000
0000
0000
0010
0000
0000
,
0000
0010
0000
0000
0000
0010
0000
0000
0000
1000
0000
0000
,
0000
1000
0000
0000
0000
1000
0000
0000
0000
0100
0000
0000
,
0000
0100
0000
0000
0000
0100
0000
0000
0000
1000
0000
0000
,
0000
1000
0000
0000
0000
1000
0000
0000
0000
0010
0000
0000
,
0000
0010
0000
0000
0000
0010
0000
0000
0000
0001
0000
0000
,
0000
0001
0000
0000
0000
0001
0000
0000
0000
0100
0000
0000
,
0000
0100
0000
0000
0000
0100
0000
0000
0000
1000
0000
0000
,
0000
1000
0000
0000
0000
1000
0000
0000
0000
0010
0000
0000
,
0000
0010
0000
0000
0000
0010
0000
0000
0000
0001
0000
0000
,
1000
0001
1000
0002
,
1000
0000
1000
0203
,
0010
0000
0010
0302
,
0010
0000
0010
2003
,
0100
0000
3100
0010
,
0001
0100
0010
1000
,
0100
0010
0001
0100
,
0010
0100
0010
1001
,
0000
0110
0000
0000
1001
0100
0000
0100
,
0000
0010
0000
0010
0000
1000
0000
1000
,
0000
0001
0000
0001
1000
0000
0000
0100
,
0000
0000
0010
0000
0001
0000
0000
0100
,
0000
0000
0010
0000
1000
0000
0000
0100
,
0000
0000
0010
0000
0000
1001
0000
0000
,
0110
2002
3003
0010
,
0000
0100
0001
0010
,
0000
0100
0000
1000
,
0000
0100
1000
0010
,
0000
0100
0000
0001
,
0000
0010
0001
0100
,
0000
0010
0000
1000
,
0000
0001
1000
0100
,
1000
0001
0000
0010
,
0000
0100
1000
0010
,
0000
0100
0000
0001
,
0000
0100
0001
0010
,
0000
0100
0000
1000
,
0000
0010
1000
0100
,
0000
0110
0000
0000
,
1001
0000
0000
0110
,
0000
0100
0010
0100
,
0010
0100
0010
0100
,
0000
0001
1000
0001
,
1000
0001
1000
0001
,
0000
0100
0001
0010
,
0000
0001
1000
0100
,
0000
0010
0000
0100
,
0000
1000
0001
0100
,
0001
1000
0100
1000
,
0100
1000
0100
1000
,
0000
0001
0010
0001
,
0010
0001
0010
0001
,
0000
0100
0010
1000
,
0000
0100
0010
0001
,
0000
0110
0000
0000
,
1001
0000
0000
0110
,
0000
0000
0000
0100
0000
0000
0000
0100
0000
0000
0000
0100
,
0000
0000
0000
0001
0000
0000
0000
0001
0000
0000
0000
0001
,
0000
0000
0000
0010
0000
0000
0000
0010
0000
0000
0000
0010
,
0000
0000
0000
1000
0000
0000
0000
1000
0000
0000
0000
1000
,
0000
0000
0000
0100
0000
0000
0000
0100
0000
0000
0000
0100
,
0000
0000
0000
0001
0000
0000
0000
0001
0000
0000
0000
0001
,
0000
0000
0000
0010
0000
0000
0000
0010
0000
0000
0000
0010
,
0000
0000
0000
1000
0000
0000
0000
1000
0000
0000
0000
1000
,
0000
0000
0000
0100
0000
0000
0000
0100
0000
0000
0000
0100
,
0000
0000
0000
1000
0000
0000
0000
1000
0000
0000
0000
1000
,
0000
0000
0000
0010
0000
0000
0000
0010
0000
0000
0000
0010
,
0000
0000
0000
0001
0000
0000
0000
0001
0000
0000
0000
0001
,
0000
0000
0000
0100
0000
0000
0000
0100
0000
0000
0000
0100
,
0000
0000
0000
1000
0000
0000
0000
1000
0000
0000
0000
1000
,
0000
0000
0000
0010
0000
0000
0000
0010
0000
0000
0000
0010
,
0000
0000
0000
0001
0000
0000
0000
0001
0000
0000
0000
0001
,
0000
0000
0000
0100
0000
0000
0000
0100
0000
0000
0000
0100
,
0000
0000
0000
0001
0000
0000
0000
0100
0000
0000
0000
1000
,
0000
0000
0000
0100
0000
0000
0000
0100
0000
0000
0000
0100
,
0000
0000
0000
1000
0000
0000
0000
0100
0000
0000
0000
0001
,
0000
0000
0000
0100
0000
0000
0000
0100
0000
0000
0000
0100
,
0000
0000
0000
0001
0000
0000
0000
0100
0000
0000
0000
1000
,
0000
0000
0000
0100
0000
0000
0000
0100
0000
0000
0000
0100
,
0000
0000
0000
1000
0000
0000
0000
0100
0000
0000
0000
0001
,
0000
0000
0000
0001
0000
0000
0000
0100
0000
0000
0000
1000
,
0000
0000
0000
1000
0000
0000
0000
0100
0000
0000
0000
0001
,
0000
0000
0000
0001
0000
0000
0000
0010
0000
0000
0000
1000
,
0000
0000
0000
1000
0000
0000
0000
0010
0000
0000
0000
0001
,
0000
0000
0000
0100
0000
0000
0000
0010
0000
0000
0000
1000
,
0000
0000
0000
0100
0000
0000
0000
0010
0000
0000
0000
0001
,
0000
0000
0000
0100
0000
0000
0000
0100
0000
0000
0000
0010
,
0000
0220
0000
0000
,
0330
2002
0000
0000
,
0000
0000
0000
0000
,
3003
0000
0000
0000
;

//--------------- dance-single - NAOKI ----------------
#NOTES:
     dance-single:
     NAOKI:
     Medium:
     14:
     0.779,1,0.804,0.21,0.402,508,92,24,0,0,0,0.779,1,0.804,0.21,0.402,508,92,24,0,0,0:
0000
0000
0000
0000
,
0000
0000
0000
0000
,
0000
0000
0000
0000
,
0000
0000
0000
0000
,
0000
0000
0000
0000
,
0000
0000
0000
0000
,
0000
0000
0000
0000
,
0000
0000
0000
0000
,
0000
0000
0000
0000
,
0000
0000
0000
0000
,
0000
0000
0000
0000
,
0010
1000
0100
0000
,
0010
0001
0100
0000
,
0010
1000
0100
1000
,
0001
0100
0001
0010
,
0000
0100
1000
0010
,
0000
0100
0001
0010
,
0000
0100
1000
0010
,
0100
0001
2002
3003
,
0010
0001
0100
0000
,
0010
1000
0100
0000
,
0010
0001
0100
0001
,
1000
0100
1000
0010
,
0000
0100
0001
0010
,
0000
0100
1000
0010
,
0000
0100
0001
0010
,
0100
1000
2002
3003
,
0010
0100
0010
0000
,
1000
0100
1000
0000
,
0001
0100
0001
0000
,
0010
0100
0010
0000
,
0001
1000
0001
1000
,
0010
0100
0010
0100
,
1001
0000
0000
0110
,
0000
0000
1001
0000
,
2100
0000
3010
0200
0000
0301
0010
0000
,
0010
0100
1000
0001
0100
0010
0100
0000
,
0012
0000
0103
0020
0000
1030
0100
0000
,
0100
0010
0001
1000
0010
0100
0010
0000
,
2001
0000
3100
0020
0000
0031
0100
0000
,
0100
0010
1000
0001
0010
0100
0010
0001
,
1001
0000
0100
0110
0000
1000
1001
0000
,
0010
0110
0000
0000
0100
0000
0110
0000
,
0000
0010
0000
1000
,
0100
0010
0100
1000
,
0010
0100
0000
0100
,
0001
0010
0100
0010
,
0001
0100
0000
0100
,
0010
1000
0001
0010
,
0100
0010
0000
0010
,
0100
0000
1000
0001
1000
0000
0010
0000
,
0100
0010
0000
0010
,
1000
0100
0010
0100
,
1000
0010
0000
0010
,
0100
0001
1000
0100
,
0010
0100
0000
0100
,
0010
0000
0001
1000
0001
0000
1001
0000
,
0000
0010
0110
0000
,
1000
1001
0000
1010
,
0000
1000
0000
0000
0000
0001
0000
0000
0000
0011
0000
0000
,
0000
0010
0000
0000
0000
0100
0000
0000
0000
1100
0000
0000
,
0000
1000
0000
0000
0000
0010
0000
0000
0000
0110
0000
0000
,
0000
0100
0000
0000
0000
0001
0000
0000
0000
1001
0000
0000
,
0000
1000
0000
0000
0000
0100
0000
0000
0000
0110
0000
0000
,
0000
0010
0000
0000
0000
0001
0000
0000
0000
0101
0000
0000
,
0000
0100
0000
0000
0000
0010
0000
0000
0000
1010
0000
0000
,
0000
1001
0000
0000
0000
1100
0000
0000
0000
0011
0000
0000
,
0000
0001
0000
0000
0000
1000
0000
0000
0000
1010
0000
0000
,
0000
0010
0000
0000
0000
0100
0000
0000
0000
0101
0000
0000
,
0000
0001
0000
0000
0000
0010
0000
0000
0000
0110
0000
0000
,
0000
0100
0000
0000
0000
1000
0000
0000
0000
1001
0000
0000
,
0000
0001
0000
0000
0000
0100
0000
0000
0000
0110
0000
0000
,
0000
0010
0000
0000
0000
1000
0000
0000
0000
1100
0000
0000
,
0000
0100
0000
0000
0000
0010
0000
0000
0000
0001
0000
0000
,
1000
0001
1000
0002
,
1000
0000
1000
0023
,
0100
0000
0100
0032
,
0100
0000
0100
2003
,
0010
0000
0000
0000
3010
0000
1000
0100
,
1000
0000
1000
0010
1000
0000
0001
0010
,
0001
0000
0001
0100
0001
0000
0010
0100
,
1000
0001
0100
0010
1000
0001
0010
0000
,
0010
0100
0000
0100
2000
0001
0000
3001
,
0200
0010
0000
0310
0002
1000
0000
1003
,
0200
0010
0000
0310
0001
1000
0010
0000
,
0100
0010
1000
0000
0100
0000
0010
0000
,
0001
0010
0100
1000
0001
0100
0010
1000
,
0100
0010
0001
0000
0000
0110
0000
0000
,
1001
0220
0330
0010
,
0000
1000
0001
0010
,
0000
0010
0001
1000
,
0001
0100
0010
0000
,
0010
0100
0001
1000
,
0001
0010
0100
0000
,
0100
0010
0001
1000
,
0001
0100
0100
0010
,
0010
1000
0001
0100
,
0000
0100
0010
1000
,
0001
1000
0100
0010
,
0000
0010
0100
1000
,
0001
1000
0010
0100
,
0000
0100
0001
0010
,
0100
1001
0000
0100
,
0110
0000
0001
1001
,
0000
0010
0100
1000
,
0001
0000
0100
0010
0100
0000
0001
0000
,
0010
0100
0010
0001
,
1000
0000
0010
0100
0010
0000
1000
0000
,
0100
0010
0100
1000
,
0001
0000
0010
0100
0010
0000
0001
0000
,
0100
0010
0100
0001
,
1000
0100
0100
0010
,
0010
0001
0100
0010
,
1000
0000
0100
0010
0100
0000
1000
0000
,
0001
0100
0010
0100
,
0001
0000
0010
0100
0010
0000
0001
0000
,
1000
0100
0010
0100
,
1000
0000
0010
0100
0010
0000
1000
0000
,
0001
0101
0100
0010
,
1010
0000
1000
1001
,
0000
0000
0000
0011
0000
0000
0000
0001
0000
0000
0000
1000
,
0000
0000
0000
1010
0000
0000
0000
0010
0000
0000
0000
0100
,
0000
0000
0000
0101
0000
0000
0000
0001
0000
0000
0000
0010
,
0000
0000
0000
0110
0000
0000
0000
0100
0000
0000
0000
1000
,
0000
0000
0000
1001
0000
0000
0000
0001
0000
0000
0000
0100
,
0000
0000
0000
0110
0000
0000
0000
0010
0000
0000
0000
1000
,
0000
0000
0000
1100
0000
0000
0000
0100
0000
0000
0000
0010
,
0000
0000
0000
0011
0000
0000
0000
1001
0000
0000
0000
0101
,
0000
0000
0000
1010
0000
0000
0000
1000
0000
0000
0000
0001
,
0000
0000
0000
0011
0000
0000
0000
0010
0000
0000
0000
0100
,
0000
0000
0000
1100
0000
0000
0000
1000
0000
0000
0000
0010
,
0000
0000
0000
0110
0000
0000
0000
0100
0000
0000
0000
0001
,
0000
0000
0000
1001
0000
0000
0000
1000
0000
0000
0000
0100
,
0000
0000
0000
0110
0000
0000
0000
0010
0000
0000
0000
0001
,
0000
0000
0000
0101
0000
0000
0000
0100
0000
0000
0000
0010
,
0000
0000
0000
1010
0000
0000
0000
1001
0000
0000
0000
1100
,
0000
0000
0000
0001
0000
0000
0000
1000
0000
0000
0000
0001
,
0000
0000
0000
0101
0000
0000
0000
0110
0000
0000
0000
1010
,
0000
0000
0000
1000
0000
0000
0000
0001
0000
0000
0000
1000
,
0000
0000
0000
1100
0000
0000
0000
0110
0000
0000
0000
0011
,
0000
0000
0000
0001
0000
0000
0000
1000
0000
0000
0000
0001
,
0000
0000
0000
0011
0000
0000
0000
0110
0000
0000
0000
1100
,
0000
0000
0000
1000
0000
0000
0000
0001
0000
0000
0000
1000
,
0000
0000
0000
1010
0000
0000
0000
0110
0000
0000
0000
0101
,
0000
0000
0000
1001
0000
0000
0000
1000
0000
0000
0000
0100
,
0000
0000
0000
0110
0000
0000
0000
0010
0000
0000
0000
0001
,
0000
0000
0000
1001
0000
0000
0000
1000
0000
0000
0000
0010
,
0000
0000
0000
0110
0000
0000
0000
0101
0000
0000
0000
0101
,
0000
0000
0000
1001
0000
0000
0000
1100
0000
0000
0000
1100
,
0000
0000
0000
1001
0000
0000
0000
0011
0000
0000
0000
0011
,
0000
0000
0000
1001
0000
0000
0000
1010
0000
0000
0000
1010
,
0000
0220
0000
0000
,
0330
2002
0000
0000
,
0000
0000
0000
0000
,
3003
0000
0000
0000
;

//--------------- dance-single - NAOKI&SEFIROT ----------------
#NOTES:
     dance-single:
     NAOKI&SEFIROT:
     Hard:
     17:
     1,1,1,0.21,0.564,667,133,24,0,0,0,1,1,1,0.21,0.564,667,133,24,0,0,0:
0000
0000
0000
0000
,
0000
0000
0000
0000
,
0000
0000
0000
0000
,
0000
0000
0000
0000
,
0000
0000
0000
0000
,
0000
0000
0000
0000
,
0000
0000
0000
0000
,
0000
0000
0000
0000
,
0000
0000
0000
0000
,
0000
0000
0000
0000
,
0000
0000
0000
0000
,
1000
0010
1000
0001
,
1000
0100
1000
0010
,
0100
0001
0010
1000
,
0010
0001
0100
0010
,
1000
0010
0001
0010
,
1000
0100
0001
0100
,
1000
0010
0100
0001
,
0010
0100
2002
3003
,
0001
0010
0001
1000
,
0001
0100
0001
0010
,
0100
1000
0010
0001
,
0010
1000
0100
0010
,
0001
0010
1000
0010
,
0001
0100
1000
0100
,
0001
0010
0100
1000
,
0010
0100
2002
3003
,
1000
0010
0001
0010
,
1000
0010
0001
0010
,
1000
0100
0001
0100
,
1000
0100
0001
0100
,
1000
1000
0001
0001
,
0100
0100
0010
0010
,
1001
0000
0100
0110
,
0000
0001
1001
0000
,
2000
0000
3100
0001
0100
1000
0020
0000
,
0130
1000
0100
0002
0010
0010
0013
0000
,
0100
1000
0101
0000
0010
0001
1010
0000
,
0100
0001
1000
0100
0010
0100
1001
0000
,
0002
0000
0103
1000
0100
0001
0020
0000
,
0130
0001
0100
2000
0010
0010
3010
0000
,
1001
0000
0010
1100
0000
0010
0101
0000
,
0010
1001
0000
0010
0100
0010
0110
0000
,
1000
0000
0100
0000
0010
0000
0001
1000
,
0001
0000
0100
0000
0010
0000
1000
0100
,
1000
0000
0001
0000
0100
0000
0010
0100
,
0010
0000
0100
0000
0001
0000
1000
0001
,
1000
0000
0100
0000
0010
0000
0001
0100
,
0001
0000
1000
0000
0100
0000
0010
0100
,
0010
0000
0100
0000
1000
0000
0001
0010
,
0001
0000
1000
0010
1000
0000
0100
0000
,
0010
0001
0100
0000
0010
0000
0100
0001
,
0010
0000
0100
1000
0010
0000
0100
0000
,
0001
1000
0100
0000
0010
0000
0100
1000
,
0001
0000
0100
0010
0100
0000
0001
0000
,
1000
0001
0100
0000
0010
0000
1000
0001
,
0010
0000
0100
1000
0001
0000
0101
0000
,
0100
0001
1000
0000
1100
0000
0100
0010
,
0001
1001
0000
0011
,
0000
1100
0000
0000
0000
0101
0000
0000
0000
1010
0000
0000
,
0000
0101
0000
0000
0000
1100
0000
0000
0000
0011
0000
0000
,
0000
1001
0000
0000
0000
0101
0000
0000
0000
1010
0000
0000
,
0000
1001
0000
0000
0000
1100
0000
0000
0000
1010
0000
0000
,
0000
0101
0000
0000
0000
1100
0000
0000
0000
0011
0000
0000
,
0000
1100
0000
0000
0000
0101
0000
0000
0000
1010
0000
0000
,
0000
1001
0000
0000
0000
1100
0000
0000
0000
0011
0000
0000
,
0000
1001
0000
0000
0000
0101
0000
0000
0000
1010
0000
0000
,
0000
0011
0000
0000
0000
0101
0000
0000
0000
1100
0000
0000
,
0000
0101
0000
0000
0000
0011
0000
0000
0000
1010
0000
0000
,
0000
0101
0000
0000
0000
1100
0000
0000
0000
0011
0000
0000
,
0000
1100
0000
0000
0000
0101
0000
0000
0000
0011
0000
0000
,
0000
1010
0000
0000
0000
1100
0000
0000
0000
0101
0000
0000
,
0000
1100
0000
0000
0000
1010
0000
0000
0000
0011
0000
0000
,
0000
1100
0000
0000
0000
0101
0000
0000
0000
1001
0000
0000
,
2000
3200
0320
0032
,
0100
0000
0100
0023
,
0100
0000
0100
0032
,
1000
0000
1000
0203
,
0010
0000
0000
0000
0310
0000
1000
0010
,
1000
0010
1000
0100
1000
0100
0010
0001
,
0010
0000
0001
0000
0100
0000
0001
0000
0100
0000
0010
0000
1000
0100
0010
0001
,
1000
0010
0100
0001
0100
0010
1000
0001
0010
0100
1000
0001
0100
0000
0000
0000
,
0110
0000
1001
0000
0000
0000
1001
0000
0110
0000
1000
0000
0001
0100
1000
0000
,
0100
0000
0001
0000
1000
0100
0001
0000
0100
1000
0010
0000
0100
0001
0010
0000
,
0100
0001
1000
0010
0001
0100
1000
0000
0001
0000
0010
0000
1000
0000
0000
0000
,
0001
0100
1000
0000
1000
0010
0001
0000
,
1000
0100
0001
0000
0010
0001
1000
0100
,
0001
0000
1000
0000
0010
0000
0001
0000
1000
0100
0010
0100
1000
0001
0100
0010
,
0100
0001
1000
0001
2000
0000
3000
0000
0010
0000
1000
0000
0100
0000
0000
0000
,
0010
0000
0100
1000
0001
0000
0100
0000
,
1000
0000
0100
0000
0001
1000
0100
0000
,
0010
0000
0100
1000
0010
0000
0001
0000
,
0010
1000
0100
0000
0010
0001
1000
0000
,
0010
0000
0100
0001
0010
0000
1000
0000
,
0010
0000
0001
0000
0100
0001
0010
0000
,
0100
0000
1000
0010
1000
0000
0001
0010
,
0001
0000
0100
0000
0010
1000
0100
0000
,
0010
0000
0100
1000
0010
0000
0100
0001
,
0010
0000
0100
0000
0010
0001
1000
0000
,
0010
0000
1000
0001
0010
0000
0100
0010
,
0100
0000
0010
0000
0001
1000
0010
0000
,
0100
0000
0010
1000
0001
0000
0100
0010
,
0100
0000
0101
0000
0001
0010
0001
0000
,
1001
0000
1000
0010
1000
0000
1100
0000
,
0101
0000
0010
1000
0001
1000
0100
0000
,
0010
0000
0100
1000
0001
0100
0010
0000
,
1000
0000
0001
0010
0200
0000
1300
0000
,
0010
0000
1000
0100
1000
0000
0001
0100
,
0001
0000
0010
0001
1000
0001
0100
0000
,
0010
0000
0100
0001
1000
0001
0010
0000
,
0100
0000
1000
0010
0200
0000
0301
0000
,
0010
0000
0001
0100
0001
0000
1000
0100
,
1000
0000
0001
0100
0010
0100
0001
0000
,
0010
0000
0100
1000
0001
0000
0010
0000
,
0100
0000
1000
0010
0100
0010
1000
0000
,
0100
0000
0010
0001
1000
0000
0010
0000
,
0100
0000
0001
1000
0100
0000
0010
0000
,
0100
0000
1000
0001
0100
0000
0010
0000
,
1000
0000
1100
0000
0100
1000
0001
0000
,
0101
0000
0100
0010
1000
0000
1001
0000
,
0000
0000
0000
1010
0000
0000
0000
0101
0000
0000
0000
1100
,
0000
0000
0000
0011
0000
0000
0000
1100
0000
0000
0000
0101
,
0000
0000
0000
1010
0000
0000
0000
1001
0000
0000
0000
1100
,
0000
0000
0000
0011
0000
0000
0000
1001
0000
0000
0000
0101
,
0000
0000
0000
0011
0000
0000
0000
1100
0000
0000
0000
0101
,
0000
0000
0000
1010
0000
0000
0000
1100
0000
0000
0000
0101
,
0000
0000
0000
0011
0000
0000
0000
1001
0000
0000
0000
0101
,
0000
0000
0000
1010
0000
0000
0000
1001
0000
0000
0000
1100
,
0000
0000
0000
0011
0000
0000
0000
1010
0000
0000
0000
1100
,
0000
0000
0000
0101
0000
0000
0000
1100
0000
0000
0000
1010
,
0000
0000
0000
0011
0000
0000
0000
1100
0000
0000
0000
0101
,
0000
0000
0000
1010
0000
0000
0000
0101
0000
0000
0000
1100
,
0000
0000
0000
1010
0000
0000
0000
0011
0000
0000
0000
0101
,
0000
0000
0000
1100
0000
0000
0000
0101
0000
0000
0000
0011
,
0000
0000
0000
1010
0000
0000
0000
0101
0000
0000
0000
1100
,
0000
0000
0000
0011
0000
0000
0000
1100
0000
0000
0000
0101
,
0000
0000
0000
0010
0000
1000
0000
0100
0000
0010
0000
0100
,
0000
1000
0000
0010
0000
0000
0000
0100
0000
0010
0000
1000
,
0000
0001
0000
0010
0000
0100
0000
0010
0000
0001
0000
0100
,
0000
0000
0000
0010
0000
1000
0000
0100
0000
0000
0000
0011
,
0000
0000
0000
0100
0000
1000
0000
0010
0000
0000
0000
0101
,
0000
0000
0000
0010
0000
1000
0000
0100
0000
0000
0000
0011
,
0000
0000
0000
0001
0000
0100
0000
0010
0000
1000
0000
0001
,
0000
0010
0000
0100
0000
1000
0000
0010
0000
0000
0000
0101
,
0000
0000
0000
1000
0000
0010
0000
0100
0000
0001
0000
0010
,
0000
0000
0000
1100
0000
0000
0000
0010
0000
0001
0000
0100
,
0000
0000
0000
1010
0000
0000
0000
0100
0000
0001
0000
0010
,
0000
0000
0000
1100
0000
0000
0000
0010
0000
0001
0000
0100
,
0000
0010
0000
1000
0000
0001
0000
0010
0000
0100
0000
1000
,
0000
0010
0000
0100
0000
0001
0000
1000
0000
0100
0000
0010
,
0000
0001
0000
1100
0000
0000
0000
0101
0000
0000
0000
1001
,
0000
0220
0000
0000
,
0330
2002
0000
0000
,
0000
0000
0000
0000
,
3003
0000
0000
0000
;

//--------------- dance-single - NAOKI&SEFIROT ----------------
#NOTES:
     dance-single:
     NAOKI&SEFIROT:
     Challenge:
     18:
     1,1,1,0.341,0.686,753,135,39,0,0,0,1,1,1,0.341,0.686,753,135,39,0,0,0:
0000
0000
0000
0000
,
0000
0000
0000
0000
,
0000
0000
0000
0000
,
0000
0000
0000
0000
,
0000
0000
0000
0000
,
0000
0000
0000
0000
,
0000
0000
0000
0000
,
0000
0000
0000
0000
,
0000
0000
0000
0000
,
0000
0000
0000
0000
,
0000
0000
0000
0000
,
0001
0010
0001
1000
,
0001
0100
0001
0010
,
0100
1000
0010
0001
,
0010
1000
0100
0010
,
0001
0100
1000
0100
,
0001
0010
1000
0010
,
0001
0100
0010
1000
,
0100
0000
0000
0100
0010
0000
0001
0000
,
1000
0010
1000
0001
,
1000
0100
1000
0010
,
0100
0001
0010
1000
,
0010
0001
0100
0010
,
1000
0100
0001
0100
,
0010
1000
0010
0001
,
0100
1000
0100
0010
,
1000
0100
0001
0100
,
0010
0001
0100
1000
,
0001
0010
1000
0001
,
0010
1000
0010
0001
,
1000
0100
0001
0100
,
1000
0100
1000
0010
1000
0100
0010
0001
,
0100
0001
0010
0001
0100
0010
1000
0000
,
1001
0010
0100
0110
,
0001
1000
1001
0010
,
0120
0000
1030
0002
0000
0013
0100
1000
,
0001
0100
0010
2000
0100
0100
3100
0000
,
0010
0001
1010
0000
0100
1000
0101
0000
,
0001
0010
1000
0010
0001
0100
1001
0000
,
0210
0000
0301
2000
0000
3100
0010
0001
,
1000
0010
0100
0002
0010
0010
0013
0000
,
0011
0100
1000
1010
0001
0100
1001
0100
,
1000
0010
1000
0100
1000
0010
0100
0001
0010
0001
0100
0001
0010
0000
0000
0000
,
0001
0000
0100
0000
0010
0000
1000
0001
,
1000
0000
0100
0000
0010
0000
0001
0100
,
0001
0000
1000
0000
0100
0000
0010
0100
,
0010
0000
0100
0000
1000
0000
0001
1000
,
0001
0000
0100
0000
0010
0000
1000
0100
,
1000
0000
0001
0000
0100
0000
0010
0100
,
0010
0000
0100
0000
0001
0000
1000
0100
,
1000
0100
0010
0001
0010
0001
0100
0000
,
0020
1000
0130
0000
0010
0000
0200
1000
,
0310
0000
0100
0001
1000
0000
0100
0000
,
2000
0001
3100
0000
1000
0000
0200
0001
,
1300
0000
0100
1000
0001
0000
0100
0000
,
0002
1000
0103
0000
0001
0000
0200
1000
,
0301
0000
0100
0001
0010
0000
0011
0000
,
0100
1000
0010
0000
1010
0000
1000
0001
,
0100
0110
0000
1010
,
0000
0101
0000
0000
0000
1100
0000
0000
0000
0011
0000
0000
,
0000
1100
0000
0000
0000
0101
0000
0000
0000
1010
0000
0000
,
0000
1001
0000
0000
0000
1100
0000
0000
0000
0011
0000
0000
,
0000
1001
0000
0000
0000
0101
0000
0000
0000
0011
0000
0000
,
0000
1100
0000
0000
0000
0101
0000
0000
0000
1010
0000
0000
,
0000
0101
0000
0000
0000
1100
0000
0000
0000
0011
0000
0000
,
0000
1001
0000
0000
0000
0101
0000
0000
0000
1010
0000
0000
,
0000
1001
0000
0000
0000
1100
0000
0000
0000
0011
0000
0000
,
0000
1010
0000
0000
0000
1100
0000
0000
0000
0101
0000
0000
,
0000
1100
0000
0000
0000
1010
0000
0000
0000
0011
0000
0000
,
0000
1100
0000
0000
0000
0101
0000
0000
0000
1010
0000
0000
,
0000
0101
0000
0000
0000
1100
0000
0000
0000
1010
0000
0000
,
0000
0011
0000
0000
0000
0101
0000
0000
0000
1100
0000
0000
,
0000
0101
0000
0000
0000
0011
0000
0000
0000
1010
0000
0000
,
0000
0101
0000
0000
0000
1100
0000
0000
0000
1001
0000
0000
,
0002
0023
0230
2300
,
0001
0000
0001
3020
,
0100
0000
0100
2030
,
0100
0000
0100
3002
,
0010
0000
0000
0000
0010
0000
1003
0010
,
1000
0010
1000
0100
1000
0100
0010
0001
,
0010
0000
0001
0000
0100
0000
0001
0000
0100
0000
0001
0000
0010
0001
0100
0010
,
0100
0010
1000
0100
0010
0100
0010
0001
0100
0010
0100
0010
1000
0000
0000
0000
,
1001
0000
0110
0000
0000
0000
0110
0000
1001
0000
0010
0000
1000
0100
0011
0000
,
1100
0000
0000
0000
0010
0000
0000
0000
0001
0000
0010
0000
0100
0000
1000
0000
0001
0100
0001
0000
0010
0000
0100
1000
0100
0000
0010
0000
0001
0000
0000
0000
,
1000
0100
1000
0000
0010
0000
0100
0001
0100
0000
0010
0000
1000
0000
0000
0000
0001
0000
0010
0000
0001
0000
0000
0000
0100
0000
0000
0000
0010
0000
1000
0000
,
0010
0000
0100
0000
0001
0000
0000
0000
1000
0010
1000
0000
0100
0000
0010
0001
,
0010
0000
0100
0000
1000
0000
0000
0000
0100
0010
0100
0000
0010
0000
0001
1000
,
0001
0000
0100
0000
0010
0000
1000
0000
0001
0010
0100
0010
0001
1000
0010
0100
,
0010
1000
0001
0010
0200
0000
0300
0000
1000
0000
0001
0000
0100
0000
0000
0000
,
0010
0000
0100
0001
1000
0000
0100
0000
,
0001
0000
0100
0000
1000
0001
0100
0000
,
0010
0000
0100
0001
0010
0000
1000
0000
,
0010
0001
0100
0000
0010
1000
0001
0000
,
0010
0000
0100
1000
0010
0000
0001
0000
,
0010
0000
1000
0000
0100
1000
0010
0000
,
0100
0000
0001
0010
0001
0010
0100
1000
,
0100
1000
0001
0000
0020
0001
0130
0000
,
0010
0000
0200
0001
0310
0000
0100
1000
,
0010
0000
0100
0000
0020
1000
0031
0000
,
0010
0000
0002
1000
0013
0000
0100
0001
,
0010
0000
0100
0000
2000
0001
3010
0000
,
0100
0000
0020
0001
1030
0000
0010
1000
,
0100
0000
1100
0000
0020
0001
0130
0000
,
1010
0000
0200
0001
0310
0000
1100
0000
,
0101
0000
0010
0001
0100
0010
0200
0000
,
1300
0000
0100
0001
0010
0100
0020
0000
,
1030
0000
0010
0001
0100
0010
0200
0000
,
0310
0000
1000
0100
0001
0000
1000
0010
,
0001
0100
0010
1000
0100
0010
0200
0000
,
0301
0000
0100
1000
0010
0100
0020
0000
,
0031
0000
0010
1000
0100
0010
0200
0000
,
0310
0000
0001
0100
1000
0000
0001
0010
,
1000
0000
0001
0100
0010
0100
0001
0100
,
0010
0100
0001
0010
0100
0010
0001
0010
,
0100
0010
0001
0100
1000
0100
0001
0100
,
1000
0100
0001
0010
1000
0010
0001
0010
,
1000
0010
0001
1000
0100
0010
0001
1000
,
0010
0100
0001
0010
1000
0001
0100
1000
,
0010
0001
0020
1000
0031
1000
0100
0001
,
0200
1000
0301
0010
0100
1000
0002
0100
,
1003
0000
0000
0100
0000
0000
0011
0000
0000
0000
0000
0000
0000
0000
1100
0000
0000
0000
0000
0000
0000
0000
0101
0000
,
0000
0000
0000
1010
0000
0000
0000
0101
0000
0000
0000
1100
,
0000
0000
0000
0011
0000
0000
0000
1001
0000
0000
0000
0101
,
0000
0000
0000
1010
0000
0000
0000
1001
0000
0000
0000
1100
,
0000
0000
0000
1010
0000
0000
0000
0101
0000
0000
0000
1100
,
0000
0000
0000
0011
0000
0000
0000
0101
0000
0000
0000
1100
,
0000
0000
0000
1010
0000
0000
0000
1001
0000
0000
0000
1100
,
0000
0000
0000
0011
0000
0000
0000
1001
0000
0000
0000
0101
,
0000
0000
0000
1010
0000
0000
0000
0011
0000
0000
0000
0101
,
0000
0000
0000
1100
0000
0000
0000
0101
0000
0000
0000
0011
,
0000
0000
0000
1010
0000
0000
0000
0101
0000
0000
0000
1100
,
0000
0000
0000
0011
0000
0000
0000
1100
0000
0000
0000
0101
,
0000
0000
0000
0011
0000
0000
0000
1010
0000
0000
0000
1100
,
0000
0000
0000
0101
0000
0000
0000
1100
0000
0000
0000
1010
,
0000
0000
0000
0011
0000
0000
0000
1100
0000
0000
0000
0101
,
0000
0000
0000
1010
0000
0000
0000
0101
0000
0000
0000
1100
,
0000
0000
0000
0011
0000
1000
0000
0100
0000
0010
0000
0001
,
0000
0100
0000
1010
0000
0000
0000
0011
0000
0001
0000
0100
,
0000
1000
0000
0100
0000
0001
0000
1000
0000
0100
0000
0010
,
0000
0001
0000
0100
0000
0010
0000
1000
0000
0100
0000
0011
,
0000
0000
0000
1100
0000
0010
0000
0001
0000
0100
0000
1001
,
0000
0010
0000
1000
0000
0100
0000
0010
0000
0001
0000
0101
,
0000
0000
0000
1010
0000
1000
0000
0100
0000
0001
0000
0100
,
0000
1000
0000
0010
0000
0100
0000
0001
0000
0010
0000
1100
,
0000
0000
0000
0101
0000
1000
0000
0010
0000
0001
0000
0010
,
0000
1000
0000
1100
0000
0001
0000
0010
0000
1000
0000
0010
,
0000
0001
0000
0101
0000
1000
0000
0010
0000
0001
0000
0010
,
0000
1000
0000
1001
0000
0001
0000
0100
0000
1000
0000
0100
,
0000
0001
0000
0011
0000
1000
0000
0100
0000
0001
0000
0100
,
0000
1000
0000
1010
0000
0001
0000
0100
0000
1000
0000
0100
,
0000
0001
0000
0011
0000
1000
0000
0100
0000
0010
0000
0001
,
0000
0000
1000
0000
0000
0000
0210
0000
0000
0000
0000
0000
0010
0000
0000
0000
0000
0000
0301
0000
0000
1000
0000
0000
,
0001
1000
0200
0000
0000
0000
0000
0000
,
0000
0000
0000
0000
,
0300
0000
0000
0000
;

//--------------- dance-double - KITUNE ----------------
#NOTES:
     dance-double:
     KITUNE:
     Easy:
     10:
     0.512,0.538,0.052,0.166,0.402,385,6,19,0,0,0,0.512,0.538,0.052,0.166,0.402,385,6,19,0,0,0:
00000000
00000000
00000000
00000000
,
00000000
00000000
00000000
00000000
,
00000000
00000000
00000000
00000000
,
00000000
00000000
00000000
00000000
,
00000000
00000000
00000000
00000000
,
00000000
00000000
00000000
00000000
,
00000000
00000000
00000000
00000000
,
00000000
00000000
00000000
00000000
,
00000000
00000000
00000000
00000000
,
00000000
00000000
00000000
00000000
,
00000000
00000000
00000000
00000000
,
01000000
00000000
00010000
00000000
,
10000000
00000000
00100000
00000000
,
01000000
00000000
00001000
00000000
,
00010000
00000000
00000010
00000000
,
00000100
00000000
00000010
00000000
,
00001000
00000000
00000001
00000000
,
00000010
00000000
00001000
00000000
,
00000010
00000100
00000010
00000000
,
00000001
00000000
00001000
00000000
,
00000100
00000000
00010000
00000000
,
00001000
00000000
01000000
00000000
,
00100000
01000000
00100000
00000000
,
10000000
00000000
00100000
00000000
,
01000000
00000000
00001000
00000000
,
00010000
00000000
00000100
00000000
,
00000010
00000100
00000010
00000000
,
00002000
00000000
00100000
00000000
,
00023000
00000000
01000000
00000000
,
00032000
00000000
00000010
00000000
,
00023000
00000000
00000100
00000000
,
00032000
00000000
00000010
00000000
,
00023000
00000000
00100000
00000000
,
00031000
00000000
00000000
00010000
,
00000000
00000000
00011000
00000000
,
00001000
00000000
00000000
01000000
00000000
00000000
00100000
00000000
,
00000000
10000000
00000000
00000000
02000000
00000000
00100000
00000000
,
03010000
00000000
00000000
00001000
00000000
00000000
00000100
00000000
,
00000000
00000010
00000000
00000000
00000200
00000000
00000010
00000000
,
00001300
00000000
00000000
01000000
00000000
00000000
00100000
00000000
,
00000000
10000000
00000000
00000000
00200000
00000000
10000000
00000000
,
00310000
00000000
00000000
00001000
00000000
00000000
00000010
00000000
,
00000000
00000100
00000000
00000000
00001000
00000000
00001001
00000000
,
00000000
00000001
00000000
00000100
,
00001000
00000010
00000000
00000001
,
00000000
00000100
00000000
00001000
,
00010000
01000000
00000000
00100000
,
00000000
00010000
00000000
01000000
,
10000000
00100000
00000000
00010000
,
00000000
00001000
00000000
00000100
,
00001000
00000010
00000000
00000001
,
00000000
00000100
00000000
00001000
,
00000000
00010000
00000000
00100000
,
00000000
00010000
00000000
01000000
,
10000000
00100000
00000000
10000000
,
00000000
01000000
00000000
00010000
,
00000000
00001000
00000000
00000010
,
00000000
00000001
00000000
00000100
,
00001000
00000010
00000000
00000001
,
00000000
00000001
00000000
00000000
00000000
00000001
00000000
00000000
00000000
00000010
00000000
00000000
,
00000000
00000010
00000000
00000000
00000000
00000010
00000000
00000000
00000000
00001000
00000000
00000000
,
00000000
00001000
00000000
00000000
00000000
00001000
00000000
00000000
00000000
00010000
00000000
00000000
,
00000000
00010000
00000000
00000000
00000000
00010000
00000000
00000000
00000000
01000000
00000000
00000000
,
00000000
01000000
00000000
00000000
00000000
01000000
00000000
00000000
00000000
10000000
00000000
00000000
,
00000000
10000000
00000000
00000000
00000000
10000000
00000000
00000000
00000000
00100000
00000000
00000000
,
00000000
00100000
00000000
00000000
00000000
00100000
00000000
00000000
00000000
00010000
00000000
00000000
,
00000000
00010000
00000000
00000000
00000000
00010000
00000000
00000000
00000000
00001000
00000000
00000000
,
00000000
00001000
00000000
00000000
00000000
00001000
00000000
00000000
00000000
00000100
00000000
00000000
,
00000000
00000100
00000000
00000000
00000000
00000100
00000000
00000000
00000000
00000001
00000000
00000000
,
00000000
00000001
00000000
00000000
00000000
00000001
00000000
00000000
00000000
00000010
00000000
00000000
,
00000000
00000010
00000000
00000000
00000000
00000010
00000000
00000000
00000000
00001000
00000000
00000000
,
00000000
00001000
00000000
00000000
00000000
00001000
00000000
00000000
00000000
00010000
00000000
00000000
,
00000000
00010000
00000000
00000000
00000000
00010000
00000000
00000000
00000000
01000000
00000000
00000000
,
00000000
01000000
00000000
00000000
00000000
01000000
00000000
00000000
00000000
20000000
00000000
00000000
,
30000000
20000000
30000000
00020000
,
00100000
00000000
00100000
00032000
,
00000100
00000000
00000100
00023000
,
01000000
00000000
01000000
00032000
,
00000010
00000000
00003010
00010000
,
00100000
10000000
01000000
00010000
,
00001000
00000010
00000001
00000100
,
00001000
00010000
00100000
10000000
,
00000000
01000000
00000000
00000000
00010000
00001000
00000000
00001000
,
00000000
00100000
00000000
00100000
00000000
01000000
00000000
01000000
,
00000000
00010000
00000000
00010000
00000000
00000000
00001000
00000000
,
00000000
00001000
00000000
00000100
,
00000000
00000100
00000000
00010000
,
00000000
00000000
00010000
00000000
00000000
01000000
00000000
00000000
,
01000000
10010000
00000000
10000000
,
00000000
01000000
00010000
00100000
,
00000000
10000000
00000000
01000000
,
00000000
00010000
00001000
00000100
,
00000000
00000010
00000000
00001000
,
00000000
00000100
00000001
00000010
,
00000000
00001000
00000000
00010000
,
00000000
01000000
00010000
00100000
,
00000000
10000000
00000000
01000000
,
00000000
00010000
00000000
00001000
,
00000000
00000010
00000000
00001000
,
00000000
00000100
00000001
00000010
,
00000000
00000001
00000000
00000100
,
00000000
00001000
00000000
00010000
,
00000000
00100000
00000000
10000000
,
00000000
01000000
00010000
00100000
,
00000000
10000000
00100000
01000000
,
00010000
00100000
00001000
00010000
,
00000000
00000100
00001000
00000010
,
00000100
00000001
00000010
00000100
,
00000000
00000010
00000001
00000100
,
00000010
00001000
00000100
00010000
,
00000000
00001000
00100000
00010000
,
01000000
00100000
10000000
01000000
,
00000000
00100000
00010000
00100000
,
00001000
00100000
00010000
00100000
,
00000000
00000010
00001000
00000010
,
00010000
00000010
00001000
00000010
,
00000000
01000000
00010000
00100000
,
00000000
00000100
00001000
00000010
,
00000000
00010000
00000000
00000000
,
01000000
00000000
00000000
11000000
,
00000000
00000000
00000000
10000000
00000000
00000000
00000000
10000000
00000000
00000000
00000000
10000000
,
00000000
00000000
00000000
01000000
00000000
00000000
00000000
01000000
00000000
00000000
00000000
01000000
,
00000000
00000000
00000000
00010000
00000000
00000000
00000000
00010000
00000000
00000000
00000000
00010000
,
00000000
00000000
00000000
00001000
00000000
00000000
00000000
00001000
00000000
00000000
00000000
00001000
,
00000000
00000000
00000000
00000010
00000000
00000000
00000000
00000010
00000000
00000000
00000000
00000010
,
00000000
00000000
00000000
00000001
00000000
00000000
00000000
00000001
00000000
00000000
00000000
00000001
,
00000000
00000000
00000000
00000100
00000000
00000000
00000000
00000100
00000000
00000000
00000000
00000100
,
00000000
00000000
00000000
00001000
00000000
00000000
00000000
00001000
00000000
00000000
00000000
00001000
,
00000000
00000000
00000000
00010000
00000000
00000000
00000000
00010000
00000000
00000000
00000000
00010000
,
00000000
00000000
00000000
00100000
00000000
00000000
00000000
00100000
00000000
00000000
00000000
00100000
,
00000000
00000000
00000000
10000000
00000000
00000000
00000000
10000000
00000000
00000000
00000000
10000000
,
00000000
00000000
00000000
01000000
00000000
00000000
00000000
01000000
00000000
00000000
00000000
01000000
,
00000000
00000000
00000000
00010000
00000000
00000000
00000000
00010000
00000000
00000000
00000000
00010000
,
00000000
00000000
00000000
00001000
00000000
00000000
00000000
00001000
00000000
00000000
00000000
00001000
,
00000000
00000000
00000000
00000010
00000000
00000000
00000000
00000010
00000000
00000000
00000000
00000010
,
00000000
00000000
00000000
00000001
00000000
00000000
00000000
00000001
00000000
00000000
00000000
00000001
,
00000000
00000000
00000000
00001000
00000000
00000000
00000000
00001000
00000000
00000000
00000000
00001000
,
00000000
00000000
00000000
00010000
00000000
00000000
00000000
00010000
00000000
00000000
00000000
00010000
,
00000000
00000000
00000000
10000000
00000000
00000000
00000000
10000000
00000000
00000000
00000000
10000000
,
00000000
00000000
00000000
00010000
00000000
00000000
00000000
00010000
00000000
00000000
00000000
00010000
,
00000000
00000000
00000000
00001000
00000000
00000000
00000000
00001000
00000000
00000000
00000000
00001000
,
00000000
00000000
00000000
00000001
00000000
00000000
00000000
00000001
00000000
00000000
00000000
00000001
,
00000000
00000000
00000000
00001000
00000000
00000000
00000000
00001000
00000000
00000000
00000000
00001000
,
00000000
00000000
00000000
00010000
00000000
00000000
00000000
00010000
00000000
00000000
00000000
00010000
,
00000000
00000000
00000000
10000000
00000000
00000000
00000000
01000000
00000000
00000000
00000000
00010000
,
00000000
00000000
00000000
00010000
00000000
00000000
00000000
01000000
00000000
00000000
00000000
10000000
,
00000000
00000000
00000000
10000000
00000000
00000000
00000000
00100000
00000000
00000000
00000000
00010000
,
00000000
00000000
00000000
00001000
00000000
00000000
00000000
00000010
00000000
00000000
00000000
00000001
,
00000000
00000000
00000000
00000001
00000000
00000000
00000000
00000100
00000000
00000000
00000000
00001000
,
00000000
00000000
00000000
00001000
00000000
00000000
00000000
00000100
00000000
00000000
00000000
00000001
,
00000000
00000000
00000000
00000001
00000000
00000000
00000000
00000010
00000000
00000000
00000000
00001000
,
00000000
00022000
00000000
00000000
,
00033000
02020000
00000000
00000000
,
00000000
00000000
00000000
00000000
,
03030000
00000000
00000000
00000000
;

//--------------- dance-double - KITUNE ----------------
#NOTES:
     dance-double:
     KITUNE:
     Medium:
     14:
     0.737,0.942,0.594,0.157,0.402,504,68,18,0,0,0,0.737,0.942,0.594,0.157,0.402,504,68,18,0,0,0:
00000000
00000000
00000000
00000000
,
00000000
00000000
00000000
00000000
,
00000000
00000000
00000000
00000000
,
00000000
00000000
00000000
00000000
,
00000000
00000000
00000000
00000000
,
00000000
00000000
00000000
00000000
,
00000000
00000000
00000000
00000000
,
00000000
00000000
00000000
00000000
,
00000000
00000000
00000000
00000000
,
00000000
00000000
00000000
00000000
,
00000000
00000000
00000000
00000000
,
00000010
00000001
00000010
00000000
,
00000100
00001000
00000100
00000000
,
00010000
00001000
00010000
00000100
,
00010000
00001000
00100000
00001000
,
01000000
00010000
01000000
00000000
,
00100000
10000000
00100000
00000000
,
10000000
01000000
00100000
01000000
,
10000000
00100000
00020000
00030000
,
00001000
00010000
00000100
00000000
,
00000010
00000001
00001000
00000000
,
00000001
00001000
00000010
00001000
,
00000001
00000100
00001000
00000000
,
00010000
00001000
01000000
00000000
,
00100000
10000000
00010000
00000000
,
10000000
00100000
01000000
00100000
,
10000000
01000000
00010000
00000000
,
00001000
00000100
00000010
00000000
,
00000010
00000100
00001000
00000000
,
00010000
01000000
00100000
00000000
,
00100000
01000000
00010000
00000000
,
00001000
00010000
00001000
00100000
,
00010000
10000000
00010000
00100000
,
00001000
00000000
00000000
00000100
,
00000000
00000000
00000010
00000000
,
00002000
00000000
00003100
00000020
00000000
00001030
00010000
00000000
,
00001000
00010000
00001000
00000000
01000000
00100000
01000000
00000000
,
00020000
00000000
01030000
00200000
00000000
00310000
00001000
00000000
,
00010000
00001000
00010000
00000000
00000100
00000010
00000100
00000000
,
00001002
00000000
00001003
00000200
00000000
00010300
00001000
00000000
,
00100000
00001000
00010000
00000000
00001000
01000000
00010000
00000000
,
10010000
00000000
01000000
01100000
00000000
00100000
00110000
00000000
,
00010000
00011000
00000000
00000000
00010000
00001000
00010000
00000000
,
00000000
00000100
00000000
00000010
,
00000001
00001000
00000001
00000100
,
00001000
00010000
00000000
00100000
,
00010000
00001000
00000010
00001000
,
00010000
00100000
00000000
10000000
,
01000000
10000000
00010000
10000000
,
00100000
00010000
00000000
00001000
,
00000010
00000000
00000001
00001000
00000001
00000000
00000100
00000000
,
00000010
00001000
00000000
00010000
,
01000000
00100000
10000000
01000000
,
00010000
01000000
00000000
10000000
,
00100000
00010000
00001000
00100000
,
00010000
00001000
00000000
00010000
,
00100000
00000000
01000000
00100000
01000000
00000000
00100000
00000000
,
00010000
01000000
00000000
00100000
,
10000000
01000000
00000000
00100000
,
00000000
00010000
00000000
00000000
00000000
00011000
00000000
00000000
00000000
00001000
00000000
00000000
,
00000000
00000100
00000000
00000000
00000000
00000110
00000000
00000000
00000000
00000010
00000000
00000000
,
00000000
00000001
00000000
00000000
00000000
00000101
00000000
00000000
00000000
00000100
00000000
00000000
,
00000000
00001000
00000000
00000000
00000000
00011000
00000000
00000000
00000000
00010000
00000000
00000000
,
00000000
00100000
00000000
00000000
00000000
10100000
00000000
00000000
00000000
10000000
00000000
00000000
,
00000000
01000000
00000000
00000000
00000000
01010000
00000000
00000000
00000000
00010000
00000000
00000000
,
00000000
00001000
00000000
00000000
00000000
00001010
00000000
00000000
00000000
00000010
00000000
00000000
,
00000000
00000100
00000000
00000000
00000000
00000110
00000000
00000000
00000000
00000001
00000000
00000000
,
00000000
00000100
00000000
00000000
00000000
00001000
00000000
00000000
00000000
00010000
00000000
00000000
,
00000000
00100000
00000000
00000000
00000000
10000000
00000000
00000000
00000000
10000000
00000000
00000000
,
00000000
01000000
00000000
00000000
00000000
00010000
00000000
00000000
00000000
00001000
00000000
00000000
,
00000000
00000010
00000000
00000000
00000000
00000001
00000000
00000000
00000000
00000001
00000000
00000000
,
00000000
00000100
00000000
00000000
00000000
00001000
00000000
00000000
00000000
00010000
00000000
00000000
,
00000000
00100000
00000000
00000000
00000000
10000000
00000000
00000000
00000000
10000000
00000000
00000000
,
00000000
01000000
00000000
00000000
00000000
00010000
00000000
00000000
00000000
00001000
00000000
00000000
,
00000010
00000001
00000100
00000020
,
00001000
00000000
00001000
00000230
,
00010000
00000000
00010000
00002300
,
00100000
00000000
00100000
00023000
,
01000000
00000000
00000000
00000000
01030000
00000000
00100000
10000000
,
00100000
00000000
01000000
00010000
01000000
00000000
00001000
00100000
,
00001000
00000000
00010000
00000100
00010000
00000000
00000100
00001000
,
00000010
00000100
00000001
00000010
00000100
00001000
00000010
00000000
,
00010000
00001000
00000000
00001000
00020000
00031000
00000000
00001000
,
00000000
00000100
00000000
00000100
00000020
00001000
00000000
00001030
,
00000000
00000100
00000000
00000100
00000000
00010000
00001000
00000000
,
01000000
00010000
00000000
00000000
00000000
10000000
01000000
00000000
,
00010000
00001000
00000000
00001000
00000000
00001000
00000100
00000000
,
00000010
00001000
00000000
00000000
00000100
00010000
00000000
00000000
,
00010000
00002000
00003000
01000000
,
00000000
00100000
10000000
00010000
,
10000000
01000000
00010000
00001000
,
00000000
00000010
00001000
00010000
,
00100000
00010000
00001000
00000010
,
00000000
00000001
00000100
00000001
,
00001000
00000001
00000010
00001000
,
00000000
00000000
00010000
00000000
00100000
00000000
10000000
00010000
,
10000000
01000000
00100000
00010000
,
00000000
00001000
00000100
00000010
,
00000001
00000100
00001000
00000100
,
00000000
00000001
00000010
00001000
,
00010000
00000010
00001000
00010000
,
00000000
00000000
00001000
00000000
00000010
00000000
00000100
00000010
,
00000100
00000010
00001000
00000100
,
00000000
00000010
00000001
00000100
,
00000000
00001000
00010000
00100000
,
00001000
00010000
00100000
00001000
,
00010000
00100000
00001000
00010000
,
00100000
00000000
01000000
10000000
01000000
00000000
00100000
00000000
,
00001000
00010000
00001000
00000010
,
00010000
00001000
00000010
00010000
,
00001000
00000010
00010000
00001000
,
00000010
00000000
00000100
00000001
00000100
00000000
00000010
00000000
,
00001000
00010000
01000000
10000000
,
00010000
00100000
10000000
00010000
,
00100000
10000000
00010000
01000000
,
10000000
00000000
01000000
00100000
01000000
00000000
00100000
00000000
,
00010000
00001000
00000100
00000001
,
00001000
00000010
00000001
00001000
,
00000010
00000001
00001000
00000100
,
00000001
00000000
00000100
00000010
00000100
00000000
00000010
00000000
,
00001000
00000000
00000000
00000100
00000000
00000000
00000000
00001000
00000000
00000000
00000000
00011000
,
00000000
00000000
00000000
00010000
00000000
00000000
00000000
00100000
00000000
00000000
00000000
01100000
,
00000000
00000000
00000000
01000000
00000000
00000000
00000000
10000000
00000000
00000000
00000000
10100000
,
00000000
00000000
00000000
00100000
00000000
00000000
00000000
00010000
00000000
00000000
00000000
00011000
,
00000000
00000000
00000000
00001000
00000000
00000000
00000000
00000100
00000000
00000000
00000000
00000101
,
00000000
00000000
00000000
00000001
00000000
00000000
00000000
00000010
00000000
00000000
00000000
00001010
,
00000000
00000000
00000000
00001000
00000000
00000000
00000000
00010000
00000000
00000000
00000000
01010000
,
00000000
00000000
00000000
01000000
00000000
00000000
00000000
00100000
00000000
00000000
00000000
01100000
,
00000000
00000000
00000000
10000000
00000000
00000000
00000000
00100000
00000000
00000000
00000000
00010000
,
00000000
00000000
00000000
00001000
00000000
00000000
00000000
00000100
00000000
00000000
00000000
00000001
,
00000000
00000000
00000000
00000001
00000000
00000000
00000000
00000010
00000000
00000000
00000000
00001000
,
00000000
00000000
00000000
00010000
00000000
00000000
00000000
01000000
00000000
00000000
00000000
10000000
,
00000000
00000000
00000000
10000000
00000000
00000000
00000000
00100000
00000000
00000000
00000000
00010000
,
00000000
00000000
00000000
00001000
00000000
00000000
00000000
00000100
00000000
00000000
00000000
00000001
,
00000000
00000000
00000000
00000001
00000000
00000000
00000000
00000010
00000000
00000000
00000000
00001000
,
00000000
00000000
00000000
00010000
00000000
00000000
00000000
01000000
00000000
00000000
00000000
10000000
,
00000000
00000000
00000000
10010000
00000000
00000000
00000000
10010000
00000000
00000000
00000000
10010000
,
00000000
00000000
00000000
00110000
00000000
00000000
00000000
00011000
00000000
00000000
00000000
00001100
,
00000000
00000000
00000000
00001001
00000000
00000000
00000000
00001001
00000000
00000000
00000000
00001001
,
00000000
00000000
00000000
00001010
00000000
00000000
00000000
00011000
00000000
00000000
00000000
01001000
,
00000000
00000000
00000000
01010000
00000000
00000000
00000000
01010000
00000000
00000000
00000000
01010000
,
00000000
00000000
00000000
01100000
00000000
00000000
00000000
00110000
00000000
00000000
00000000
00011000
,
00000000
00000000
00000000
00001100
00000000
00000000
00000000
00001100
00000000
00000000
00000000
00001100
,
00000000
00000000
00000000
00000110
00000000
00000000
00000000
00001010
00000000
00000000
00000000
00011000
,
00000000
00000000
00000000
00110000
00000000
00000000
00000000
00110000
00000000
00000000
00000000
00110000
,
00000000
00000000
00000000
01100000
00000000
00000000
00000000
01010000
00000000
00000000
00000000
00011000
,
00000000
00000000
00000000
00001010
00000000
00000000
00000000
00001010
00000000
00000000
00000000
00001010
,
00000000
00000000
00000000
00000110
00000000
00000000
00000000
00001100
00000000
00000000
00000000
00011000
,
00000000
00000000
00000000
00110000
00000000
00000000
00000000
01010000
00000000
00000000
00000000
10010000
,
00000000
00000000
00000000
01010000
00000000
00000000
00000000
00110000
00000000
00000000
00000000
00011000
,
00000000
00000000
00000000
00001100
00000000
00000000
00000000
00001010
00000000
00000000
00000000
00001001
,
00000000
00002020
00000000
00000000
,
00003030
00002200
00000000
00000000
,
00000000
00000000
00000000
00000000
,
00003300
00000000
00000000
00000000
;

//--------------- dance-double - KITUNE ----------------
#NOTES:
     dance-double:
     KITUNE:
     Hard:
     17:
     0.985,1,1,0.149,0.546,657,115,17,0,0,0,0.985,1,1,0.149,0.546,657,115,17,0,0,0:
00000000
00000000
00000000
00000000
,
00000000
00000000
00000000
00000000
,
00000000
00000000
00000000
00000000
,
00000000
00000000
00000000
00000000
,
00000000
00000000
00000000
00000000
,
00000000
00000000
00000000
00000000
,
00000000
00000000
00000000
00000000
,
00000000
00000000
00000000
00000000
,
00000000
00000000
00000000
00000000
,
00000000
00000000
00000000
00000000
,
00000000
00000000
00000000
00000000
,
01000000
10000000
01000000
10000000
,
00010000
01000000
00001000
00010000
,
00000100
00000010
00000100
00000010
,
00000001
00000100
00000010
00010000
,
00001000
00100000
00010000
00100000
,
00001000
01000000
00001000
00010000
,
00000100
00010000
00001000
00010000
,
01000000
10000000
00020000
00030000
,
01000000
00100000
10000000
00010000
,
10000000
01000000
00010000
00001000
,
00000010
00000001
00001000
00000001
,
00000100
00001000
00010000
01000000
,
00100000
00010000
10000000
00100000
,
00010000
00001000
00100000
01000000
,
00010000
00001000
00000100
00000001
,
00001000
00000010
00002000
00003000
,
00000001
00000010
00000001
00000010
,
00000100
00010000
00000100
00010000
,
00001000
00100000
00001000
00100000
,
00010000
01000000
00010000
01000000
,
00100000
10000000
01000000
00010000
,
01000000
10000000
00100000
00010000
,
00011000
00000000
01000000
01100000
,
00000000
00000100
00000110
00000000
,
00020000
00000000
00031000
00000100
00000001
00000100
00002000
00000000
,
00013000
01000000
00010000
00001000
00100000
00010000
00100000
00000000
,
00001000
00100000
00101000
00000000
00010000
00000010
00010010
00000000
,
00001000
00010000
00100000
10000000
00100000
00010000
00011000
00000000
,
00002000
00000000
00013000
01000000
10000000
01000000
00020000
00000000
,
00031000
00000010
00001000
00010000
00100000
10000000
00010000
00000000
,
10010000
00000000
00100000
00011000
00000000
00000010
00011000
00000000
,
01000000
00011000
00000000
00000010
00011000
00000000
00011000
00000000
,
00000100
00000000
00000001
00000000
00000010
00000000
00000100
00000010
,
00000100
00000000
00010000
00000000
00001000
00000000
00010000
00001000
,
00010000
00000000
01000000
00000000
10000000
00000000
00100000
01000000
,
00100000
00000000
01000000
00000000
00010000
00000000
00100000
01000000
,
00100000
00000000
00001000
00000000
00010000
00000000
00100000
00010000
,
00100000
00000000
00010000
00000000
00001000
00000000
00010000
01000000
,
00010000
00000000
01000000
00000000
10000000
00000000
00010000
00100000
,
00010000
00000000
10000000
01000000
00010000
00000000
00001000
00000000
,
00010000
00001000
00100000
00000000
00010000
00000000
01000000
00100000
,
00010000
00000000
00001000
00000100
00000010
00000000
00001000
00000000
,
00000100
00000010
00000001
00000000
00000100
00000000
00000010
00010000
,
00001000
00000000
01000000
00001000
00010000
00000000
01000000
00000000
,
00010000
00001000
01000000
00000000
00100000
00000000
10000000
00010000
,
01000000
00000000
00100000
00010000
00001000
00000000
00100000
00000000
,
01000000
00100000
00010000
00000000
10000000
00000000
00010000
01000000
,
00100000
10000000
01000000
10100000
,
00000000
11000000
00000000
00000000
00000000
01010000
00000000
00000000
00000000
11000000
00000000
00000000
,
00000000
10100000
00000000
00000000
00000000
00110000
00000000
00000000
00000000
00101000
00000000
00000000
,
00000000
00011000
00000000
00000000
00000000
00101000
00000000
00000000
00000000
00010100
00000000
00000000
,
00000000
00011000
00000000
00000000
00000000
00001100
00000000
00000000
00000000
00000011
00000000
00000000
,
00000000
00000101
00000000
00000000
00000000
00001100
00000000
00000000
00000000
00000101
00000000
00000000
,
00000000
00000011
00000000
00000000
00000000
00001010
00000000
00000000
00000000
00010010
00000000
00000000
,
00000000
00011000
00000000
00000000
00000000
00010010
00000000
00000000
00000000
01001000
00000000
00000000
,
00000000
00011000
00000000
00000000
00000000
01001000
00000000
00000000
00000000
01010000
00000000
00000000
,
00000000
11000000
00000000
00000000
00000000
10100000
00000000
00000000
00000000
00110000
00000000
00000000
,
00000000
00011000
00000000
00000000
00000000
00001010
00000000
00000000
00000000
00000011
00000000
00000000
,
00000000
00000101
00000000
00000000
00000000
00001100
00000000
00000000
00000000
00011000
00000000
00000000
,
00000000
01010000
00000000
00000000
00000000
10100000
00000000
00000000
00000000
01010000
00000000
00000000
,
00000000
00011000
00000000
00000000
00000000
00001100
00000000
00000000
00000000
00000101
00000000
00000000
,
00000000
00000011
00000000
00000000
00000000
00001010
00000000
00000000
00000000
00011000
00000000
00000000
,
00000000
00110000
00000000
00000000
00000000
10100000
00000000
00000000
00000000
10010000
00000000
00000000
,
20000000
32000000
03200000
00320000
,
01000000
00000000
01000000
00032000
,
00100000
00000000
00100000
00003200
,
00010000
00000000
00010000
02000300
,
00001000
00000000
00000000
00000000
00001000
00000000
03100000
10000000
,
00100000
10000000
00100000
01000000
00100000
01000000
00100000
00010000
,
00100000
00000000
00010000
00000000
00001000
00000000
00000010
00000000
00001000
00000000
00000010
00000000
00000001
00000100
00000001
00000100
,
00000010
00010000
00000010
00010000
00001000
01000000
00001000
01000000
00100000
10000000
00100000
10000000
00010000
00000000
00000000
00000000
,
11000000
00110000
00000000
01100000
00011000
00001000
00010000
01000000
,
10000000
00000000
00100000
00000000
00010000
00001000
00010000
00000000
00001000
00000000
00000100
00000000
00000001
00000000
00000010
00000000
,
00001000
00010000
00001000
00000000
00010000
01000000
00100000
00000000
00010000
00000000
00000000
00000000
01000000
00000000
00000000
00000000
,
00100000
00010000
00001000
00000000
00010000
00001000
00000010
00000000
,
00000100
00010000
00001000
00000000
00010000
00100000
00010000
10000000
,
00010000
00000000
00001000
00000000
00010000
00000000
01000000
00000000
00100000
00010000
00100000
00010000
01000000
00100000
01000000
00100000
,
10000000
01000000
00100000
00010000
10000000
00000000
00000000
00000000
01000000
00000000
00000000
00000000
10000000
00000000
00000000
00000000
,
00100000
00000000
01000000
00100000
01000000
00000000
00001000
00000000
,
00010000
00000000
00001000
00010000
00001000
00000000
00000100
00000000
,
00000001
00000000
00000010
00000100
00000010
00000000
00000100
00000000
,
00001000
00000000
00000010
00000100
00000010
00000000
00010000
00000000
,
00001000
00000000
00000010
00001000
00000010
00000000
00001000
00000000
,
00010000
00000000
00001000
00000100
00001000
00000000
00000100
00000000
,
00000001
00000000
00001000
00000010
00001000
00000000
00000001
00000100
,
00001000
00000000
00010000
00000000
00001000
00010000
00000010
00000000
,
00001000
00000000
00000100
00000010
00001000
00000000
00010000
01000000
,
00100000
00000000
00010000
00000000
01000000
00100000
10000000
00000000
,
01000000
00000000
00100000
00001000
00010000
00000000
00000100
00010000
,
00001000
00000000
00000100
00000000
00001000
00010000
00000100
00000000
,
00000010
00000000
00000001
00001000
00000100
00000000
00000010
00001000
,
00010000
00000000
00000010
00000000
00000100
00000010
00001000
00000000
,
00000001
00000000
00001000
00000100
00000010
00000000
00000001
00000000
,
00000100
00000000
00000010
00000000
00000100
00000001
00001000
00000000
,
00000100
00000000
00000010
00000001
00000100
00000000
00001000
00000000
,
00010000
00000000
00100000
10000000
00010000
00000000
00100000
00000000
,
10000000
00000000
00100000
00010000
01000000
00000000
00100000
10000000
,
01000000
00000000
00100000
00000000
01000000
10000000
00010000
00000000
,
01000000
00000000
00100000
10000000
01000000
00000000
00010000
00000000
,
00001000
00000000
00000010
00000001
00001000
00000000
00000010
00000000
,
00000001
00000000
00000010
00001000
00000100
00000000
00000010
00000001
,
00000100
00000000
00000010
00000001
00000010
00000000
00010000
00000000
,
00001000
00000000
00100000
10000000
00100000
00000000
00001000
00000000
,
00010000
00000000
00000100
00000010
00001000
00000000
00010000
00000000
,
01000000
00000000
10000000
00100000
01000000
00000000
00010000
00100000
,
01000000
00000000
00100000
10000000
00100000
00000000
00001000
00000000
,
00010000
00000000
00000010
00000001
00000010
00000000
00010000
00000000
,
00001000
00000000
01000000
00100000
00010000
00000000
00001000
00000000
,
00000100
00000000
00000001
00000010
00000100
00000000
00001000
00000010
,
00000100
00000000
00000000
00000101
00000000
00000000
00000000
00000011
00000000
00000000
00000000
00001010
,
00000000
00000000
00000000
00000011
00000000
00000000
00000000
00000101
00000000
00000000
00000000
00001100
,
00000000
00000000
00000000
00010100
00000000
00000000
00000000
00011000
00000000
00000000
00000000
00010100
,
00000000
00000000
00000000
00101000
00000000
00000000
00000000
00011000
00000000
00000000
00000000
00110000
,
00000000
00000000
00000000
11000000
00000000
00000000
00000000
10100000
00000000
00000000
00000000
00110000
,
00000000
00000000
00000000
10100000
00000000
00000000
00000000
11000000
00000000
00000000
00000000
01010000
,
00000000
00000000
00000000
01001000
00000000
00000000
00000000
00011000
00000000
00000000
00000000
01001000
,
00000000
00000000
00000000
00010010
00000000
00000000
00000000
00011000
00000000
00000000
00000000
00010010
,
00000000
00000000
00000000
00001010
00000000
00000000
00000000
00000011
00000000
00000000
00000000
00000101
,
00000000
00000000
00000000
00001100
00000000
00000000
00000000
00011000
00000000
00000000
00000000
01010000
,
00000000
00000000
00000000
11000000
00000000
00000000
00000000
10100000
00000000
00000000
00000000
00110000
,
00000000
00000000
00000000
00011000
00000000
00000000
00000000
00001010
00000000
00000000
00000000
00000101
,
00000000
00000000
00000000
00001010
00000000
00000000
00000000
00011000
00000000
00000000
00000000
00110000
,
00000000
00000000
00000000
10100000
00000000
00000000
00000000
11000000
00000000
00000000
00000000
01010000
,
00000000
00000000
00000000
00011000
00000000
00000000
00000000
00001100
00000000
00000000
00000000
00000101
,
00000000
00000000
00000000
00000011
00000000
00000000
00000000
00001010
00000000
00000000
00000000
00011000
,
00000000
00000000
00000000
00010000
00000000
00001000
00000000
00000100
00000000
00000001
00000000
00000010
,
00000000
00001000
00000000
00010000
00000000
00000000
00000000
00001000
00000000
00010000
00000000
01000000
,
00000000
10000000
00000000
00100000
00000000
00010000
00000000
00001000
00000000
00000010
00000000
00000001
,
00000000
00000000
00000000
00000010
00000000
00001000
00000000
00010000
00000000
00000000
00000000
00100000
,
00000000
00000000
00000000
10000000
00000000
00100000
00000000
00010000
00000000
00000000
00000000
00001010
,
00000000
00000000
00000000
00000001
00000000
00000010
00000000
00001000
00000000
00000000
00000000
00110000
,
00000000
00000000
00000000
00001000
00000000
00000100
00000000
00000001
00000000
00000100
00000000
00001000
,
00000000
00010000
00000000
01000000
00000000
10000000
00000000
01000000
00000000
00000000
00000000
01010000
,
00000000
00000000
00000000
00001000
00000000
00000100
00000000
00000010
00000000
00010000
00000000
00001000
,
00000000
00000000
00000000
00000010
00000000
00000000
00000000
00001000
00000000
00010000
00000000
01000000
,
00000000
00000000
00000000
10000000
00000000
00000000
00000000
00100000
00000000
00010000
00000000
00001000
,
00000000
00000000
00000000
00100000
00000000
00000000
00000000
00010000
00000000
00001000
00000000
00000100
,
00000000
00010000
00000000
00001000
00000000
00000100
00000000
00010000
00000000
00001000
00000000
00010000
,
00000000
01000000
00000000
00100000
00000000
00010000
00000000
00001000
00000000
00010000
00000000
01000000
,
00000000
00100000
00000000
00001000
00000000
00000000
00000000
00010000
00000000
00000000
00000000
00000100
,
00000000
00002002
00000000
00000000
,
00003003
00000220
00000000
00000000
,
00000000
00000000
00000000
00000000
,
00000330
00000000
00000000
00000000
;

//--------------- dance-double - KITUNE ----------------
#NOTES:
     dance-double:
     KITUNE:
     Challenge:
     19:
     1,1,1,0.122,0.686,745,121,14,0,0,0,1,1,1,0.122,0.686,745,121,14,0,0,0:
00000000
00000000
00000000
00000000
,
00000000
00000000
00000000
00000000
,
00000000
00000000
00000000
00000000
,
00000000
00000000
00000000
00000000
,
00000000
00000000
00000000
00000000
,
00000000
00000000
00000000
00000000
,
00000000
00000000
00000000
00000000
,
00000000
00000000
00000000
00000000
,
00000000
00000000
00000000
00000000
,
00000000
00000000
00000000
00000000
,
00000000
00000000
00000000
00000000
,
00001000
00000100
00000001
00000010
,
00001000
00100000
00010000
01000000
,
00100000
10000000
00010000
10000000
,
01000000
00100000
00010000
00001000
,
00000100
00010000
00001000
00100000
,
00001000
00010000
00000100
00001000
,
00000010
00000100
00000001
00000100
,
00000010
00000000
00000000
00010000
00100000
00000000
01000000
00000000
,
00010000
01000000
00100000
10000000
,
00010000
00100000
01000000
10000000
,
00010000
01000000
00100000
00010000
,
00001000
00000010
00000001
00001000
,
00000100
00010000
00001000
01000000
,
00010000
01000000
00100000
00010000
,
00001000
00010000
00000100
00000010
,
00000001
00001000
00000100
00001000
,
00000001
00000100
00001000
00010000
,
00001000
00100000
01000000
00100000
,
00001000
00010000
00001000
00000100
,
00000001
00001000
00000100
00010000
,
00001000
00100000
00010000
01000000
00100000
10000000
00100000
01000000
,
00010000
00100000
00001000
00010000
00000100
00001000
00000100
00000000
,
00000110
00000000
00001000
00011000
,
00000000
01000000
01100000
00000000
,
00012000
00000000
00003000
00020000
00000000
00130000
01000000
00001000
,
00010000
01000000
00100000
00010000
00001000
00000100
00002000
00003000
,
00000010
00010000
00011000
00000000
00100000
00001000
00011000
00000000
,
00010000
00001000
00000100
00000001
00001000
00000100
00000020
00000030
,
00000201
00000000
00001300
00020000
00000000
00031000
00000010
00000100
,
00001000
00010000
00100000
01000000
00010000
00001000
00020000
00030000
,
00011000
00000000
00001000
00110000
00000000
00010000
00001010
00000000
,
00010000
00001000
00010000
00000100
00001000
00000001
00001000
00000010
00000100
00000001
00001000
00000100
00000010
00000000
00000000
00000000
,
00000001
00000000
00000100
00000000
00001000
00000000
01000000
00100000
,
01000000
00000000
00010000
00000000
10000000
00000000
00010000
10000000
,
01000000
00000000
00100000
00000000
00010000
00000000
00000010
00000100
,
00000010
00000000
00000001
00000000
00000100
00000000
00000010
00000001
,
00000010
00000000
00010000
00000000
00001000
00000000
00100000
10000000
,
00100000
00000000
00001000
00000000
00010000
00000000
00100000
10000000
,
00100000
00000000
00010000
00000000
00001000
00000000
00000010
00000001
,
00000010
00000001
00001000
00000100
00001000
00000100
00000010
00000000
,
00000001
00001000
00000100
00000000
00010000
00000000
00001000
00100000
,
00010000
00000000
01000000
00100000
10000000
00000000
00100000
00000000
,
01000000
00001000
00010000
00000000
00001000
00000000
00010000
00001000
,
01000000
00000000
00100000
10000000
00010000
00000000
10000000
00000000
,
00010000
10000000
01000000
00000000
00100000
00000000
00001000
00010000
,
00000100
00000000
00010000
00001000
00000100
00000000
00000010
00000000
,
00000100
00000001
00001000
00000000
00000010
00000000
00001000
00000100
,
00000010
00000000
00000001
00000100
00000010
00000000
00000110
00000000
,
00000000
00010010
00000000
00000000
00000000
00011000
00000000
00000000
00000000
01010000
00000000
00000000
,
00000000
01100000
00000000
00000000
00000000
10100000
00000000
00000000
00000000
11000000
00000000
00000000
,
00000000
01100000
00000000
00000000
00000000
00101000
00000000
00000000
00000000
00011000
00000000
00000000
,
00000000
00001100
00000000
00000000
00000000
00000011
00000000
00000000
00000000
00001001
00000000
00000000
,
00000000
00001100
00000000
00000000
00000000
00011000
00000000
00000000
00000000
00110000
00000000
00000000
,
00000000
10010000
00000000
00000000
00000000
10100000
00000000
00000000
00000000
00110000
00000000
00000000
,
00000000
10100000
00000000
00000000
00000000
01010000
00000000
00000000
00000000
00101000
00000000
00000000
,
00000000
00010100
00000000
00000000
00000000
00001010
00000000
00000000
00000000
00000011
00000000
00000000
,
00000000
00001010
00000000
00000000
00000000
00011000
00000000
00000000
00000000
01010000
00000000
00000000
,
00000000
11000000
00000000
00000000
00000000
10100000
00000000
00000000
00000000
00110000
00000000
00000000
,
00000000
00011000
00000000
00000000
00000000
00001010
00000000
00000000
00000000
00000011
00000000
00000000
,
00000000
00001001
00000000
00000000
00000000
00001100
00000000
00000000
00000000
00110000
00000000
00000000
,
00000000
10010000
00000000
00000000
00000000
01010000
00000000
00000000
00000000
00001010
00000000
00000000
,
00000000
00001001
00000000
00000000
00000000
00001100
00000000
00000000
00000000
01010000
00000000
00000000
,
00000000
01100000
00000000
00000000
00000000
10100000
00000000
00000000
00000000
10010000
00000000
00000000
,
01000000
00010000
02000000
23000000
,
00010000
00000000
00010000
32000000
,
00100000
00000000
00100000
03020000
,
00001000
00000000
00001000
00030200
,
00000010
00000000
00000000
00000000
00000010
00000000
00000301
00000100
,
00001000
00010000
00001000
00000100
00000001
00000100
00001000
00010000
,
01000000
00000000
10000000
00000000
01000000
00000000
00010000
00000000
00001000
00000000
00010000
00000000
01000000
10000000
00100000
01000000
,
00010000
00100000
00001000
00010000
00000100
00001000
00000010
00000100
00000001
00001000
00000010
00000100
00000010
00000000
00000000
00000000
,
00000110
00000000
00001100
00000000
00000000
00000000
00011000
00000000
01010000
00000000
00100000
00000000
00001000
00010000
00011000
00000000
,
00001000
00000000
00000000
00000000
00001100
00000000
00000000
00000000
00000010
00000000
00010000
00000000
00000100
00000000
00010000
00000000
00001000
01000000
00100000
00000000
10000000
00000000
00100000
01000000
00001000
00000000
00010000
00000000
00001000
00000000
00000000
00000000
,
00010000
00000100
00000010
00000000
00000001
00000000
00000010
00000100
00010000
00000000
00001000
00000000
00010000
00000000
00000000
00000000
00001000
00000000
00100000
00000000
00010000
00000000
00000000
00000000
01000000
00000000
00000000
00000000
00100000
00000000
10000000
00000000
,
00100000
00000000
01000000
00000000
00001000
00000000
00000000
00000000
00010000
00000010
00001000
00000000
00000100
00000000
00000010
00000001
,
00000010
00000000
00001000
00000000
00010000
00000000
00000000
00000000
00001000
00000010
00000100
00000000
00010000
00000000
00001000
01000000
,
00100000
00000000
01000000
00000000
00100000
00000000
10000000
00000000
00010000
00100000
01000000
00100000
01000000
10000000
00100000
01000000
,
00100000
01000000
00010000
00100000
02000000
00000000
03000000
00000000
10000000
00000000
00000000
00000000
01000000
00000000
00000000
00000000
,
00010000
00000000
00000100
00000010
00000100
00000000
00001000
00000000
,
00000001
00000000
00001000
00000001
00000100
00000000
00000010
00000000
,
00001000
00000000
00100000
01000000
00100000
00000000
10000000
00000000
,
01000000
00000000
00100000
10000000
00100000
00000000
00001000
00000000
,
00010000
00000000
00000010
00000001
00000010
00000000
00010000
00000000
,
00001000
00000000
00000010
00000001
00000010
00000000
00001000
00000000
,
00010000
00000000
00100000
10000000
00100000
10000000
00010000
01000000
,
00010000
01000000
00100000
00000000
10000000
00010000
00100000
00000000
,
00001000
00000000
00010000
00000100
00001000
00000000
00000010
00000100
,
00000001
00000000
00000100
00000000
00000010
00010000
00001000
00000000
,
00010000
00000000
00001000
00010000
00000010
00000000
00000100
00000001
,
00001000
00000000
00000001
00000000
00001000
00000001
00000010
00000000
,
00000100
00000000
00010000
00001000
00100000
00000000
00001000
00010000
,
01000000
00000000
00100000
00000000
01000000
10000000
00010000
00000000
,
01000000
00000000
00010000
01000000
00100000
00000000
10000000
01000000
,
00100000
00000000
00010000
01000000
10000000
01000000
00010000
00000000
,
10000000
00000000
00010000
00100000
10000000
00100000
00010000
00000000
,
10000000
00000000
00010000
01000000
10000000
01000000
00010000
00000000
,
10000000
00000000
00010000
00001000
00010000
00000000
00001000
00000100
,
00000010
00000001
00001000
00000010
00000001
00000010
00001000
00000000
,
00000001
00000000
00001000
00000100
00000001
00000100
00001000
00000000
,
00000001
00000000
00001000
00000010
00000001
00000010
00001000
00000000
,
00000001
00000000
00001000
00010000
00001000
00000000
00010000
01000000
,
00100000
00000000
01000000
00010000
00100000
00010000
01000000
00010000
,
00100000
00010000
00001000
00000100
00000010
00000100
00001000
00000100
,
00000010
00000100
00010000
01000000
00100000
01000000
00010000
01000000
,
00100000
01000000
00001000
00000010
00000100
00000010
00001000
00000010
,
00000100
00000001
00000010
00000100
00000010
00000100
00001000
00000001
,
00000100
00001000
00010000
01000000
10000000
00010000
00100000
01000000
,
00100000
01000000
10000000
00010000
10000000
00100000
00010000
00001000
,
00000010
00000001
00001000
00000010
00000100
00000001
00001000
00000010
,
00000100
00000000
00000000
00000010
00000000
00000000
00000110
00000000
00000000
00000000
00000000
00000000
00000000
00000000
00010010
00000000
00000000
00000000
00000000
00000000
00000000
00000000
00011000
00000000
,
00000000
00000000
00000000
01010000
00000000
00000000
00000000
01100000
00000000
00000000
00000000
10100000
,
00000000
00000000
00000000
11000000
00000000
00000000
00000000
01100000
00000000
00000000
00000000
00101000
,
00000000
00000000
00000000
00011000
00000000
00000000
00000000
00001100
00000000
00000000
00000000
00000011
,
00000000
00000000
00000000
00001001
00000000
00000000
00000000
00001100
00000000
00000000
00000000
00011000
,
00000000
00000000
00000000
00110000
00000000
00000000
00000000
10010000
00000000
00000000
00000000
10100000
,
00000000
00000000
00000000
00110000
00000000
00000000
00000000
10100000
00000000
00000000
00000000
01010000
,
00000000
00000000
00000000
00101000
00000000
00000000
00000000
00010100
00000000
00000000
00000000
00001010
,
00000000
00000000
00000000
00000011
00000000
00000000
00000000
00001010
00000000
00000000
00000000
00011000
,
00000000
00000000
00000000
01010000
00000000
00000000
00000000
11000000
00000000
00000000
00000000
10100000
,
00000000
00000000
00000000
00110000
00000000
00000000
00000000
00011000
00000000
00000000
00000000
00001010
,
00000000
00000000
00000000
00000011
00000000
00000000
00000000
00001001
00000000
00000000
00000000
00001100
,
00000000
00000000
00000000
00110000
00000000
00000000
00000000
10010000
00000000
00000000
00000000
01010000
,
00000000
00000000
00000000
00001010
00000000
00000000
00000000
00001001
00000000
00000000
00000000
00001100
,
00000000
00000000
00000000
01010000
00000000
00000000
00000000
01100000
00000000
00000000
00000000
10100000
,
00000000
00000000
00000000
10010000
00000000
00000000
00000000
00110000
00000000
00000000
00000000
00001100
,
00000000
00000000
00000000
00011000
00000000
00010000
00000000
01000000
00000000
10000000
00000000
00100000
,
00000000
00010000
00000000
00011000
00000000
00000000
00000000
00011000
00000000
00001000
00000000
00000100
,
00000000
00000001
00000000
00000010
00000000
00001000
00000000
00010000
00000000
00100000
00000000
10000000
,
00000000
00100000
00000000
00010000
00000000
00001000
00000000
00001010
00000000
00000000
00000000
00000110
,
00000000
00000000
00000000
00011000
00000000
00001000
00000000
00000100
00000000
00000001
00000000
00000100
,
00000000
00001000
00000000
00010000
00000000
01000000
00000000
10000000
00000000
00100000
00000000
00110000
,
00000000
00000000
00000000
00011000
00000000
00010000
00000000
00100000
00000000
10000000
00000000
01000000
,
00000000
00010000
00000000
00001000
00000000
00000010
00000000
00001010
00000000
00000000
00000000
00011000
,
00000000
00000000
00000000
00001000
00000000
00100000
00000000
10000000
00000000
00100000
00000000
00001000
,
00000000
00100000
00000000
00010000
00000000
00000010
00000000
00000001
00000000
00000010
00000000
00010000
,
00000000
00000010
00000000
00001000
00000000
01000000
00000000
10000000
00000000
01000000
00000000
00001000
,
00000000
01000000
00000000
00010000
00000000
00000100
00000000
00000001
00000000
00000100
00000000
00010000
,
00000000
00000100
00000000
00001000
00000000
00100000
00000000
00001000
00000000
00000001
00000000
00001000
,
00000000
00100000
00000000
00010000
00000000
00000010
00000000
00010000
00000000
10000000
00000000
00010000
,
00000000
00001000
00000000
00000001
00000000
00001000
00000000
10000000
00000000
00001000
00000000
00000001
,
00000000
00000000
00010000
00000000
00000000
00000000
00011000
00000000
00000000
00000000
00000000
00000000
00100000
00000000
00000000
00000000
00000000
00000000
01000000
00000000
00000000
00010000
00000000
00000000
,
01000000
00010000
00002000
00000000
00000000
00000000
00000000
00000000
,
00000000
00000000
00000000
00000000
,
00003000
00000000
00000000
00000000
;
