#TITLE:Ninja Re Bang Bang;
#SUBTITLE:(lolicore);
#ARTIST:Guryona;
#TITLETRANSLIT:;
#SUBTITLETRANSLIT:;
#ARTISTTRANSLIT:;
#GENRE:;
#CREDIT:NAOKI;
#MUSIC:Ninja_Re_GangBang.ogg;
#BANNER:Ninja-Re-Bang-Bang-lolicore-bn.png;
#BACKGROUND:Ninja-Re-Bang-Bang-lolicore-bg.png;
#CDTITLE:naokicdtitle.png;
#SAMPLESTART:49.479000;
#SAMPLELENGTH:17.087000;
#SELECTABLE:YES;
#OFFSET:-0.044000;
#BPMS:0.000000=230.000000;
#STOPS:;
#BGCHANGES:;
#FGCHANGES:;

//--------------- dance-single - 8ths BU ----------------
#NOTES:
     dance-single:
     8ths BU:
     Easy:
     13:
     0,0,0,0,0:
0000
0000
0000
0000
,
0000
0000
0000
0000
,
0000
0000
0000
0000
,
0000
0000
0000
0000
,
0000
0000
0000
0000
,
0000
0000
1000
0001
,
0200
0000
0000
0000
,
0310
0000
0000
0000
,
1000
0000
0010
0000
0100
0000
0001
0000
1000
0000
0100
0010
0001
0000
1000
0000
,
0010
0000
1000
0000
0001
0000
0010
0000
0100
0000
1000
0001
0100
0000
0010
0000
,
2000
3000
0000
0000
0000
0000
0000
0000
0100
0000
0000
0000
0000
0000
0000
0000
2000
3000
0000
0000
0000
0000
0000
0000
0001
0000
0000
0000
0000
0000
0000
0000
2000
3000
0000
0000
0000
0000
0000
0000
0010
0000
0000
0000
0000
0000
0000
0000
0100
0000
0000
0000
0001
0000
0000
0000
1000
0000
0000
0000
0000
0000
0000
0000
,
0001
0010
0100
1000
0020
0130
0001
1000
,
0001
0000
0010
0000
0100
0000
1000
0000
0001
0000
0100
0010
1000
0000
0001
0000
,
0010
0000
0001
0000
1000
0000
0010
0000
0100
0000
0001
1000
0100
0000
0010
0000
,
0002
0003
0000
0000
0000
0000
0000
0000
0100
0000
0000
0000
0000
0000
0000
0000
0002
0003
0000
0000
0000
0000
0000
0000
1000
0000
0000
0000
0000
0000
0000
0000
0002
0003
0000
0000
0000
0000
0000
0000
0010
0000
0000
0000
0000
0000
0000
0000
0100
0000
0000
0000
1000
0000
0000
0000
0001
0000
0000
0000
0000
0000
0000
0000
,
1000
0000
0010
0000
0100
0000
0001
0000
0020
0000
0130
0000
2000
0000
0000
3000
,
0001
0000
0100
0000
0010
0000
1000
0000
0001
0000
0010
0100
1000
0000
0001
0000
,
0100
0000
0001
0000
1000
0000
0100
0000
0010
0000
0001
1000
0010
0000
0100
0000
,
0002
0003
0000
0000
0000
0000
0000
0000
0010
0000
0000
0000
0000
0000
0000
0000
0002
0003
0000
0000
0000
0000
0000
0000
1000
0000
0000
0000
0000
0000
0000
0000
0002
0003
0000
0000
0000
0000
0000
0000
0100
0000
0000
0000
0000
0000
0000
0000
0010
0000
0000
0000
1000
0000
0000
0000
0001
0000
0000
0000
0000
0000
0000
0000
,
1000
0100
0010
0001
0200
0310
1000
0001
,
1000
0000
0100
0000
0010
0000
0001
0000
1000
0000
0010
0100
0001
0000
1000
0000
,
0100
0000
1000
0000
0001
0000
0100
0000
0010
0000
1000
0001
0010
0000
0100
0000
,
2000
3000
0000
0000
0000
0000
0000
0000
0010
0000
0000
0000
0000
0000
0000
0000
2000
3000
0000
0000
0000
0000
0000
0000
0001
0000
0000
0000
0000
0000
0000
0000
2000
3000
0000
0000
0000
0000
0000
0000
0100
0000
0000
0000
0000
0000
0000
0000
0010
0000
0000
0000
0001
0000
0000
0000
1000
0000
0000
0000
0000
0000
0000
0000
,
0001
0000
0000
0000
0000
0000
0000
0000
0100
0000
0000
0000
0000
0000
0000
0000
0010
0000
0000
0000
0000
0000
0000
0000
1000
0000
0000
0000
0000
0000
0000
0000
0002
0000
0000
0000
0000
0000
0000
0000
1003
0000
0000
0000
0000
0000
0000
0000
0200
0300
0000
0000
0000
0000
0000
0000
0020
0030
0000
0000
0000
0000
0000
0000
,
0001
0000
0100
0000
0010
1000
0001
1000
0010
0000
1000
0001
0020
0030
0100
1000
,
0001
0000
0100
0000
0001
1000
0100
1000
0001
0000
0200
0000
0310
0000
1000
0001
,
0010
0000
0100
0000
1000
0001
0100
0001
1000
0000
0100
0000
0010
0000
0001
1000
,
0001
0000
0000
0000
0000
0000
0000
0000
0100
0000
0000
0000
0000
0000
0000
0000
0010
0000
0000
0000
1000
0000
0000
0000
0001
0000
0000
0000
1000
0000
0000
0000
0100
0000
0000
0000
0000
0000
0000
0000
1000
0000
0000
0000
0001
0000
0000
0000
0200
0300
0000
0000
0000
0000
0000
0000
0020
0030
0000
0000
0000
0000
0000
0000
,
1000
0000
0100
0000
0010
0001
1000
0001
0010
0000
0001
1000
0020
0030
0100
0001
,
1000
0000
0100
0000
1000
0001
0100
0001
1000
0000
0100
0000
0010
0000
0001
1000
,
0010
0000
0100
0000
0001
1000
0100
1000
0001
0000
0100
0000
0010
0000
1000
0001
,
0010
0000
0001
0000
0100
0001
1000
0001
0400
0000
0000
0300
0010
0000
0000
0000
,
1000
0100
1000
0001
1000
0010
0100
0001
,
0010
0001
1000
0001
0100
0010
1000
0001
,
0010
0001
1000
0001
0100
0010
1000
0001
,
0010
0100
0010
0001
1000
0010
0100
0010
,
1000
0001
1000
0100
0010
0001
1000
0001
,
0100
0010
0100
0001
1000
0100
0010
0100
,
1000
0001
1000
0010
0100
0001
1000
0001
,
0010
0100
1000
0001
0100
0010
0100
0001
,
1000
0100
0010
0000
0001
1000
0010
0000
0100
0001
1000
0000
0001
0010
0001
0000
,
1000
0010
0100
0000
0001
1000
0100
0000
0010
0001
1000
0000
0001
0100
0001
0000
,
1000
0100
1000
0000
0001
0100
0010
0000
1000
0100
0010
0000
0001
1000
0001
0000
,
1000
0010
1000
0000
0001
0010
0001
0000
1000
0010
1000
0000
0001
0010
0001
0000
,
1000
0010
0100
0001
1000
0000
0010
0000
1000
0100
1000
0001
1000
0010
0100
0000
,
0001
0010
0100
1000
0001
0000
0100
0000
0001
0010
0001
1000
0001
0100
0010
0000
,
1000
0000
0100
0000
0010
0000
0001
0000
1000
0010
0100
0001
1000
0100
1000
0001
,
0100
0000
0010
0000
0000
0000
1000
0000
0002
0003
0020
0030
0200
0300
2000
3000
,
0001
0000
0100
0000
0010
0000
1000
0000
0001
0000
0010
0100
1000
0000
0001
0000
,
0100
0000
0001
0000
1000
0000
0100
0000
0010
0000
0001
1000
0010
0000
0100
0000
,
0002
0003
0000
0000
0000
0000
0000
0000
0010
0000
0000
0000
0000
0000
0000
0000
0002
0003
0000
0000
0000
0000
0000
0000
1000
0000
0000
0000
0000
0000
0000
0000
0002
0003
0000
0000
0000
0000
0000
0000
0100
0000
0000
0000
0000
0000
0000
0000
0010
0000
0000
0000
1000
0000
0000
0000
0001
0000
0000
0000
0000
0000
0000
0000
,
1000
0100
0010
0001
0200
0310
1000
0001
,
1000
0000
0100
0000
0010
0000
0001
0000
1000
0000
0010
0100
0001
0000
1000
0000
,
0100
0000
1000
0000
0001
0000
0100
0000
0010
0000
1000
0001
0010
0000
0100
0000
,
2000
3000
0000
0000
0000
0000
0000
0000
0010
0000
0000
0000
0000
0000
0000
0000
2000
3000
0000
0000
0000
0000
0000
0000
0001
0000
0000
0000
0000
0000
0000
0000
2000
3000
0000
0000
0000
0000
0000
0000
0100
0000
0000
0000
0000
0000
0000
0000
0010
0000
0000
0000
0001
0000
0000
0000
1000
0000
0000
0000
0000
0000
0000
0000
,
0001
0000
0100
0000
0010
0000
1000
0000
0200
0000
0310
0000
0002
0000
0000
0003
,
1000
0000
0010
0000
0100
0000
0001
0000
0010
0001
1000
0010
1000
0001
0010
0000
,
0001
0000
0100
0000
0010
0000
1000
0000
0100
1000
0001
0100
0001
1000
0100
1000
,
0001
0000
0001
0000
1000
0000
1000
0000
0100
0000
0000
0010
0000
0000
0001
0000
,
1000
0000
0010
0000
0100
0000
0001
0000
0020
0000
0130
1000
0001
1000
0001
1000
,
0001
0000
0100
0000
0010
0000
1000
0000
0001
0000
0010
0100
1000
0000
0001
0000
,
0100
0000
0001
0000
1000
0000
0100
0000
0010
0000
0001
1000
0010
0000
0100
0000
,
0002
0003
0000
0000
0000
0000
0000
0000
0010
0000
0000
0000
0000
0000
0000
0000
0002
0003
0000
0000
0000
0000
0000
0000
1000
0000
0000
0000
0000
0000
0000
0000
0002
0003
0000
0000
0000
0000
0000
0000
0100
0000
0000
0000
0000
0000
0000
0000
0010
0000
0000
0000
1000
0000
0000
0000
0001
0000
0000
0000
0000
0000
0000
0000
,
1000
0000
0000
0000
0000
0000
0000
0000
0100
0000
0000
0000
0000
0000
0000
0000
0010
0000
0000
0000
0000
0000
0000
0000
0001
0000
0000
0000
0000
0000
0000
0000
0200
0000
0000
0000
0000
0000
0000
0000
0301
0000
0000
0000
0000
0000
0000
0000
0020
0030
0000
0000
0000
0000
0000
0000
0200
0300
0000
0000
0000
0000
0000
0000
,
1000
0000
0001
0000
1000
0000
0010
0000
0100
0000
0001
1000
0100
0000
0010
0000
,
0001
0000
1000
0000
0001
0000
0100
0000
0010
0000
1000
0001
0010
0000
0100
0000
,
1000
0001
1000
0010
1000
0001
0010
0001
,
1000
0000
0010
0000
0100
0000
0001
0000
0010
0000
0001
1000
0010
0000
0100
0000
,
0001
0000
1000
0000
0001
0000
0010
0000
0100
0000
1000
0001
0100
0000
0010
0000
,
1000
0000
0001
0000
1000
0000
0100
0000
0010
0000
0001
1000
0010
0000
0100
0000
,
0001
1000
0001
0010
0001
1000
0010
1000
,
0001
0010
0100
1000
0001
0100
0000
0000
,
0001
0000
0010
0000
0100
0000
1000
0000
0001
0000
0100
0010
1000
0000
0001
0000
,
0010
0000
0001
0000
1000
0000
0010
0000
0100
0000
0001
1000
0100
0000
0010
0000
,
0002
0003
0000
0000
0000
0000
0000
0000
0100
0000
0000
0000
0000
0000
0000
0000
0002
0003
0000
0000
0000
0000
0000
0000
1000
0000
0000
0000
0000
0000
0000
0000
0002
0003
0000
0000
0000
0000
0000
0000
0010
0000
0000
0000
0000
0000
0000
0000
0100
0000
0000
0000
1000
0000
0000
0000
0001
0000
0000
0000
0000
0000
0000
0000
,
1000
0010
0100
0001
0020
0130
1000
0001
,
1000
0000
0010
0000
0100
0000
0001
0000
1000
0000
0100
0010
0001
0000
1000
0000
,
0010
0000
1000
0000
0001
0000
0010
0000
0100
0000
1000
0001
0100
0000
0010
0000
,
2000
3000
0000
0000
0000
0000
0000
0000
0100
0000
0000
0000
0000
0000
0000
0000
2000
3000
0000
0000
0000
0000
0000
0000
0001
0000
0000
0000
0000
0000
0000
0000
2000
3000
0000
0000
0000
0000
0000
0000
0010
0000
0000
0000
0000
0000
0000
0000
0100
0000
0000
0000
0001
0000
0000
0000
1000
0000
0000
0000
0000
0000
0000
0000
,
0001
0000
0010
0000
0100
0000
1000
0000
0020
0000
0130
0000
0002
0000
0000
0003
,
1000
0000
0100
0000
0010
0000
0001
0000
1000
0000
0010
0100
0001
0000
1000
0000
,
0100
0000
1000
0000
0001
0000
0100
0000
0010
0000
1000
0001
0010
0000
0100
0000
,
2000
3000
0000
0000
0000
0000
0000
0000
0010
0000
0000
0000
0000
0000
0000
0000
2000
3000
0000
0000
0000
0000
0000
0000
0001
0000
0000
0000
0000
0000
0000
0000
2000
3000
0000
0000
0000
0000
0000
0000
0100
0000
0000
0000
0000
0000
0000
0000
0010
0000
0000
0000
0001
0000
0000
0000
1000
0000
0000
0000
0000
0000
0000
0000
,
0001
0100
0010
1000
0200
0310
0001
1000
,
0001
0000
0100
0000
0010
0000
1000
0000
0001
0000
0010
0100
1000
0000
0001
0000
,
0100
0000
0001
0000
1000
0000
0100
0000
0010
0000
0001
1000
0010
0000
0100
0000
,
0002
0003
0000
0000
0000
0000
0000
0000
0010
0000
0000
0000
0000
0000
0000
0000
0002
0003
0000
0000
0000
0000
0000
0000
1000
0000
0000
0000
0000
0000
0000
0000
0002
0003
0000
0000
0000
0000
0000
0000
0100
0000
0000
0000
0000
0000
0000
0000
0010
0000
0000
0000
1000
0000
0000
0000
0001
0000
0000
0000
0000
0000
0000
0000
,
1000
0000
0000
0000
0000
0000
0000
0000
0100
0000
0000
0000
0000
0000
0000
0000
0010
0000
0000
0000
0000
0000
0000
0000
0001
0000
0000
0000
0000
0000
0000
0000
2000
0000
0000
0000
0000
0000
0000
0000
3001
0000
0000
0000
0000
0000
0000
0000
0200
0300
0000
0000
0000
0000
0000
0000
0020
0030
0000
0000
0000
0000
0000
0000
,
1000
0000
0100
0000
0010
0001
1000
0001
0010
0000
0001
1000
0020
0030
0100
0001
,
1000
0000
0100
0000
1000
0001
0100
0001
1000
0000
0200
0000
0310
0000
0001
1000
,
0010
0000
0100
0000
0001
1000
0100
1000
0001
0000
0100
0000
0010
0000
1000
0001
,
1000
0000
0000
0000
0000
0000
0000
0000
0100
0000
0000
0000
0000
0000
0000
0000
0010
0000
0000
0000
0001
0000
0000
0000
1000
0000
0000
0000
0001
0000
0000
0000
0100
0000
0000
0000
0000
0000
0000
0000
0001
0000
0000
0000
1000
0000
0000
0000
0200
0300
0000
0000
0000
0000
0000
0000
0020
0030
0000
0000
0000
0000
0000
0000
,
0001
0000
0100
0000
0010
1000
0001
1000
0010
0000
1000
0001
0020
0030
0100
1000
,
0001
0000
0100
0000
0001
1000
0100
1000
0001
0000
0100
0000
0010
0000
1000
0001
,
0010
0000
0100
0000
1000
0001
0100
0001
1000
0000
0100
0000
0010
0000
0001
1000
,
0010
0000
1000
0000
0100
1000
0001
1000
0040
0000
0000
0030
0000
0000
0000
0000
,
0400
0000
0000
0300
0000
0000
0000
0000
0004
0000
0000
0003
0000
0000
0000
0000
,
4000
0000
0000
3000
0000
0000
0000
0000
0001
0000
0000
0000
0000
0000
0000
0000
,
2002
0000
0000
0000
,
0000
0000
0000
0000
,
3003
0000
0000
0000
;

//--------------- dance-single - 8/5/8 ----------------
#NOTES:
     dance-single:
     8/5/8:
     Medium:
     16:
     0,0,0,0,0:
0000
0000
0000
0000
,
0000
0000
0000
0000
,
0000
0000
0000
0000
,
0000
0000
0000
0000
,
0000
0000
0000
0000
,
0000
0000
1000
0001
,
0200
0000
0000
0000
,
0310
0000
0000
0000
,
1000
0000
0010
0000
0100
0000
0001
0000
1000
0000
0100
0010
0001
0000
1000
0000
,
0010
0000
1000
0000
0001
0000
0010
0000
0100
0000
1000
0001
0100
0000
0010
0000
,
2000
3000
0000
0000
0000
0000
0000
0000
0100
0000
0000
0000
0000
0000
0000
0000
2000
3000
0000
0000
0000
0000
0000
0000
0001
0000
0000
0000
0000
0000
0000
0000
2000
3000
0000
0000
0000
0000
0000
0000
0010
0000
0000
0000
0000
0000
0000
0000
0100
0000
0000
0000
0001
0000
0000
0000
1000
0000
0000
0000
0000
0000
0000
0000
,
0001
0010
0100
1000
0020
0130
0001
1000
,
0001
0000
0010
0000
0100
0000
1000
0000
0001
0000
0100
0010
1000
0000
0001
0000
,
0010
0000
0001
0000
1000
0000
0010
0000
0100
0000
0001
1000
0100
0000
0010
0000
,
0002
0003
0000
0000
0000
0000
0000
0000
0100
0000
0000
0000
0000
0000
0000
0000
0002
0003
0000
0000
0000
0000
0000
0000
1000
0000
0000
0000
0000
0000
0000
0000
0002
0003
0000
0000
0000
0000
0000
0000
0010
0000
0000
0000
0000
0000
0000
0000
0100
0000
0000
0000
1000
0000
0000
0000
0001
0000
0000
0000
0000
0000
0000
0000
,
1000
0000
0010
0000
0100
0000
0001
0000
0020
0000
0130
0000
2000
0000
0000
3000
,
0001
0100
0010
1000
0001
0010
0001
1000
0010
0100
0001
1000
0100
0010
0001
1000
,
0001
0100
0010
1000
0001
0010
0001
1000
0010
0100
0001
1000
0100
0010
0001
1000
,
0001
0100
0010
1000
0001
0010
0100
1000
0001
0100
0010
1000
0001
0010
0001
1000
,
0010
0100
0001
1000
0100
0010
0001
1000
0010
1000
0001
0010
0001
1000
0010
0100
,
0001
0010
0100
1000
0001
0100
0001
1000
0100
0010
0001
1000
0010
0100
0001
1000
,
0001
0010
0100
1000
0001
0100
0001
1000
0100
0010
0001
1000
0010
0100
0001
1000
,
0001
0010
0100
1000
0001
0100
0010
1000
0001
0010
0100
1000
0001
0100
0010
0100
,
0001
0000
0000
0000
1000
0000
0000
0000
0001
0000
0000
0000
0010
0000
0000
0000
0100
0000
0000
0000
1000
0000
0000
0000
0001
0000
0000
0000
1000
0000
0000
0000
0010
0000
0000
0000
0100
0000
0000
0000
0001
0000
0000
0000
1000
0000
0000
0000
0200
0300
0000
0000
0000
0000
0000
0000
0020
0030
0000
0000
0000
0000
0000
0000
,
0001
0000
0100
0000
0010
1000
0001
1000
0010
0000
1000
0001
0020
0030
0100
1000
,
0001
0000
0100
0000
0001
1000
0100
1000
0001
0000
0200
0000
0310
0000
1000
0001
,
0010
0000
0100
0000
1000
0001
0100
0001
1000
0000
0100
0000
0010
0000
0001
1000
,
0001
0000
0000
0000
0000
0000
0000
0000
0100
0000
0000
0000
0000
0000
0000
0000
0010
0000
0000
0000
1000
0000
0000
0000
0001
0000
0000
0000
1000
0000
0000
0000
0100
0000
0000
0000
0000
0000
0000
0000
1000
0000
0000
0000
0001
0000
0000
0000
0200
0300
0000
0000
0000
0000
0000
0000
0020
0030
0000
0000
0000
0000
0000
0000
,
1000
0000
0100
0000
0010
0001
1000
0001
0010
0000
0001
1000
0020
0030
0100
0001
,
1000
0000
0100
0000
1000
0001
0100
0001
1000
0000
0100
0000
0010
0000
0001
1000
,
0010
0000
0100
0000
0001
1000
0100
1000
0001
0000
0100
0000
0010
0000
1000
0001
,
0010
0000
0001
0000
0100
0001
1000
0001
0400
0000
0000
0300
0010
0000
0000
0000
,
1000
0100
1000
0001
1000
0010
0100
0001
,
0010
0001
1000
0001
0100
0010
1000
0001
,
0010
0001
1000
0001
0100
0010
1000
0001
,
0010
0100
0010
0001
1000
0010
0100
0010
,
1000
0001
1000
0100
0010
0001
1000
0001
,
0100
0010
0100
0001
1000
0100
0010
0100
,
1000
0001
1000
0010
0100
0001
1000
0001
,
0010
0100
1000
0001
0100
0010
0100
0001
,
1000
0100
0010
0000
0001
1000
0010
0000
0100
0001
1000
0000
0001
0010
0001
0000
,
1000
0010
0100
0000
0001
1000
0100
0000
0010
0001
1000
0000
0001
0100
0001
0000
,
1000
0100
1000
0000
0001
0100
0010
0000
1000
0100
0010
0000
0001
1000
0001
0000
,
1000
0010
1000
0000
0001
0010
0001
0000
1000
0010
1000
0000
0001
0010
0001
0000
,
1000
0010
0100
0001
1000
0000
0010
0000
1000
0100
1000
0001
1000
0010
0100
0000
,
0001
0010
0100
1000
0001
0000
0100
0000
0001
0010
0001
1000
0001
0100
0010
0000
,
1000
0000
0100
0000
0010
0000
0001
0000
1000
0010
0100
0001
1000
0100
1000
0001
,
0100
0000
0010
0000
0000
0000
1000
0000
0002
0003
0020
0030
0200
0300
2000
3000
,
0001
0000
0100
0000
0010
0000
1000
0000
0001
0000
0010
0100
1000
0000
0001
0000
,
0100
0000
0001
0000
1000
0000
0100
0000
0010
0000
0001
1000
0010
0000
0100
0000
,
0002
0003
0000
0000
0000
0000
0000
0000
0010
0000
0000
0000
0000
0000
0000
0000
0002
0003
0000
0000
0000
0000
0000
0000
1000
0000
0000
0000
0000
0000
0000
0000
0002
0003
0000
0000
0000
0000
0000
0000
0100
0000
0000
0000
0000
0000
0000
0000
0010
0000
0000
0000
1000
0000
0000
0000
0001
0000
0000
0000
0000
0000
0000
0000
,
1000
0100
0010
0001
0200
0310
1000
0001
,
1000
0000
0100
0000
0010
0000
0001
0000
1000
0000
0010
0100
0001
0000
1000
0000
,
0100
0000
1000
0000
0001
0000
0100
0000
0010
0000
1000
0001
0010
0000
0100
0000
,
2000
3000
0000
0000
0000
0000
0000
0000
0010
0000
0000
0000
0000
0000
0000
0000
2000
3000
0000
0000
0000
0000
0000
0000
0001
0000
0000
0000
0000
0000
0000
0000
2000
3000
0000
0000
0000
0000
0000
0000
0100
0000
0000
0000
0000
0000
0000
0000
0010
0000
0000
0000
0001
0000
0000
0000
1000
0000
0000
0000
0000
0000
0000
0000
,
0001
0000
0100
0000
0010
0000
1000
0000
0200
0000
0310
0000
0002
0000
0000
0003
,
1000
0010
0100
0001
1000
0100
1000
0001
0100
0000
0000
0010
0000
0000
1000
0000
,
0001
0010
0100
1000
0001
0100
0001
1000
0100
0000
0000
0010
0000
0000
0001
1000
,
0010
1000
0100
1000
0001
0100
0001
0010
0001
0000
0000
1000
0000
0000
0001
0000
,
1000
0010
0100
0001
1000
0100
0010
0001
1000
0010
0100
0001
1000
0001
1000
0001
,
1000
0100
0010
0001
1000
0010
1000
0001
0010
0100
1000
0001
0100
0010
1000
0001
,
1000
0100
0010
0001
1000
0010
1000
0001
0010
0100
1000
0001
0100
0010
1000
0001
,
1000
0100
0010
0001
1000
0010
0100
0001
1000
0100
0010
0001
1000
0010
0100
0010
,
1000
0000
0000
0000
0001
0000
0000
0000
1000
0000
0000
0000
0100
0000
0000
0000
0010
0000
0000
0000
0001
0000
0000
0000
1000
0000
0000
0000
0001
0000
0000
0000
0100
0000
0000
0000
0010
0000
0000
0000
1000
0000
0000
0000
0001
0000
0000
0000
0020
0030
0000
0000
0000
0000
0000
0000
0200
0300
0000
0000
0000
0000
0000
0000
,
1000
0000
0001
0000
1000
0000
0010
0000
0100
0000
0001
1000
0100
0000
0010
0000
,
0001
0000
1000
0000
0001
0000
0100
0000
0010
0000
1000
0001
0010
0000
0100
0000
,
1000
0001
1000
0010
1000
0001
0010
0001
,
1000
0000
0010
0000
0100
0000
0001
0000
0010
0000
0001
1000
0010
0000
0100
0000
,
0001
0000
1000
0000
0001
0000
0010
0000
0100
0000
1000
0001
0100
0000
0010
0000
,
1000
0000
0001
0000
1000
0000
0100
0000
0010
0000
0001
1000
0010
0000
0100
0000
,
0001
1000
0001
0010
0001
1000
0010
1000
,
0001
0010
0100
1000
0001
0100
0000
0000
,
0001
0000
0010
0000
0100
0000
1000
0000
0001
0000
0100
0010
1000
0000
0001
0000
,
0010
0000
0001
0000
1000
0000
0010
0000
0100
0000
0001
1000
0100
0000
0010
0000
,
0002
0003
0000
0000
0000
0000
0000
0000
0100
0000
0000
0000
0000
0000
0000
0000
0002
0003
0000
0000
0000
0000
0000
0000
1000
0000
0000
0000
0000
0000
0000
0000
0002
0003
0000
0000
0000
0000
0000
0000
0010
0000
0000
0000
0000
0000
0000
0000
0100
0000
0000
0000
1000
0000
0000
0000
0001
0000
0000
0000
0000
0000
0000
0000
,
1000
0010
0100
0001
0020
0130
1000
0001
,
1000
0000
0010
0000
0100
0000
0001
0000
1000
0000
0100
0010
0001
0000
1000
0000
,
0010
0000
1000
0000
0001
0000
0010
0000
0100
0000
1000
0001
0100
0000
0010
0000
,
2000
3000
0000
0000
0000
0000
0000
0000
0100
0000
0000
0000
0000
0000
0000
0000
2000
3000
0000
0000
0000
0000
0000
0000
0001
0000
0000
0000
0000
0000
0000
0000
2000
3000
0000
0000
0000
0000
0000
0000
0010
0000
0000
0000
0000
0000
0000
0000
0100
0000
0000
0000
0001
0000
0000
0000
1000
0000
0000
0000
0000
0000
0000
0000
,
0001
0000
0010
0000
0100
0000
1000
0000
0020
0000
0130
0000
0002
0000
0000
0003
,
1000
0100
0010
0001
1000
0010
1000
0001
0010
0100
1000
0001
0100
0010
1000
0001
,
1000
0100
0010
0001
1000
0010
1000
0001
0010
0100
1000
0001
0100
0010
1000
0001
,
1000
0100
0010
0001
1000
0010
0100
0001
1000
0100
0010
0001
1000
0010
1000
0001
,
0010
0100
1000
0001
0100
0010
1000
0001
0010
0001
1000
0010
1000
0001
0010
0100
,
1000
0010
0100
0001
1000
0100
1000
0001
0100
0010
1000
0001
0010
0100
1000
0001
,
1000
0010
0100
0001
1000
0100
1000
0001
0100
0010
1000
0001
0010
0100
1000
0001
,
1000
0010
0100
0001
1000
0100
0010
0001
1000
0010
0100
0001
1000
0100
1000
0001
,
0100
0000
0000
0000
0010
0000
0000
0000
0100
0000
0000
0000
0001
0000
0000
0000
1000
0000
0000
0000
0001
0000
0000
0000
0010
0000
0000
0000
0100
0000
0000
0000
1000
0000
0000
0000
0001
0000
0000
0000
1000
0000
0000
0000
0001
0000
0000
0000
0200
0300
0000
0000
0000
0000
0000
0000
0020
0030
0000
0000
0000
0000
0000
0000
,
1000
0000
0100
0000
0010
0001
1000
0001
0010
0000
0001
1000
0020
0030
0100
0001
,
1000
0000
0100
0000
1000
0001
0100
0001
1000
0000
0200
0000
0310
0000
0001
1000
,
0010
0000
0100
0000
0001
1000
0100
1000
0001
0000
0100
0000
0010
0000
1000
0001
,
1000
0000
0000
0000
0000
0000
0000
0000
0100
0000
0000
0000
0000
0000
0000
0000
0010
0000
0000
0000
0001
0000
0000
0000
1000
0000
0000
0000
0001
0000
0000
0000
0100
0000
0000
0000
0000
0000
0000
0000
0001
0000
0000
0000
1000
0000
0000
0000
0200
0300
0000
0000
0000
0000
0000
0000
0020
0030
0000
0000
0000
0000
0000
0000
,
0001
0000
0100
0000
0010
1000
0001
1000
0010
0000
1000
0001
0020
0030
0100
1000
,
0001
0000
0100
0000
0001
1000
0100
1000
0001
0000
0100
0000
0010
0000
1000
0001
,
0010
0000
0100
0000
1000
0001
0100
0001
1000
0000
0100
0000
0010
0000
0001
1000
,
0010
0000
1000
0000
0100
1000
0001
1000
0040
0000
0000
0030
0000
0000
0000
0000
,
0400
0000
0000
0300
0000
0000
0000
0000
0004
0000
0000
0003
0000
0000
0000
0000
,
4000
0000
0000
3000
0000
0000
0000
0000
0001
0000
0000
0000
0000
0000
0000
0000
,
2002
0000
0000
0000
,
0000
0000
0000
0000
,
3003
0000
0000
0000
;

//--------------- dance-single - 8'8/8-5/8'8 ----------------
#NOTES:
     dance-single:
     8'8/8-5/8'8:
     Hard:
     18:
     0,0,0,0,0:
0000
0000
0000
0000
,
0000
0000
0000
0000
,
0000
0000
0000
0000
,
0000
0000
0000
0000
,
0000
0000
0000
0000
,
0000
0000
1000
0001
,
0200
0000
0000
0000
,
0310
0000
0000
0000
,
1000
0010
0100
0001
1000
0100
1000
0001
0100
0010
1000
0001
0010
0100
1000
0001
,
1000
0010
0100
0001
1000
0100
1000
0001
0100
0010
1000
0001
0010
0100
1000
0001
,
1000
0010
0100
0001
1000
0100
0010
0001
1000
0010
0100
0001
1000
0100
1000
0001
,
0100
0010
1000
0001
0010
0100
1000
0001
0100
0001
1000
0100
1000
0001
0100
0010
,
1000
0100
0010
0001
1000
0010
1000
0001
0010
0100
1000
0001
0100
0010
1000
0001
,
1000
0100
0010
0001
1000
0010
1000
0001
0010
0100
1000
0001
0100
0010
1000
0001
,
1000
0100
0010
0001
1000
0010
1000
0001
0010
0100
1000
0001
0100
0001
1000
0100
,
0010
0001
1000
0001
0100
0010
1000
0001
1000
0100
0010
0001
2000
0000
0000
3000
,
0001
0100
0010
1000
0001
0010
0001
1000
0010
0100
0001
1000
0100
0010
0001
1000
,
0001
0100
0010
1000
0001
0010
0001
1000
0010
0100
0001
1000
0100
0010
0001
1000
,
0001
0100
0010
1000
0001
0010
0100
1000
0001
0100
0010
1000
0001
0010
0001
1000
,
0010
0100
0001
1000
0100
0010
0001
1000
0010
1000
0001
0010
0001
1000
0010
0100
,
0001
0010
0100
1000
0001
0100
0001
1000
0100
0010
0001
1000
0010
0100
0001
1000
,
0001
0010
0100
1000
0001
0100
0001
1000
0100
0010
0001
1000
0010
0100
0001
1000
,
0001
0010
0100
1000
0001
0100
0010
1000
0001
0010
0100
1000
0001
0100
0010
0100
,
0001
0000
0000
0000
1000
0000
0000
0000
0001
0000
0000
0000
0010
0000
0000
0000
0100
0000
0000
0000
1000
0000
0000
0000
0001
0000
0000
0000
1000
0000
0000
0000
0010
0000
0000
0000
0100
0000
0000
0000
0001
0000
0000
0000
1000
0000
0000
0000
0200
0300
0000
0000
0000
0000
0000
0000
0020
0030
0000
0000
0000
0000
0000
0000
,
0001
0000
0100
0000
0010
1000
0001
1000
0010
0000
1000
0001
0020
0030
0100
1000
,
0001
0000
0100
0000
0001
1000
0100
1000
0001
0000
0200
0000
0310
0000
1000
0001
,
0010
0000
0100
0000
1000
0001
0100
0001
1000
0000
0100
0000
0010
0000
0001
1000
,
0001
0000
0000
0000
0000
0000
0000
0000
0100
0000
0000
0000
0000
0000
0000
0000
0010
0000
0000
0000
1000
0000
0000
0000
0001
0000
0000
0000
1000
0000
0000
0000
0100
0000
0000
0000
0000
0000
0000
0000
1000
0000
0000
0000
0001
0000
0000
0000
0200
0300
0000
0000
0000
0000
0000
0000
0020
0030
0000
0000
0000
0000
0000
0000
,
1000
0000
0100
0000
0010
0001
1000
0001
0010
0000
0001
1000
0020
0030
0100
0001
,
1000
0000
0100
0000
1000
0001
0100
0001
1000
0000
0100
0000
0010
0000
0001
1000
,
0010
0000
0100
0000
0001
1000
0100
1000
0001
0000
0100
0000
0010
0000
1000
0001
,
0010
0000
0001
0000
0100
0001
1000
0001
0400
0000
0000
0300
0010
0000
0000
0000
,
1000
0100
1000
0001
1000
0010
0100
0001
,
0010
0001
1000
0001
0100
0010
1000
0001
,
0010
0001
1000
0001
0100
0010
1000
0001
,
0010
0100
0010
0001
1000
0010
0100
0010
,
1000
0001
1000
0100
0010
0001
1000
0001
,
0100
0010
0100
0001
1000
0100
0010
0100
,
1000
0001
1000
0010
0100
0001
1000
0001
,
0010
0100
1000
0001
0100
0010
0100
0001
,
1000
0100
0010
0000
0001
1000
0010
0000
0100
0001
1000
0000
0001
0010
0001
0000
,
1000
0010
0100
0000
0001
1000
0100
0000
0010
0001
1000
0000
0001
0100
0001
0000
,
1000
0100
1000
0000
0001
0100
0010
0000
1000
0100
0010
0000
0001
1000
0001
0000
,
1000
0010
1000
0000
0001
0010
0001
0000
1000
0010
1000
0000
0001
0010
0001
0000
,
1000
0010
0100
0001
1000
0000
0010
0000
1000
0100
1000
0001
1000
0010
0100
0000
,
0001
0010
0100
1000
0001
0000
0100
0000
0001
0010
0001
1000
0001
0100
0010
0000
,
1000
0000
0100
0000
0010
0000
0001
0000
1000
0010
0100
0001
1000
0100
1000
0001
,
0100
0010
0000
1000
0001
0010
0100
1000
,
0001
0100
0010
1000
0001
0010
0001
1000
0010
0100
0001
1000
0100
0010
0001
1000
,
0001
0100
0010
1000
0001
0010
0001
1000
0010
0100
0001
1000
0100
0010
0001
1000
,
0001
0100
0010
1000
0001
0010
0100
1000
0001
0100
0010
1000
0001
0010
0001
1000
,
0010
0100
0001
1000
0100
0010
0001
1000
0010
1000
0001
0010
0001
1000
0010
0100
,
0001
0010
0100
1000
0001
0100
0001
1000
0100
0010
0001
1000
0010
0100
0001
1000
,
0001
0010
0100
1000
0001
0100
0001
1000
0100
0010
0001
1000
0010
0100
0001
1000
,
0001
0010
0100
1000
0001
0100
0001
1000
0100
0010
0001
1000
0010
1000
0001
0010
,
0100
1000
0001
1000
0010
0100
0001
1000
0001
0010
0100
1000
0002
0000
0000
0003
,
1000
0010
0100
0001
1000
0100
1000
0001
0100
0000
0000
0010
0000
0000
1000
0000
,
0001
0010
0100
1000
0001
0100
0001
1000
0100
0000
0000
0010
0000
0000
0001
1000
,
0010
1000
0100
1000
0001
0100
0001
0010
0001
0000
0000
1000
0000
0000
0001
0000
,
1000
0010
0100
0001
1000
0100
0010
0001
1000
0010
0100
0001
1000
0001
1000
0001
,
1000
0100
0010
0001
1000
0010
1000
0001
0010
0100
1000
0001
0100
0010
1000
0001
,
1000
0100
0010
0001
1000
0010
1000
0001
0010
0100
1000
0001
0100
0010
1000
0001
,
1000
0100
0010
0001
1000
0010
0100
0001
1000
0100
0010
0001
1000
0010
0100
0010
,
1000
0000
0000
0000
0001
0000
0000
0000
1000
0000
0000
0000
0100
0000
0000
0000
0010
0000
0000
0000
0001
0000
0000
0000
1000
0000
0000
0000
0001
0000
0000
0000
0100
0000
0000
0000
0010
0000
0000
0000
1000
0000
0000
0000
0001
0000
0000
0000
0020
0030
0000
0000
0000
0000
0000
0000
0200
0300
0000
0000
0000
0000
0000
0000
,
1000
0000
0001
0000
1000
0000
0010
0000
0100
0000
0001
1000
0100
0000
0010
0000
,
0001
0000
1000
0000
0001
0000
0100
0000
0010
0000
1000
0001
0010
0000
0100
0000
,
1000
0001
1000
0010
1000
0001
0010
0001
,
1000
0000
0010
0000
0100
0000
0001
0000
0010
0000
0001
1000
0010
0000
0100
0000
,
0001
0000
1000
0000
0001
0000
0010
0000
0100
0000
1000
0001
0100
0000
0010
0000
,
1000
0000
0001
0000
1000
0000
0100
0000
0010
0000
0001
1000
0010
0000
0100
0000
,
0001
1000
0001
0010
0001
1000
0010
1000
,
0001
0010
0100
1000
0001
0100
0000
0000
,
0001
0010
0100
1000
0001
0100
0001
1000
0100
0010
0001
1000
0010
0100
0001
1000
,
0001
0010
0100
1000
0001
0100
0001
1000
0100
0010
0001
1000
0010
0100
0001
1000
,
0001
0010
0100
1000
0001
0100
0010
1000
0001
0010
0100
1000
0001
0100
0001
1000
,
0100
0010
0001
1000
0010
0100
0001
1000
0100
1000
0001
0100
0001
1000
0100
0010
,
0001
0100
0010
1000
0001
0010
0001
1000
0010
0100
0001
1000
0100
0010
0001
1000
,
0001
0100
0010
1000
0001
0010
0001
1000
0010
0100
0001
1000
0100
0010
0001
1000
,
0001
0100
0010
1000
0001
0010
0001
1000
0010
0100
0001
1000
0100
1000
0001
0100
,
0010
1000
0001
1000
0100
0010
0001
1000
0001
0100
0010
1000
0002
0000
0000
0003
,
1000
0100
0010
0001
1000
0010
1000
0001
0010
0100
1000
0001
0100
0010
1000
0001
,
1000
0100
0010
0001
1000
0010
1000
0001
0010
0100
1000
0001
0100
0010
1000
0001
,
1000
0100
0010
0001
1000
0010
0100
0001
1000
0100
0010
0001
1000
0010
1000
0001
,
0010
0100
1000
0001
0100
0010
1000
0001
0010
0001
1000
0010
1000
0001
0010
0100
,
1000
0010
0100
0001
1000
0100
1000
0001
0100
0010
1000
0001
0010
0100
1000
0001
,
1000
0010
0100
0001
1000
0100
1000
0001
0100
0010
1000
0001
0010
0100
1000
0001
,
1000
0010
0100
0001
1000
0100
0010
0001
1000
0010
0100
0001
1000
0100
1000
0001
,
0100
0000
0000
0000
0010
0000
0000
0000
0100
0000
0000
0000
0001
0000
0000
0000
1000
0000
0000
0000
0001
0000
0000
0000
0010
0000
0000
0000
0100
0000
0000
0000
1000
0000
0000
0000
0001
0000
0000
0000
1000
0000
0000
0000
0001
0000
0000
0000
0200
0300
0000
0000
0000
0000
0000
0000
0020
0030
0000
0000
0000
0000
0000
0000
,
1000
0000
0100
0000
0010
0001
1000
0001
0010
0000
0001
1000
0020
0030
0100
0001
,
1000
0000
0100
0000
1000
0001
0100
0001
1000
0000
0200
0000
0310
0000
0001
1000
,
0010
0000
0100
0000
0001
1000
0100
1000
0001
0000
0100
0000
0010
0000
1000
0001
,
1000
0000
0000
0000
0000
0000
0000
0000
0100
0000
0000
0000
0000
0000
0000
0000
0010
0000
0000
0000
0001
0000
0000
0000
1000
0000
0000
0000
0001
0000
0000
0000
0100
0000
0000
0000
0000
0000
0000
0000
0001
0000
0000
0000
1000
0000
0000
0000
0200
0300
0000
0000
0000
0000
0000
0000
0020
0030
0000
0000
0000
0000
0000
0000
,
0001
0000
0100
0000
0010
1000
0001
1000
0010
0000
1000
0001
0020
0030
0100
1000
,
0001
0000
0100
0000
0001
1000
0100
1000
0001
0000
0100
0000
0010
0000
1000
0001
,
0010
0000
0100
0000
1000
0001
0100
0001
1000
0000
0100
0000
0010
0000
0001
1000
,
0010
0000
1000
0000
0100
1000
0001
1000
0040
0000
0000
0030
0000
0000
0000
0000
,
0400
0000
0000
0300
0000
0000
0000
0000
0004
0000
0000
0003
0000
0000
0000
0000
,
4000
0000
0000
3000
0000
0000
0000
0000
0001
0000
0000
0000
0000
0000
0000
0000
,
2002
0000
0000
0000
,
0000
0000
0000
0000
,
3003
0000
0000
0000
;

//--------------- dance-single - 8'16/6-8'8/8'16 ----------------
#NOTES:
     dance-single:
     8'16/6-8'8/8'16:
     Challenge:
     19:
     0,0,0,0,0:
0000
0000
0000
0000
,
0000
0000
0000
0000
,
0000
0000
0000
0000
,
0000
0000
0000
0000
,
0000
0000
0000
0000
,
0000
0000
1000
0001
,
0200
0000
0000
0000
,
0310
0000
0000
0000
,
1000
0010
0100
0001
1000
0100
1000
0001
0100
0010
1000
0001
0010
0100
1000
0001
,
1000
0010
0100
0001
1000
0100
1000
0001
0100
0010
1000
0001
0010
0100
1000
0001
,
1000
0010
0100
0001
1000
0100
0010
0001
1000
0010
0100
0001
1000
0100
1000
0001
,
0100
0010
1000
0001
0010
0100
1000
0001
0100
0001
1000
0100
1000
0001
0100
0010
,
1000
0100
0010
0001
1000
0010
1000
0001
0010
0100
1000
0001
0100
0010
1000
0001
,
1000
0100
0010
0001
1000
0010
1000
0001
0010
0100
1000
0001
0100
0010
1000
0001
,
1000
0100
0010
0001
1000
0010
1000
0001
0010
0100
1000
0001
0100
0001
1000
0100
,
0010
0001
1000
0001
0100
0010
1000
0001
1000
0100
0010
0001
2000
0000
0000
3000
,
0001
0100
0010
1000
0001
0010
0001
1000
0010
0100
0001
1000
0100
0010
0001
1000
,
0001
0100
0010
1000
0001
0010
0001
1000
0010
0100
0001
1000
0100
0010
0001
1000
,
0001
0100
0010
1000
0001
0010
0100
1000
0001
0100
0010
1000
0001
0010
0001
1000
,
0010
0100
0001
1000
0100
0010
0001
1000
0010
1000
0001
0010
0001
1000
0010
0100
,
0001
0010
0100
1000
0001
0100
0001
1000
0100
0010
0001
1000
0010
0100
0001
1000
,
0001
0010
0100
1000
0001
0100
0001
1000
0100
0010
0001
1000
0010
0100
0001
1000
,
0001
0010
0100
1000
0001
0100
0010
1000
0001
0010
0100
1000
0001
0100
0010
0100
,
0001
1000
0001
0010
0100
1000
0001
1000
0010
0100
0001
1000
0100
0010
0001
1000
,
0001
0100
0010
1000
0001
0010
0001
1000
0010
0100
0001
1000
0100
0010
0001
1000
,
0001
0100
0010
1000
0001
0010
0100
1000
0001
1000
0010
0100
0001
1000
0100
1000
,
0001
0100
0010
1000
0001
0010
0001
1000
0010
0100
0001
1000
0100
0010
0001
1000
,
0001
0100
0010
1000
0001
0010
0100
1000
0001
1000
0010
0100
0001
1000
0001
0010
,
0100
0010
0001
1000
0010
1000
0001
0010
0100
1000
0001
0100
0010
1000
0001
1000
,
0100
0010
0001
1000
0010
0100
0001
1000
0001
0010
0100
1000
0001
0100
0001
1000
,
0100
0010
0001
1000
0010
1000
0001
0010
0100
1000
0001
0100
0010
1000
0001
1000
,
0100
0000
0000
0000
0010
0000
0000
0000
0001
0000
0000
0000
1000
0000
0000
0000
0010
0000
0000
0000
0100
0000
0000
0000
0001
0000
0000
0000
1000
0000
0000
0000
0004
0003
0000
0000
0040
0030
0000
0000
0400
0300
0000
0000
4000
3000
0000
0000
0001
0000
0000
0000
0000
0000
0000
0000
0000
0000
0000
0000
0000
0000
0000
0000
,
1000
0100
1000
0001
1000
0010
0100
0001
,
0010
0001
1000
0001
0100
0010
1000
0001
,
0010
0001
1000
0001
0100
0010
1000
0001
,
0010
0100
0010
0001
1000
0010
0100
0010
,
1000
0001
1000
0100
0010
0001
1000
0001
,
0100
0010
0100
0001
1000
0100
0010
0100
,
1000
0001
1000
0010
0100
0001
1000
0001
,
0010
0100
1000
0001
0100
0010
0100
0001
,
1000
0100
0010
0001
1000
0010
0100
0001
1000
0100
0010
0001
1000
0010
1000
0001
,
0010
0100
1000
0001
0100
0010
1000
0001
0010
0100
1000
0001
0100
0001
1000
0100
,
0010
0001
1000
0001
0100
0010
1000
0001
0010
0100
1000
0001
0100
0010
1000
0001
,
1000
0100
0010
0001
1000
0010
0100
0001
0010
0100
1000
0001
0100
0010
1000
0001
,
0010
0001
1000
0010
0100
0001
1000
0100
1000
0001
0100
0010
1000
0001
0010
0100
,
1000
0001
1000
0010
0100
0001
1000
0100
0010
0001
1000
0001
0100
0010
1000
0001
,
1000
0000
0100
0000
0010
0000
0001
0000
1000
0010
0100
0001
1000
0100
1000
0001
,
0100
0010
0000
1000
0001
0010
0100
1000
,
0001
0100
0010
1000
0001
0010
0001
1000
0010
0100
0001
1000
0100
0010
0001
1000
,
0001
0100
0010
1000
0001
0010
0001
1000
0010
0100
0001
1000
0100
0010
0001
1000
,
0001
0100
0010
1000
0001
0010
0100
1000
0001
0100
0010
1000
0001
0010
0001
1000
,
0010
0100
0001
1000
0100
0010
0001
1000
0010
1000
0001
0010
0001
1000
0010
0100
,
0001
0010
0100
1000
0001
0100
0001
1000
0100
0010
0001
1000
0010
0100
0001
1000
,
0001
0010
0100
1000
0001
0100
0001
1000
0100
0010
0001
1000
0010
0100
0001
1000
,
0001
0010
0100
1000
0001
0100
0001
1000
0100
0010
0001
1000
0010
1000
0001
0010
,
0100
1000
0001
1000
0010
0100
0001
1000
0001
0010
0100
1000
0002
0000
0000
0003
,
1000
0010
0100
0001
1000
0100
1000
0001
0100
0001
1000
0100
1000
0001
0100
0001
,
1000
0100
0010
0001
1000
0010
1000
0001
0010
0001
1000
0010
1000
0001
0010
0001
,
1000
0010
1000
0100
1000
0001
0100
0001
0010
0001
1000
0010
1000
0001
0010
0001
,
1000
0010
0100
0001
1000
0100
0010
0001
1000
0010
0100
0001
1000
0001
1000
0001
,
1000
0100
0010
0001
1000
0010
1000
0001
0010
0100
1000
0001
0100
0010
1000
0001
,
1000
0100
0010
0001
1000
0010
1000
0001
0010
0100
1000
0001
0100
0010
1000
0001
,
1000
0100
0010
0001
1000
0010
0100
0001
1000
0100
0010
0001
1000
0010
0100
0010
,
1000
0000
0000
0000
0001
0000
0000
0000
1000
0000
0000
0000
0100
0000
0000
0000
0010
0000
0000
0000
0001
0000
0000
0000
1000
0000
0000
0000
0001
0000
0000
0000
0100
0000
0000
0000
0010
0000
0000
0000
1000
0000
0000
0000
0001
0000
0000
0000
0020
0030
0000
0000
0000
0000
0000
0000
0200
0300
0000
0000
0000
0000
0000
0000
,
1000
0000
0001
0000
1000
0000
0010
0000
0100
0000
0001
1000
0100
0000
0010
0000
,
0001
0000
1000
0000
0001
0000
0100
0000
0010
0000
1000
0001
0010
0000
0100
0000
,
1000
0001
1000
0010
1000
0001
0010
0001
,
1000
0000
0010
0000
0100
0000
0001
0000
0010
0000
0001
1000
0010
0000
0100
0000
,
0001
0000
1000
0000
0001
0000
0010
0000
0100
0000
1000
0001
0100
0000
0010
0000
,
1000
0000
0001
0000
1000
0000
0100
0000
0010
0000
0001
1000
0010
0000
0100
0000
,
0001
1000
0001
0010
0001
1000
0010
1000
,
0001
0010
0100
1000
0001
0100
0000
0000
,
0001
0010
0100
1000
0001
0100
0001
1000
0100
0010
0001
1000
0010
0100
0001
1000
,
0001
0010
0100
1000
0001
0100
0001
1000
0100
0010
0001
1000
0010
0100
0001
1000
,
0001
0010
0100
1000
0001
0100
0010
1000
0001
0010
0100
1000
0001
0100
0001
1000
,
0100
0010
0001
1000
0010
0100
0001
1000
0100
1000
0001
0100
0001
1000
0100
0010
,
0001
0100
0010
1000
0001
0010
0001
1000
0010
0100
0001
1000
0100
0010
0001
1000
,
0001
0100
0010
1000
0001
0010
0001
1000
0010
0100
0001
1000
0100
0010
0001
1000
,
0001
0100
0010
1000
0001
0010
0001
1000
0010
0100
0001
1000
0100
1000
0001
0100
,
0010
1000
0001
1000
0100
0010
0001
1000
0001
0100
0010
1000
0002
0000
0000
0003
,
1000
0100
0010
0001
1000
0010
1000
0001
0010
0100
1000
0001
0100
0010
1000
0001
,
1000
0100
0010
0001
1000
0010
1000
0001
0010
0100
1000
0001
0100
0010
1000
0001
,
1000
0100
0010
0001
1000
0010
0100
0001
1000
0100
0010
0001
1000
0010
1000
0001
,
0010
0100
1000
0001
0100
0010
1000
0001
0010
0001
1000
0010
1000
0001
0010
0100
,
1000
0010
0100
0001
1000
0100
1000
0001
0100
0010
1000
0001
0010
0100
1000
0001
,
1000
0010
0100
0001
1000
0100
1000
0001
0100
0010
1000
0001
0010
0100
1000
0001
,
1000
0010
0100
0001
1000
0100
0010
0001
1000
0010
0100
0001
1000
0100
1000
0001
,
0100
0010
0100
0001
1000
0001
0010
0100
1000
0001
1000
0010
0100
0001
0100
0001
,
1000
0100
0010
0001
1000
0010
1000
0001
0010
0100
1000
0001
0100
0010
1000
0001
,
1000
0100
0010
0001
1000
0010
0100
0001
1000
0001
0010
0100
1000
0001
0100
0001
,
1000
0100
0010
0001
1000
0010
1000
0001
0010
0100
1000
0001
0100
0010
1000
0001
,
1000
0100
0010
0001
1000
0010
0100
0001
1000
0001
0010
0100
1000
0001
1000
0010
,
0100
0010
1000
0001
0010
0001
1000
0010
0100
0001
1000
0100
0010
0001
1000
0001
,
0100
0010
1000
0001
0010
0100
1000
0001
1000
0010
0100
0001
1000
0100
1000
0001
,
0100
0010
1000
0001
0010
0001
1000
0010
0100
0001
1000
0100
0010
0001
1000
0001
,
0100
0000
0000
0000
0010
0000
0000
0000
1000
0000
0000
0000
0001
0000
0000
0000
0010
0000
0000
0000
0100
0000
0000
0000
1000
0000
0000
0000
0001
0000
0000
0000
4000
3000
0000
0000
0040
0030
0000
0000
0400
0300
0000
0000
0004
0003
0000
0000
4000
3000
0000
0000
0000
0000
0000
0000
0000
0000
0000
0000
0000
0000
0000
0000
,
0004
0003
0000
0000
0040
0030
0000
0000
0400
0300
0000
0000
4000
3000
0000
0000
0000
0000
0000
0000
0000
0000
0000
0000
0000
0000
0000
0000
0000
0000
0000
0000
4000
3000
0000
0000
0040
0030
0000
0000
0400
0300
0000
0000
0004
0003
0000
0000
0000
0000
0000
0000
0000
0000
0000
0000
0000
0000
0000
0000
0000
0000
0000
0000
,
0004
0003
0000
0000
0040
0030
0000
0000
0400
0300
0000
0000
4000
3000
0000
0000
0000
0000
0000
0000
0000
0000
0000
0000
0000
0000
0000
0000
0000
0000
0000
0000
0001
0000
0000
0000
0000
0000
0000
0000
0000
0000
0000
0000
0000
0000
0000
0000
0000
0000
0000
0000
0000
0000
0000
0000
0000
0000
0000
0000
0000
0000
0000
0000
,
2002
0000
0000
0000
,
0000
0000
0000
0000
,
3003
0000
0000
0000
;
