#TITLE:NightAttack;
#SUBTITLE:;
#ARTIST:Para Dot.;
#TITLETRANSLIT:;
#SUBTITLETRANSLIT:;
#ARTISTTRANSLIT:;
#GENRE:;
#CREDIT:NAOKI;
#MUSIC:NightAttack.ogg;
#BANNER:NightAttack-bn.png;
#BACKGROUND:NightAttack-bg.png;
#CDTITLE:naokicdtitle.png;
#SAMPLESTART:59.991;
#SAMPLELENGTH:14.545;
#SELECTABLE:YES;
#OFFSET:0.009;
#BPMS:0.000=132.000;
#STOPS:;
#JACKET:NightAttack-jacket.png;
#JACKET:;
#DISCIMAGE:;
#CDIMAGE:;
#BGCHANGES:;
#FGCHANGES:;

//--------------- dance-single - BXF ----------------
#NOTES:
     dance-single:
     BXF:
     Challenge:
     11:
     0,0,0,0,0:
0000
0000
0000
0000
,
2020
0000
3030
0022
0000
0033
2001
0000
,
0010
0000
0000
0000
3100
0000
0000
0010
0000
0001
1000
0000
1001
0000
0000
0000
,
0022
0000
0033
2020
0000
3030
1002
0000
,
0010
0000
0000
0000
0103
0000
0000
0010
0000
1000
0001
0000
0010
0M00
0010
0000
,
2200
0000
3300
0202
0000
0303
2100
0100
,
0001
0000
0000
0000
3010
0000
0000
0100
0000
0001
1000
0000
1001
0000
0000
0000
,
0202
0000
0303
2200
0000
3300
0102
0100
,
1000
0000
0000
0000
0013
0000
0000
0100
0000
1000
0001
0000
0100
00M0
0100
0000
,
2000
0000
3001
0000
0200
0010
0000
0301
1000
0100
0020
0000
0031
0000
1000
0010
,
0200
0000
0310
0000
2000
0001
0000
3100
0010
0001
0200
0000
0010
0000
0301
1000
,
0002
0000
1003
0000
0200
0010
0000
1300
0001
0100
0020
0000
0130
0000
0001
1000
,
0200
0000
0310
0000
0002
1000
0000
0103
0010
1000
0100
0000
0110
0000
0000
0000
,
2000
0000
3002
0000
1003
0010
0000
0100
0001
1000
0200
0000
0310
0000
0001
1000
,
0020
0000
0230
0000
0302
1000
0000
0013
0100
1000
0020
0000
0130
0000
0001
1000
,
0200
0000
0320
0000
0031
0100
0000
0010
1000
0001
0010
0100
1000
0010
0100
0001
,
0020
0000
0000
0130
1000
0100
2000
0000
0000
3002
0000
0000
0103
0000
0000
0010
0000
0000
1001
0000
0000
0000
0000
0000
,
2000
0000
0000
3000
0001
0010
0010
0100
0001
0010
0010
1000
0001
0100
0100
1000
,
0001
0010
0100
0010
0001
0100
0100
1000
0020
0000
0130
0001
0000
1000
0200
0000
,
0310
0000
0001
0000
1000
0010
0010
0001
0100
0010
0100
0001
1000
0100
0100
0001
,
0020
0000
0000
0130
1000
0100
1000
0000
0000
0020
0000
0000
0130
0000
0000
0001
0000
0000
1010
0000
0000
0001
0000
0000
,
0200
0000
0301
0000
1000
0100
0100
0010
1000
0100
0100
0001
1000
0010
0010
0100
,
1000
0000
0010
0000
0010
0000
0001
0000
0400
00M0
0300
0000
1000
0000
0001
0000
2100
0000
0000
0000
3000
0000
0012
0000
0000
0000
0003
0000
2001
0000
0000
0000
,
0000
0000
0000
3000
0001
0100
0100
1000
0010
0100
0010
1000
0001
0010
0010
1000
,
0102
0000
0000
1010
0000
0000
2003
0000
0000
0011
0000
0000
3002
0000
0023
0000
,
0230
0000
1300
0000
0001
0100
0100
0010
0001
0100
0100
0010
0002
0003
2000
3000
,
0010
0100
0100
1000
0010
0100
0100
1000
0001
0100
0100
1000
0011
0000
1100
0000
,
0002
0000
0000
0000
0000
0000
0003
0000
1000
0000
0100
0000
0100
0000
0001
0000
1000
0000
0400
00M0
0300
0000
0001
0000
1000
0000
0100
0000
0100
0000
0001
0000
,
0020
0000
0000
0130
1000
0001
0100
0000
0000
0020
0000
0000
0130
0000
0000
0001
0000
0000
1010
0000
0000
0101
0000
0000
,
2000
0000
0000
3000
0001
0100
0100
0010
0001
0100
0100
1000
0001
0010
0010
0100
,
0001
0000
0010
0000
0010
0000
1000
0000
0400
00M0
0300
0000
0001
0000
1000
0000
0012
0000
0000
0000
0003
0000
2100
0000
0000
0000
3000
0000
1002
0000
0000
0000
,
0000
0000
0000
0000
0000
0000
0003
0000
1000
0000
0100
0000
0100
0000
0001
0000
0010
0000
0100
0000
0010
0000
0001
0000
0400
00M0
0300
0000
1000
0000
0001
0000
,
0200
0300
0000
0000
0010
0000
0000
0000
1000
0000
0000
0000
0200
0300
0000
0000
0010
0000
0000
0000
0000
0000
0000
0000
2000
3000
0000
0000
0010
0000
0000
0000
0000
0000
0000
0000
0002
0003
0000
0000
0100
0000
0000
0000
0000
0000
0000
0000
0012
0000
0000
0000
0000
0000
0000
0000
2003
0000
0000
0000
0000
0000
0000
0000
,
3100
0000
0010
0000
0001
0100
0000
0010
0001
0000
0010
0000
1000
0100
0000
0010
,
1000
0000
0010
0000
0001
0100
0000
0010
0001
0010
0100
0001
1000
0100
0010
0001
,
0200
0000
0310
0000
0100
0001
0000
1000
0100
0000
0010
0000
0002
0000
2003
0000
,
3012
0000
2103
00M0
3102
0000
2013
0000
,
3100
0000
0010
0000
0001
0100
0000
0010
0001
0000
0010
0000
1000
0100
0000
0010
,
1000
0000
0000
0010
0000
0000
0100
0000
0000
1000
0000
0000
0001
0000
0000
0100
0000
0000
0010
0000
0000
1000
0000
0000
0001
0000
0000
0000
1000
0000
0100
0000
1000
0000
0001
0000
0100
0000
0000
0000
0001
0000
1000
0000
0100
0000
0010
0000
,
0002
0000
0103
0010
1000
0000
0200
0000
0310
0002
0000
0003
1000
0000
0010
0000
,
0200
0000
0310
1000
0001
0010
0100
1000
,
0011
0000
1000
0000
0001
0010
0000
0100
0001
0000
0100
0000
1000
0010
0000
0100
,
1000
0000
0100
0000
0001
0010
0000
0100
0001
0100
0010
0001
1000
0010
0100
0001
,
0010
0000
0100
0000
1000
0001
0000
0100
0010
0000
1000
0000
0001
0000
0010
0100
,
2000
0000
0000
0011
0000
0000
3002
0000
0000
1010
0000
0000
1103
0000
0011
0000
,
1000
0000
0001
0000
0010
0100
0000
0001
0100
0000
1000
0000
0010
0100
0000
1000
,
0100
0000
0010
0000
1000
0001
0000
0010
0100
0000
1000
0000
0010
0000
0100
0000
,
0002
0000
0000
0003
1000
0100
0100
0001
1000
0100
0100
0001
1000
0100
0010
0001
,
2000
0011
3101
1111
,
0002
0000
0000
0003
1000
0010
0010
0100
1000
0010
0010
0001
1000
0100
0100
0001
,
1000
0010
0100
0010
1000
0100
0100
0001
0020
0000
0130
1000
0000
0001
0200
0000
,
0310
0000
1000
0000
0001
0010
0010
1000
0100
0010
0100
1000
0001
0100
0100
1000
,
0020
0000
0000
0130
0001
0100
0001
0000
0000
0020
0000
0000
0130
0000
0000
1000
0000
0000
0011
0000
0000
1000
0000
0000
,
0200
0000
1300
0000
0001
0100
0100
0010
0001
0100
0100
1000
0001
0010
0010
0100
,
0001
0000
0010
0000
0010
0000
1000
0000
0400
00M0
0300
0000
0001
0000
1000
0000
0012
0000
0000
0000
0003
0000
2100
0000
0000
0000
3000
0000
1002
0000
0000
0000
,
0000
0000
0000
0003
1000
0100
0100
0001
0010
0100
0010
0001
1000
0010
0010
0001
,
2100
0000
0000
0011
0000
0000
3002
0000
0000
1010
0000
0000
2003
0000
3020
0000
,
0230
0000
0301
0000
1000
0100
0100
0010
1000
0100
0100
0010
2000
3000
0002
0003
,
0010
0100
0100
0001
0010
0100
0100
0001
1000
0100
0100
0001
1010
0000
0101
0000
,
2000
0000
0000
0000
0000
0000
3000
0000
0001
0000
0100
0000
0100
0000
0010
0000
0001
0000
0400
00M0
0300
0000
1000
0000
0001
0000
0100
0000
0100
0000
1000
0000
,
0020
0000
0000
0130
0001
1000
0100
0000
0000
0020
0000
0000
0130
0000
0000
1000
0000
0000
0011
0000
0000
1100
0000
0000
,
0002
0000
0000
0003
1000
0100
0100
0010
1000
0100
0100
0001
1000
0010
0010
0100
,
1000
0000
0010
0000
0010
0000
0001
0000
0400
00M0
0300
0000
1000
0000
0001
0000
2010
0000
0000
0000
3000
0000
0102
0000
0000
0000
0003
0000
2001
0000
0000
0000
,
0000
0000
0000
0000
0000
0000
3000
0000
0001
0000
0100
0000
0100
0000
1000
0000
0010
0000
0100
0000
0010
0000
1000
0000
0400
00M0
0300
0000
0001
0000
1000
0000
,
0200
0300
0000
0000
0010
0000
0000
0000
0001
0000
0000
0000
0200
0300
0000
0000
0010
0000
0000
0000
0000
0000
0000
0000
0002
0003
0000
0000
0010
0000
0000
0000
0000
0000
0000
0000
0200
0300
0000
0000
0001
0000
0000
0000
0000
0000
0000
0000
1010
0000
0000
0000
0000
0000
0000
0000
0100
0000
0000
0000
0000
0000
0000
0000
,
2002
0000
0000
0000
,
3003
0000
0000
0000
;
