#TITLE:Negligence;
#SUBTITLE:;
#ARTIST:CHiNTOMO;
#TITLETRANSLIT:;
#SUBTITLETRANSLIT:;
#ARTISTTRANSLIT:;
#CREDIT:;
#BANNER:Negligence-bn.png;
#BACKGROUND:Negligence-bg.png;
#LYRICSPATH:Negligence.lrc;
#CDTITLE:NAOKI_cdtitle.png;
#MUSIC:Negligence.ogg;
#OFFSET:-0.140;
#SAMPLESTART:79.392;
#SAMPLELENGTH:12.000;
#SELECTABLE:YES;
#BPMS:0.000=196.000;
#STOPS:;
#BGCHANGES:;

//---------------dance-single - NAOKI----------------
#NOTES:
     dance-single:
     NAOKI:
     Challenge:
     16:
     0.868,0.973,0.104,0.160,0.680: // measure 1
0000
0000
0000
0000
,  // measure 2
0000
0000
0000
0000
,  // measure 3
0000
0000
0000
0000
,  // measure 4
0000
0000
0000
0000
,  // measure 5
0000
0000
0000
0000
,  // measure 6
0000
0000
0000
0000
,  // measure 7
0000
0000
0000
0000
,  // measure 8
0000
0000
0000
0000
,  // measure 9
0000
0000
0000
0000
,  // measure 10
1000
0010
0100
0001
1000
0100
0010
0001
,  // measure 11
0010
1000
0010
0001
0100
0010
1000
0100
,  // measure 12
0000
0000
0100
1000
0001
0100
0010
1000
,  // measure 13
0010
0001
0010
1000
0100
0010
0001
0100
,  // measure 14
0000
0000
0100
0001
1000
0100
0010
0001
,  // measure 15
0010
1000
0010
0001
0100
0010
1000
0100
,  // measure 16
0000
0000
0100
1000
0001
0200
0000
0020
,  // measure 17
0000
033M
0000
M000
0000
000M
00M0
0M00
,  // measure 18
1000
0001
0100
0001
1000
0100
0010
0001
,  // measure 19
1000
0001
0010
0001
1000
0010
0100
0001
,  // measure 20
1000
0010
1000
0001
0010
0100
1000
0001
,  // measure 21
1000
0100
1000
0001
0100
0010
1000
0100
,  // measure 22
0010
0001
0010
0001
1000
0001
1000
0010
0100
0000
0001
0000
0010
0000
0100
0000
,  // measure 23
1000
0010
1000
0010
0100
0001
1000
0100
0010
0000
0001
0000
1000
0000
0010
0000
,  // measure 24
0100
0001
0100
0001
1000
0100
0010
0001
1000
0000
0010
0000
0100
0000
0001
0000
,  // measure 25
1000
0100
1000
0100
0010
0000
0001
0000
1000
0000
0010
0000
0100
0000
0000
0000
,  // measure 26
0010
1000
1001
0001
0010
0100
1100
1000
,  // measure 27
0010
0100
0101
0001
1000
0100
0110
0010
,  // measure 28
0001
1000
1010
0010
1000
0001
0011
0010
,  // measure 29
0100
1000
0100
1000
0001
1000
0001
0100
0010
0000
1000
0000
0100
0000
0010
0000
,  // measure 30
0001
0100
0001
0100
0010
1000
0001
0010
0100
0000
1000
0000
0001
0000
0100
0000
,  // measure 31
0010
1000
0010
1000
0001
0010
0100
1000
0001
0000
0100
0000
0010
0000
1000
0000
,  // measure 32
0001
0010
0001
0010
0100
0000
1000
0000
0001
0000
0100
0000
0010
0000
0000
0000
,  // measure 33
1000
0010
1000
0010
0100
0001
1000
0010
0100
0001
0100
0010
1000
0001
0010
0100
,  // measure 34
1000
0000
0100
0010
0001
1000
0010
0001
,  // measure 35
0010
0100
1000
0100
0001
1000
0100
0010
,  // measure 36
0000
0000
0001
0100
0010
1000
0100
0001
,  // measure 37
0100
0010
1000
0010
0001
1000
0010
0100
,  // measure 38
0000
0000
0100
0010
1000
0001
0010
1000
,  // measure 39
0010
0100
0001
0100
1000
0001
0100
0010
,  // measure 40
0000
0000
1000
0100
0010
0001
0100
1000
,  // measure 41
0100
0000
0010
0000
0001
0000
0010
0000
0100
0000
0001
1000
0001
0000
0010
0000
,  // measure 42
0100
0000
1000
0010
0100
0010
1000
0001
,  // measure 43
0010
0000
0100
0000
0010
0000
0001
1000
0001
0000
0100
0000
0010
0000
1000
0000
,  // measure 44
0000
0000
0000
0000
0001
0100
0010
0100
0001
0000
1000
0000
0100
0000
0010
0000
,  // measure 45
0001
0000
1000
0000
0010
0000
0100
0001
0100
0000
0010
1000
0001
1000
0100
0010
,  // measure 46
0002
0000
0100
0103
0000
0010
1000
0000
,  // measure 47
2010
0000
0100
3100
0000
0010
0001
0000
,  // measure 48
1002
0000
0100
0103
0000
0010
1000
0000
,  // measure 49
0001
1000
0001
1000
0100
0010
0001
1000
0001
1000
0010
0100
0001
1000
0100
0010
,  // measure 50
0001
1000
0010
0100
0000
0001
0000
0010
,  // measure 51
0000
0000
0100
1000
0000
0001
0000
0100
,  // measure 52
0000
0000
0100
0010
0000
1000
0000
0100
,  // measure 53
0000
0000
0010
0001
0000
0100
0000
0010
,  // measure 54
0000
0000
200M
0M00
0000
00M0
0000
00M0
,  // measure 55
0000
0000
3002
00M0
0000
0M00
0000
0M00
,  // measure 56
0000
0003
0000
0000
,  // measure 57
0000
0000
0000
0000
,  // measure 58
1001
0000
0010
1000
0001
1000
0100
0000
,  // measure 59
1001
0000
0010
0001
1000
0001
0100
0010
,  // measure 60
1010
0000
1000
0100
0010
0000
0001
0000
,  // measure 61
0101
0000
0000
0000
0100
0000
0010
0000
1000
0000
0000
0100
0000
0000
0010
0000
,  // measure 62
0011
M000
0001
0100
1000
00M0
0100
0001
,  // measure 63
0010
0000
0M00
0000
1000
0000
0010
0000
0001
0000
0000
0000
0010
0000
0001
1000
,  // measure 64
0001
0100
0010
1000
0001
0010
0100
1000
,  // measure 65
0001
0100
0001
0100
0010
1000
0001
0100
0010
1000
0100
0010
M00M
0000
0000
0000
,  // measure 66
0001
0000
0000
0001
0000
0000
1000
0000
0000
1000
0000
0000
0100
0000
0000
0100
,  // measure 67
0000
0000
0010
0000
0000
0010
0000
0000
0002
0000
0000
1003
0000
0000
0010
0000
,  // measure 68
0100
0000
0000
0100
0000
0000
0001
0000
0000
0001
0000
0000
0010
0000
0000
0010
,  // measure 69
0000
0000
0100
0000
0000
0100
0000
0000
2000
0000
0000
3000
0001
0100
0010
1000
,  // measure 70
0001
0000
0000
0001
0000
0000
0100
0000
0000
0100
0000
0000
0010
0000
0000
0010
,  // measure 71
0000
0000
1000
0000
0000
1000
0000
0000
0200
0000
0000
0310
0000
0000
0001
1000
,  // measure 72
0010
0000
0000
0010
0000
0000
0100
0000
0000
0100
0000
0000
0001
0000
0000
0001
,  // measure 73
0000
0000
1000
0000
0000
1000
0000
0000
0200
0000
0000
0310
0001
1000
0010
0100
,  // measure 74
0001
0000
0100
0001
0100
0000
0010
0000
1000
0001
1000
0000
0100
0000
0010
0001
,  // measure 75
0010
0000
0001
0000
0100
0000
0020
0000
1030
0000
0001
0010
0100
0000
1000
0000
,  // measure 76
0001
0000
0100
0001
0100
0000
0001
0000
1000
0001
1000
0000
0100
0000
0010
0001
,  // measure 77
0010
0000
0001
0000
0100
0010
1000
0000
0001
0000
0010
0100
1000
0001
0100
0010
,  // measure 78
1000
0000
0100
1000
0100
0000
0010
0000
0001
1000
0001
0000
0100
0000
0010
1000
,  // measure 79
0010
0000
1000
0000
0100
0000
0020
0000
0031
0000
0100
0001
1000
0100
0010
0001
,  // measure 80
1000
0000
0010
1000
0010
0000
0100
0000
0001
1000
0001
0000
0010
0000
0100
1000
,  // measure 81
0100
0000
1000
0000
0010
0000
0100
0001
1000
0010
0100
0001
1000
0100
0010
0001
,  // measure 82
1000
0000
0001
0100
0000
0010
0100
0000
1000
0100
0000
0010
1000
0000
0001
0010
,  // measure 83
0000
0100
1000
0000
0001
0100
0000
0010
2000
0000
3001
0100
0001
0100
0010
1000
,  // measure 84
0001
0000
1000
0100
0000
0010
0100
0000
0001
0100
0000
0010
0001
0000
1000
0010
,  // measure 85
0000
0100
0001
0000
1000
0100
0000
0010
0002
0000
1003
0010
1000
0010
0100
0001
,  // measure 86
1000
0000
0001
0010
0000
0100
0010
0000
1000
0010
0000
0100
1000
0000
0001
0100
,  // measure 87
0000
0010
1000
0000
0001
0010
0000
0100
2000
0000
3010
0100
0001
1000
0100
0010
,  // measure 88
0001
0000
1000
0010
0000
0100
0010
0000
0001
0010
0000
0100
0001
0000
1000
0100
,  // measure 89
0000
0010
0001
0000
1000
0010
0000
0100
0002
0000
0013
0100
1000
0001
0100
0010
,  // measure 90
1000
0000
0100
1000
0100
0000
0010
0000
0001
1000
0001
0000
0100
0000
0010
1000
,  // measure 91
0010
0000
1000
0000
0100
0000
0020
0000
0031
0000
1000
0010
0100
0000
0001
0000
,  // measure 92
1000
0000
0010
1000
0010
0000
0100
0000
0001
1000
0001
0000
0010
0000
0100
1000
,  // measure 93
0100
0000
1000
0000
0010
0000
0200
0000
0301
0000
1000
0001
1000
0001
0010
0100
,  // measure 94
1000
0010
0100
0100
0001
1000
1000
0100
,  // measure 95
0010
0000
0010
0000
0001
0000
1000
0000
0010
1000
0001
0010
0100
0000
1000
0000
,  // measure 96
0001
0100
0010
0010
1000
0001
0001
0010
,  // measure 97
0100
0000
0100
0000
1000
0000
0001
0100
0010
1000
0001
0100
0001
1000
0100
0010
,  // measure 98
0002
0003
0000
0000
;

//---------------dance-single - NAOKI----------------
#NOTES:
     dance-single:
     NAOKI:
     Beginner:
     3:
     0.190,0.273,0.016,0.048,0.000:
0000
0000
0000
0000
,
0000
0000
0000
0000
,
0000
0000
0000
0000
,
0000
0000
0000
0000
,
0000
0000
0000
0000
,
0000
0000
0000
0000
,
0000
0000
0000
0000
,
0000
0000
0000
0000
,
0000
0000
0000
0000
,
1000
0000
1000
0000
,
1000
0000
1000
0000
,
0001
0000
0001
0000
,
0001
0000
0001
0000
,
0100
0000
0100
0000
,
0010
0000
0010
0000
,
1000
0000
0001
0000
,
0010
0000
0000
0000
,
0100
0000
0100
0000
,
1000
0000
1000
0000
,
0001
0000
0001
0000
,
0100
0000
0100
0000
,
0010
0100
0010
0000
,
1000
0001
1000
0000
,
0100
0010
0100
0000
,
0010
0000
0000
0000
,
0002
1000
0000
1000
,
0000
1000
0000
1000
,
0000
1000
0000
1000
,
0000
1000
0000
1003
,
0200
0010
0000
0010
,
0000
0010
0000
0010
,
0000
0010
0000
0010
,
0300
0000
0000
0000
,
1000
0000
1000
0000
,
0001
0000
0001
0000
,
0100
0000
0100
0000
,
0010
0000
0010
0000
,
1000
0000
1000
0000
,
0001
0000
0001
0000
,
0010
0000
0010
0000
,
0100
0000
1000
0000
,
0001
0000
0001
0000
,
1000
0000
1000
0000
,
0010
0000
0010
0000
,
0100
0000
0100
0000
,
0001
0000
0010
0100
,
0010
0000
0001
1000
,
0001
0000
0100
0010
,
0100
0000
0001
0000
,
2002
0000
0000
0000
,
0000
0000
0000
3003
,
0000
0000
0000
0000
,
0000
0000
0000
0000
,
0000
0000
0000
0000
,
0000
0000
0000
0000
,
0000
0000
0000
0000
,
0000
0000
0000
0000
,
1001
0000
0000
0000
,
0001
0000
0000
0000
,
1000
0000
0000
0000
,
0010
0000
0100
0000
,
0001
0000
1000
0000
,
0100
0000
0010
0000
,
0001
1000
0001
1000
,
0020
0000
0000
0030
,
0100
0000
0100
0000
,
0001
0000
0001
0000
,
0010
0000
0010
0000
,
0100
0000
0100
0000
,
1000
0000
1000
0000
,
0010
0000
0010
0000
,
0100
0000
0100
0000
,
0001
0000
0001
0000
,
0000
1000
0000
1000
,
0000
1000
0000
0000
,
0000
0001
0000
0001
,
0000
0001
0000
0000
,
0000
0100
0000
0100
,
0000
0100
0000
0000
,
0000
0010
0000
0010
,
0000
0010
0000
0000
,
0100
0000
0100
0000
,
0010
0000
0010
0000
,
1000
0000
1000
0000
,
0001
0000
0001
0000
,
0010
0000
0010
0000
,
0100
0000
0100
0000
,
1000
0000
1000
0000
,
0001
0000
0001
0000
,
0000
0100
0000
0100
,
0000
0100
0000
0000
,
0000
0010
0000
0010
,
0000
0010
0000
0000
,
0000
1000
0000
1000
,
0000
1000
0000
0000
,
0000
0001
0000
0001
,
0000
0001
1000
0010
,
0200
0000
0300
0000
;

//---------------dance-single - NAOKI----------------
#NOTES:
     dance-single:
     NAOKI:
     Easy:
     8:
     0.360,0.428,0.072,0.232,0.000:
0000
0000
0000
0000
,
0000
0000
0000
0000
,
0000
0000
0000
0000
,
0000
0000
0000
0000
,
0000
0000
0000
0000
,
0000
0000
0000
0000
,
0000
0000
0000
0000
,
0000
0000
0000
0000
,
0000
0000
0000
0000
,
1000
1000
1000
1000
,
1000
1000
1000
1000
,
0001
0001
0001
0001
,
0001
0001
0001
0001
,
0100
0100
0100
0100
,
0010
0010
0010
0010
,
1000
1000
0001
0001
,
0010
0000
0000
0000
,
0100
1000
0001
0100
,
0010
1000
0100
0100
,
0010
0001
1000
0010
,
0100
0001
0010
0010
,
0100
2000
0010
0000
,
3001
0200
0010
0000
,
0301
0002
0010
0000
,
1003
0200
0010
0000
,
1300
0010
1000
0100
,
1000
0010
0100
0100
,
0001
0010
0001
0100
,
0001
0010
0100
0100
,
1000
0020
0001
0000
,
0130
0002
1000
0000
,
0013
0020
1000
0000
,
0230
2300
0001
3010
,
0100
0001
1000
0100
,
0010
0001
0100
0100
,
0010
1000
0001
0010
,
0100
1000
0010
0010
,
0100
0001
0010
0100
,
1000
0001
0100
0100
,
0010
1000
0100
0010
,
0001
1000
0010
0010
,
0100
0001
1000
0001
,
0010
1000
0001
1000
,
0010
0001
1000
0001
,
0100
1000
0001
1000
,
0100
0100
0010
0000
,
0100
0100
0010
0000
,
0100
0100
0010
0000
,
1000
0100
0010
0001
,
2002
0000
0000
0000
,
0000
0000
0000
0000
,
0000
0000
0000
0000
,
0000
0000
0000
3003
,
0000
0000
0000
0000
,
0000
0000
0000
0000
,
0000
0000
0000
0000
,
0000
0000
0000
0000
,
1001
0000
0000
0000
,
0110
0000
0000
0000
,
1010
0000
0000
0000
,
0101
0000
0000
0000
,
1100
0000
0011
0000
,
1001
0000
0110
0000
,
0100
0001
0010
0100
,
2000
0001
0001
3001
,
0100
0100
0010
1000
,
0001
0010
0100
0000
,
0010
0010
0100
1000
,
0001
0100
0010
0000
,
0010
0010
0100
0001
,
1000
0100
0010
0000
,
0100
0100
0010
0001
,
1000
0010
0100
0000
,
0010
0000
2000
0000
0000
3002
0000
0000
,
0013
0100
1000
0010
,
0100
0000
0002
0000
0000
2003
0000
0000
,
3100
0010
0001
0100
,
0010
0000
2000
0000
0000
3002
0000
0000
,
0103
0010
1000
0100
,
0010
0000
0002
0000
0000
2003
0000
0000
,
3010
0100
0001
1000
,
0100
0100
0010
0001
,
1000
0010
0100
0000
,
0010
0010
0100
0001
,
1000
0100
0010
0000
,
0010
0010
0100
1000
,
0001
0100
0010
0000
,
0100
0100
0010
1000
,
0001
0010
0100
0000
,
0010
0000
0002
0000
0000
2003
0000
0000
,
3010
0100
0001
0010
,
0100
0000
2000
0000
0000
3002
0000
0000
,
0103
0010
1000
0100
,
0010
0000
0002
0000
0000
2003
0000
0000
,
3100
0010
0001
0100
,
0010
0000
2000
0000
0000
3002
0000
0000
,
0013
0100
1000
0001
,
0200
0300
0000
0000
;

//---------------dance-single - NAOKI----------------
#NOTES:
     dance-single:
     NAOKI:
     Medium:
     12:
     0.478,0.661,0.136,0.216,0.160:
0000
0000
0000
0000
,
0000
0000
0000
0000
,
0000
0000
0000
0000
,
0000
0000
0000
0000
,
0000
0000
0000
0000
,
0000
0000
0000
0000
,
0000
0000
0000
0000
,
0000
0000
0000
0000
,
0000
0000
0000
0000
,
0010
0010
0100
0100
,
0001
0001
1000
0100
,
0010
0010
0100
0100
,
1000
1000
0001
0100
,
0010
1000
0100
0010
,
0001
0100
1000
0100
,
0010
1000
0001
0010
,
0100
0000
0000
0000
,
1000
0001
0010
0000
0100
0000
1000
0000
,
0001
1000
0010
0000
0100
0000
0001
0000
,
1000
0001
0100
0000
0010
0000
1000
0000
,
0001
1000
0100
0000
0010
0000
0001
0000
,
1000
0010
1000
0010
1000
0000
0100
0000
,
0010
0001
0010
0001
0010
0000
0100
0000
,
1000
0001
1000
0001
1000
0000
0010
0000
,
0100
0010
0100
0010
0100
0000
0000
0000
,
0001
0012
1003
2010
,
3100
1002
0103
0210
,
0301
0102
1003
2100
,
3010
1002
0103
0110
,
0001
0100
0001
0100
0001
0000
0010
0000
,
0100
1000
0100
1000
0100
0000
0010
0000
,
0001
1000
0001
1000
0001
0000
0100
0000
,
0010
0100
0001
0100
1000
0100
0010
0100
,
0001
0000
0010
0100
0000
1000
0000
0001
,
0000
0100
0000
0010
0000
1000
0100
0010
,
0000
0001
0100
0010
0000
1000
0000
0001
,
0000
0010
0000
0100
0000
1000
0010
0100
,
0000
0000
0001
0010
0000
0001
0000
1000
,
0000
0010
0000
0100
0000
0001
0010
0100
,
0000
1000
0010
0100
0000
0001
0000
1000
,
0000
0100
0000
0010
0000
0001
0100
0010
,
1000
0001
0010
0100
0000
1000
0000
0001
,
0000
0100
0000
0010
1000
0001
0010
0100
,
0000
0000
1000
0010
0100
0001
0000
1000
,
0000
0100
0000
0010
0001
0000
1000
0010
,
0100
0000
0100
0001
0000
0001
0010
0000
,
0100
0000
0100
1000
0000
1000
0010
0000
,
0100
0000
0010
1000
0000
1000
0100
0000
,
0010
0001
1000
0010
,
0220
0000
0000
0000
,
0000
0000
0000
0000
,
0000
0000
0000
0000
,
0000
0000
0000
0330
,
0000
0000
0000
0000
,
0000
0000
0000
0000
,
0000
0000
0000
0000
,
0000
0000
0000
0000
,
1001
0000
0000
0000
,
0110
0000
0000
0000
,
1100
0000
0010
0000
,
0101
0000
0010
0000
,
1001
0100
0110
0001
,
1010
1000
0011
0100
,
1000
0010
0100
0010
1000
0001
0010
0001
,
2000
0010
0001
3100
,
0010
0000
0000
0010
0000
0000
0001
0000
0000
0001
0000
0000
1000
0000
0000
1000
,
0000
0000
0010
0000
0000
0100
0000
0000
0020
0000
0000
1030
0000
0000
0000
0000
,
0010
0000
0000
0010
0000
0000
1000
0000
0000
1000
0000
0000
0001
0000
0000
0001
,
0000
0000
0010
0000
0000
0100
0000
0000
0020
0000
0000
0031
0000
0000
0000
0000
,
0100
0000
0000
0100
0000
0000
0001
0000
0000
0001
0000
0000
1000
0000
0000
1000
,
0000
0000
0100
0000
0000
0010
0000
0000
0200
0000
0000
1300
0000
0000
0000
0000
,
0100
0000
0000
0100
0000
0000
1000
0000
0000
1000
0000
0000
0001
0000
0000
0001
,
0000
0000
0100
0000
0000
0010
0000
0000
0200
0000
0000
0301
0000
0000
0000
0000
,
2000
0000
0010
0000
0000
0001
0000
0000
,
3100
0000
0010
0001
0000
1000
0010
0100
,
0002
0000
0010
0000
0000
1000
0000
0000
,
0103
0000
0010
1000
0000
0001
0100
0010
,
2000
0000
0100
0000
0000
0001
0000
0000
,
3010
0000
0100
0001
0000
1000
0100
0010
,
0002
0000
0100
0000
0000
1000
0000
0000
,
0013
0000
0100
0000
1000
0000
0001
0100
,
0010
0000
0000
0010
0000
0000
1000
0000
0000
1000
0000
0000
0001
0000
0000
0001
,
0000
0000
0010
0000
0000
0100
0000
0000
0020
0000
0000
0031
0000
0000
0000
0000
,
0010
0000
0000
0010
0000
0000
0001
0000
0000
0001
0000
0000
1000
0000
0000
1000
,
0000
0000
0010
0000
0000
0100
0000
0000
0020
0000
0000
1030
0000
0000
0000
0000
,
0100
0000
0000
0100
0000
0000
1000
0000
0000
1000
0000
0000
0001
0000
0000
0001
,
0000
0000
0100
0000
0000
0010
0000
0000
0200
0000
0000
0301
0000
0000
0000
0000
,
0100
0000
0000
0100
0000
0000
0001
0000
0000
0001
0000
0000
1000
0000
0000
1000
,
0000
0000
0100
0000
0000
0010
0000
0000
0200
0000
0000
1300
0000
0000
0000
0000
,
0002
0000
0010
0000
0000
1000
0000
0000
,
0103
0000
0010
1000
0000
0001
0010
0100
,
2000
0000
0010
0000
0000
0001
0000
0000
,
3100
0000
0010
0001
0000
1000
0010
0100
,
0002
0000
0100
0000
0000
1000
0000
0000
,
0013
0000
0100
1000
0000
0001
0100
0010
,
2000
0000
0100
0000
0000
0001
0000
0000
,
3010
0000
0100
0001
1000
0100
0010
0001
,
0200
0300
0000
0000
;

//---------------dance-single - NAOKI----------------
#NOTES:
     dance-single:
     NAOKI:
     Hard:
     14:
     0.637,0.700,0.160,0.176,0.212:
0000
0000
0000
0000
,
0000
0000
0000
0000
,
0000
0000
0000
0000
,
0000
0000
0000
0000
,
0000
0000
0000
0000
,
0000
0000
0000
0000
,
0000
0000
0000
0000
,
0000
0000
0000
0000
,
0000
0000
0000
0000
,
1000
0100
0010
0100
1000
0001
0100
0001
,
1000
0010
0100
0010
1000
0100
0010
0001
,
0000
0000
0001
0100
0010
0100
0001
1000
,
0100
1000
0001
0010
0100
0010
0001
1000
,
0000
0000
1000
0010
0100
0010
1000
0001
,
0010
0001
1000
0100
0010
0100
1000
0001
,
0000
0000
0001
0010
0100
1000
0001
0200
,
0000
0020
0000
0330
0000
0000
0000
0000
,
0110
0000
0100
0001
0010
0000
1100
0000
,
0100
0000
0010
0001
1000
0000
1010
0000
,
0100
0000
0001
0010
0100
0000
1100
0000
,
0010
0000
0001
1000
0010
0000
0100
0000
,
0001
1000
0010
1000
0001
0000
0010
0000
,
0100
1000
0001
0100
0010
0000
1000
0000
,
0001
0010
0100
0010
0001
0000
1000
0000
,
0001
0100
1000
0100
0001
0000
0100
0000
,
0010
1002
0013
2100
,
3001
0120
1030
0201
,
0310
2010
3100
0011
,
1000
0001
0010
0001
1000
0000
0100
0000
,
0010
0001
1000
0010
0100
0000
0001
0000
,
1000
0100
0010
0100
1000
0000
0001
0000
,
1000
0010
0001
0010
1000
0000
0010
0000
,
0100
0001
1000
0100
0010
0001
0100
0000
,
1010
0000
0001
0100
0010
0100
1000
0100
,
0010
1000
0001
0010
0100
1000
0010
1000
,
0000
0000
1000
0100
0010
0100
0001
0100
,
0010
0001
1000
0010
0100
0001
0010
0001
,
0000
0000
0001
1000
0010
1000
0001
1000
,
0100
0010
0001
1000
0001
0100
0010
1000
,
0000
0000
1000
0010
0100
0010
0100
0010
,
0001
0010
0001
0010
1000
0100
0010
0001
,
1100
0000
0001
0010
0100
0010
1000
0010
,
0100
1000
0001
0100
0010
1000
0100
1000
,
0000
0000
1000
0010
0100
0010
0001
0010
,
0100
0001
1000
0100
0010
0001
1000
0010
,
0100
0000
0100
0001
0000
0001
0010
0000
,
0100
0000
0100
1000
0000
1000
0010
0000
,
0100
0000
0001
0010
0000
0010
0100
0000
,
1000
0001
0100
0010
1000
0001
0010
0100
,
2002
0000
0000
0000
,
0000
0000
0000
0000
,
0000
0000
0000
0000
,
0000
0000
0000
0000
,
0000
0000
0000
3003
,
0000
0000
0000
0000
,
0000
0000
0000
0000
,
0000
0000
0000
0000
,
1001
0100
0000
0100
,
1001
0010
0000
0010
,
0101
1000
0000
0010
,
1100
0000
0000
0000
0001
0000
0000
0000
0010
0000
0000
0100
0000
0000
1000
0000
,
0002
0103
2100
3001
,
0102
1003
2010
3100
,
0010
0001
1000
0010
0100
0001
0010
0100
,
1000
0001
1000
0001
1000
0001
1000
0001
1000
0001
1000
0001
0000
0000
0000
0000
,
0010
0000
0000
0010
0000
0000
0001
0000
0000
0001
0000
0000
0100
0000
0000
0100
,
0000
0000
0010
0000
0000
1000
0000
0000
0200
0000
0000
0310
0000
0000
0000
0000
,
0100
0000
0000
0100
0000
0000
1000
0000
0000
1000
0000
0000
0010
0000
0000
0010
,
0000
0000
0100
0000
0000
0001
0000
0000
0020
0000
0000
0030
0100
1000
0001
0100
,
0010
0000
0000
0010
0000
0000
1000
0000
0000
1000
0000
0000
0100
0000
0000
0100
,
0000
0000
0010
0000
0000
0001
0000
0000
0200
0000
0000
0310
0000
0000
1000
0001
,
0100
0000
0000
0100
0000
0000
0001
0000
0000
0001
0000
0000
0010
0000
0000
0010
,
0000
0000
0100
0000
0000
1000
0000
0000
0020
0000
0000
0030
0100
0001
1000
0100
,
0010
0001
0100
0010
1000
0100
0010
0001
,
0100
0010
1000
0100
1000
0010
0100
0001
,
1000
0010
0001
1000
0100
0001
1000
0010
,
0001
1000
0100
0001
1000
0001
0010
0100
,
1000
0100
0010
0001
0100
0010
1000
0100
,
0010
0001
0100
0010
1000
0100
0010
0001
,
0001
0010
0100
0100
0010
1000
1000
0010
,
0100
0100
0010
0001
0001
0010
0001
0100
,
0010
0000
0000
0010
0000
0000
1000
0000
0000
1000
0000
0000
0100
0000
0000
0100
,
0000
0000
0010
0000
0000
0001
0000
0000
0200
0000
0000
0310
0000
0000
0000
0000
,
0100
0000
0000
0100
0000
0000
0001
0000
0000
0001
0000
0000
0010
0000
0000
0010
,
0000
0000
0100
0000
0000
1000
0000
0000
0020
0000
0000
0030
0100
0001
1000
0100
,
0010
0000
0000
0010
0000
0000
0001
0000
0000
0001
0000
0000
0100
0000
0000
0100
,
0000
0000
0010
0000
0000
1000
0000
0000
0200
0000
0000
0310
0000
0000
0001
1000
,
0100
0000
0000
0100
0000
0000
1000
0000
0000
1000
0000
0000
0010
0000
0000
0010
,
0000
0000
0100
0000
0000
0001
0000
0000
0020
0000
0000
0030
0100
1000
0001
0100
,
0010
1000
0100
0010
0001
0100
0010
1000
,
0100
0010
0001
0100
0001
0010
0100
1000
,
0001
0100
1000
0001
0010
1000
0001
0100
,
1000
0001
0010
1000
0001
1000
0100
0010
,
0001
0100
0100
0010
1000
1000
0100
0010
,
0010
0001
1000
0010
0100
0001
0010
0100
,
1000
0010
0010
0100
0001
0001
0010
0100
,
0100
1000
0001
0100
0010
1000
0001
0010
,
0200
0300
0000
0000
;
