#TITLE:Maybe Stream;
#SUBTITLE:;
#ARTIST:CHiNTOMO;
#TITLETRANSLIT:;
#SUBTITLETRANSLIT:;
#ARTISTTRANSLIT:;
#CREDIT:;
#BANNER:MaybeStream-bn.png;
#BACKGROUND:MaybeStream-bg.png;
#LYRICSPATH:;
#CDTITLE:NAOKI_cdtitle.png;
#MUSIC:Maybe Stream.ogg;
#OFFSET:-0.700;
#SAMPLESTART:73.883;
#SAMPLELENGTH:12.000;
#SELECTABLE:YES;
#BPMS:0.000=105.000;
#STOPS:;
#BGCHANGES:;

//---------------dance-single - NAOKI----------------
#NOTES:
     dance-single:
     NAOKI:
     Challenge:
     13:
     0.530,0.522,0.017,0.109,0.389: // measure 1
0000
0000
0000
0000
,  // measure 2
0000
0000
0000
0000
,  // measure 3
0000
0000
0000
0000
,  // measure 4
0000
0000
0000
0000
,  // measure 5
1000
0001
0010
0001
1000
0001
0100
0001
,  // measure 6
1000
0000
0001
0000
0010
0000
0001
0000
1000
0000
0010
0100
0001
0000
1000
0000
,  // measure 7
0001
1000
0100
1000
0001
1000
0010
1000
,  // measure 8
0002
0000
0000
0000
1000
0000
0000
0000
1003
0000
0010
0100
0010
0000
0000
0000
,  // measure 9
1000
0010
0100
0010
1000
0100
0010
0100
,  // measure 10
1000
0000
0010
0000
0100
0000
0001
0000
1000
0000
0100
0010
0001
0000
1000
0000
,  // measure 11
0001
0100
0010
0100
0001
0010
0100
0010
,  // measure 12
0001
0000
0100
0000
0010
0000
1000
0100
0010
0000
0001
0100
0010
0000
1000
0000
,  // measure 13
0100
0000
0010
0000
0001
0100
0010
0100
0001
0000
1000
0000
0001
0010
0100
0010
,  // measure 14
0001
0000
1000
0000
0010
0100
0001
0100
0010
0000
1000
0100
0010
0000
0001
0000
,  // measure 15
0100
0000
0010
0000
1000
0100
0010
0100
1000
0000
0001
0000
1000
0010
0100
0010
,  // measure 16
1000
0000
0001
0000
0010
0100
1000
0100
0010
0000
0001
0100
0010
0000
1000
0000
,  // measure 17
0100
0010
0001
0100
0000
0010
1000
0100
,  // measure 18
0000
0010
0001
1000
0010
0100
0100
0001
,  // measure 19
0010
0100
1000
0010
0000
0100
0001
0010
,  // measure 20
0000
0000
0100
0000
1000
0000
0001
0000
0100
0000
0010
0000
1000
0100
0010
0001
,  // measure 21
0100
0010
1000
0100
0000
0010
0001
0100
,  // measure 22
0000
0010
1000
0001
0010
0100
0100
1000
,  // measure 23
0010
0100
0001
0010
0000
0100
1000
0010
,  // measure 24
0000
0100
0001
1000
0100
0010
0001
0100
,  // measure 25
0110
0000
0010
0000
1000
0100
0010
0100
2000
0000
0001
0000
3001
0000
0100
0000
,  // measure 26
0010
0000
1000
0000
0100
0010
0001
0010
0100
0000
1000
0000
0010
0000
0100
0000
,  // measure 27
0001
0000
1000
0000
0001
0010
0100
0010
0002
0000
1000
0000
1003
0000
0010
0000
,  // measure 28
0100
0000
0001
0000
1000
0100
0010
0100
1000
0000
0010
0000
0100
0001
0010
0100
,  // measure 29
1000
0000
0001
0000
1000
0010
0100
0010
2000
0000
0001
0000
3001
0000
0010
0000
,  // measure 30
0100
0000
1000
0000
0010
0100
0001
0100
0010
0000
1000
0000
0100
0000
0010
0000
,  // measure 31
0001
0000
1000
0000
0001
0100
0010
0100
0002
0000
1000
0000
1003
0000
0100
0000
,  // measure 32
0000
0010
0001
0100
0000
0020
0230
0320
,  // measure 33
1030
0000
0001
0000
1000
0100
0010
0000
0001
0000
1000
0000
0010
0100
0001
0000
,  // measure 34
1000
0000
0100
0000
0010
0001
1000
0000
0020
0000
0030
0100
0001
1000
0100
0010
,  // measure 35
0001
0000
1000
0000
0001
0100
0010
0000
1000
0000
0001
0000
0010
0100
1000
0000
,  // measure 36
0010
0000
0000
0000
0100
0000
0000
0000
0001
0000
0100
0000
0010
0000
1000
0001
1000
0000
0100
0000
0010
0000
0001
0000
1000
0000
0010
0000
0100
0000
0001
0000
,  // measure 37
0010
0000
0001
0000
0100
0010
1000
0000
0001
0000
1000
0000
0100
0010
0001
0000
,  // measure 38
1000
0000
0010
0000
0100
0001
1000
0000
0200
0000
0300
0010
0001
1000
0010
0100
,  // measure 39
0001
0000
1000
0000
0100
0010
0001
0000
1000
0000
0001
0000
0100
0010
1000
0000
,  // measure 40
2001
0000
3001
0000
0010
0001
0100
0000
0010
1000
0100
0010
0001
1000
0010
0100
,  // measure 41
0001
0000
1000
0000
0100
1000
0100
0000
0010
0000
0001
0000
0100
0001
0100
0000
,  // measure 42
0010
0000
1000
0000
0001
1000
0001
0000
0020
0000
0030
0100
1000
0001
0100
0010
,  // measure 43
1000
0000
0001
0000
0010
0001
0010
0000
0100
0000
1000
0000
0010
1000
0010
0000
,  // measure 44
0100
0000
0000
0000
0001
0000
0000
0000
1000
0000
0100
0000
0010
0000
0001
1000
0001
0000
0100
0000
0010
0000
1000
0000
0001
0000
0010
0000
0100
0000
1000
0000
,  // measure 45
0001
0000
1000
0000
0010
1000
0010
0000
0100
0000
0001
0000
0010
0001
0010
0000
,  // measure 46
0100
0000
1000
0000
0001
1000
0001
0000
0200
0000
0300
0010
1000
0001
0010
0100
,  // measure 47
1000
0000
0001
0000
0100
0001
0100
0000
0010
0000
1000
0000
0100
1000
0100
0000
,  // measure 48
0010
0000
0001
0000
1000
0001
1000
0000
0001
0100
0010
1000
0001
0010
0100
1000
;

//---------------dance-single - NAOKI----------------
#NOTES:
     dance-single:
     NAOKI:
     Beginner:
     2:
     0.154,0.180,0.000,0.008,0.000:
0000
0000
0000
0000
,
0000
0000
0000
0000
,
0000
0000
0000
0000
,
0000
0000
0000
0000
,
1000
1000
1000
0000
,
0001
0001
0001
0000
,
0100
0100
0100
0000
,
0010
0010
0010
0000
,
1000
0100
1000
0000
,
0001
0100
0001
1000
,
0001
0100
0001
0000
,
1000
0100
1000
0001
,
1000
0010
1000
0000
,
0001
0010
0001
1000
,
0001
0010
0001
0000
,
1000
0010
1000
0000
,
0010
0000
0010
0000
,
0100
0000
0100
0000
,
0001
0000
0001
0000
,
1000
0000
1000
0000
,
0100
0000
0100
0000
,
0010
0000
0010
0000
,
0001
0000
0001
0000
,
2000
0000
3000
0000
,
0010
0010
0100
0000
,
0001
0001
1000
0000
,
0010
0010
0100
0000
,
1000
1000
0001
0000
,
0100
0010
1000
0000
,
0001
0010
0100
0000
,
1000
0001
0100
0000
,
0010
0010
0100
0000
,
0001
1000
0100
0010
,
0001
0100
0010
0000
,
1000
0100
0010
0001
,
1000
0010
0100
0000
,
0001
0001
1000
1000
,
0100
0010
0001
1000
,
0010
0000
0100
0000
,
0001
0000
1000
0100
,
0010
0000
0001
0100
,
0010
0000
1000
0100
,
0010
0000
0001
0000
,
1000
0010
0100
0001
,
0010
0000
0100
0000
,
1000
0001
0100
0010
,
1000
0000
0100
0000
,
0010
0000
0001
1000
;

//---------------dance-single - NAOKI----------------
#NOTES:
     dance-single:
     NAOKI:
     Medium:
     8:
     0.281,0.301,0.017,0.126,0.000:
0000
0000
0000
0000
,
0000
0000
0000
0000
,
0000
0000
0000
0000
,
0000
0000
0000
0000
,
0010
1000
0001
0010
,
0100
1000
0010
0010
,
0100
0001
1000
0100
,
0010
0001
0200
0300
,
0010
0000
1000
0001
0010
0000
0010
0001
,
1000
0000
0010
0000
0100
0001
1000
0100
,
0010
0000
0001
1000
0010
0000
0010
1000
,
0001
0000
0010
0000
0100
1000
0001
1000
,
0100
0000
1000
0001
0100
0000
0100
0001
,
1000
0000
0100
0000
0010
0001
1000
0010
,
0100
0000
0001
1000
0100
0000
0100
1000
,
0001
0100
0010
1000
,
1001
0001
0100
0100
,
0010
0000
0010
0000
1000
0001
0010
0000
,
0100
0100
1000
1000
,
0010
0000
0010
0000
0100
0001
1000
0100
,
0010
0010
0001
0001
,
0100
0000
0100
0000
0010
1000
0001
0000
,
1000
1000
0100
0100
,
0010
0001
1000
0010
0000
0100
0001
1000
,
0100
0010
0002
1003
,
0010
0000
0100
0001
0000
1000
0100
0000
,
0010
0100
2000
3001
,
0100
0000
0010
1000
0000
0001
0100
0000
,
0010
0100
0002
1003
,
0100
0000
0010
0001
0000
1000
0010
0000
,
0100
0010
2000
3001
,
0010
0100
2002
3003
,
0001
0000
0100
0010
2000
0000
3100
0010
,
0002
0000
1003
0010
0100
0000
0001
0000
,
1000
0000
0100
0010
0002
0000
0103
0010
,
2000
0000
3001
0010
0100
0000
1000
0001
,
1000
0000
0010
0100
0002
0000
0013
0100
,
2000
0000
3001
0100
0010
0000
1000
0000
,
0001
0000
0010
0100
2000
0000
3010
0100
,
0002
0000
1003
0100
0010
0000
0001
1000
,
0001
0100
0001
0010
,
0001
0000
0100
0000
0001
0010
0100
0000
,
1000
0010
1000
0100
,
1000
0000
0010
0000
0100
0001
1000
0100
,
0010
0100
1000
0010
,
1000
0000
0100
0000
1000
0010
0100
0000
,
0001
0010
0001
0100
,
0001
0000
0010
0000
0100
1000
0001
0100
;

//---------------dance-single - NAOKI----------------
#NOTES:
     dance-single:
     NAOKI:
     Easy:
     5:
     0.185,0.180,0.008,0.042,0.000:
0000
0000
0000
0000
,
0000
0000
0000
0000
,
0000
0000
0000
0000
,
0000
0000
0000
0000
,
0010
1000
0001
1000
,
0100
1000
0010
0010
,
0100
0001
1000
0001
,
0010
0000
0100
0000
,
1000
0010
0100
0010
,
1000
0100
0010
0001
,
0001
0100
0010
0100
,
0001
0010
0100
1000
,
0100
0010
0001
0100
,
0010
1000
0010
0100
,
0001
1000
0100
0010
,
0001
0000
1000
0000
,
0010
0100
0000
0100
,
0001
1000
0000
1000
,
0100
0010
0000
0010
,
0001
0100
0000
0010
,
1000
0100
0000
0100
,
0010
0001
0000
0001
,
1000
0010
0000
0010
,
0100
0001
0000
1000
,
0100
0010
0002
0003
,
1000
0010
0100
0001
,
0010
0100
2000
3000
,
0001
0010
0100
1000
,
0010
0100
0002
0003
,
1000
0100
0010
0001
,
0100
0010
2000
3000
,
0001
0010
0200
0300
,
0010
0001
0100
1000
,
0100
0001
0010
1000
,
0100
0001
0010
1000
,
0010
0001
0100
0100
,
0010
1000
0100
0001
,
0100
1000
0010
0001
,
0100
1000
0010
0001
,
0010
1000
0100
0100
,
0010
0001
0000
0001
,
0000
0100
0000
0100
,
0010
1000
0000
1000
,
0000
0100
1000
0010
,
0100
0001
0000
0001
,
0000
0010
0000
0010
,
0100
1000
0000
1000
,
0000
0010
0100
0110
;

//---------------dance-single - NAOKI----------------
#NOTES:
     dance-single:
     NAOKI:
     Hard:
     11:
     0.385,0.341,0.008,0.050,0.000:
0000
0000
0000
0000
,
0000
0000
0000
0000
,
0000
0000
0000
0000
,
0000
0000
0000
0000
,
1000
0001
0010
0001
1000
0001
0100
0001
,
1000
0001
0010
0001
1000
0010
0100
0100
,
0001
1000
0010
1000
0001
1000
0100
1000
,
0001
0000
1000
0000
0001
0010
0100
0000
,
1000
0010
0100
0010
1000
0100
0010
0100
,
1000
0001
0100
0010
1000
0100
0010
0000
,
0001
0100
0010
0100
0001
0010
0100
0010
,
0001
1000
0010
0100
0001
0010
0100
0100
,
1000
0010
0100
0001
1000
0100
0010
0001
,
0100
0010
1000
0001
0010
0100
1000
0000
,
0001
0100
0010
1000
0001
0010
0100
1000
,
0010
0100
0001
1000
0100
0010
0001
0000
,
0100
0010
1000
0100
0000
0010
0001
1000
,
0000
0010
1000
0001
0000
0010
0100
1000
,
0010
0100
0001
0010
0000
0100
1000
0001
,
0000
0100
0001
1000
0000
0100
0010
0001
,
0100
0010
1000
0100
0000
0010
0001
1000
,
0000
0010
1000
0001
0000
0100
0010
1000
,
0100
0010
0001
0100
0000
0010
1000
0001
,
0000
0010
0001
1000
0000
0010
0100
0001
,
0010
0100
1000
0001
0200
0000
0310
1000
,
0100
0001
0100
1000
0010
0100
0001
1000
,
0100
0010
0001
1000
0020
0000
0130
0001
,
0010
1000
0010
0001
0100
0010
1000
1000
,
0100
0010
0001
1000
0020
0000
0130
0001
,
0010
0100
1000
0010
0001
0010
1000
0001
,
0010
0100
1000
0001
0200
0000
0310
1000
,
0100
0010
0001
0100
0220
0000
0330
0000
,
0001
1000
0100
0100
1000
0001
0100
0100
,
0001
1000
0100
0100
0010
0001
0100
0010
,
1000
0001
0100
0100
0001
1000
0100
0100
,
1000
0001
0100
0100
0010
1000
0100
0010
,
0001
1000
0010
0010
1000
0001
0010
0010
,
0001
1000
0010
0010
0100
0001
0010
0100
,
1000
0001
0010
0010
0001
1000
0010
0010
,
1000
0001
0010
0010
0100
1000
0010
0100
,
0001
1000
0100
0000
0001
1000
0100
0000
,
1000
0001
0100
0000
1000
0001
0100
0010
,
1000
0001
0010
0000
1000
0001
0010
0000
,
0001
1000
0010
0000
0001
1000
0010
0100
,
0001
1000
0010
0000
0001
1000
0010
0000
,
1000
0001
0010
0000
1000
0001
0010
0100
,
1000
0001
0100
0000
1000
0001
0100
0000
,
0001
1000
0100
0000
0001
1000
0100
0010
;
