#VERSION:0.83;
#TITLE:マツヨイナイトバグ;
#SUBTITLE:;
#ARTIST:COOL&CREATE feat.ビートまりおとまろん;
#TITLETRANSLIT:Matsuyoi Nightbug;
#SUBTITLETRANSLIT:;
#ARTISTTRANSLIT:beatMARIO x MARON;
#GENRE:;
#CREDIT:;
#MUSIC:Matsuyoi Nightbug.ogg;
#BANNER:Matsuyoi Nightbug - bn.png;
#BACKGROUND:Matsuyoi Nightbug - bg.png;
#CDTITLE:naokicdtitle.png;
#SAMPLESTART:54.414;
#SAMPLELENGTH:9.947;
#SELECTABLE:YES;
#OFFSET:1.165;
#BPMS:0.000=190.000;
#STOPS:;
#SPEEDS:0.000=1.000=0.000=0;
#SCROLLS:0.000=1.000;
#TICKCOUNTS:0.000=4;
#TIMESIGNATURES:0.000=4=4;
#LABELS:0.000=Song Start;
#COMBOS:0.000=1;
#ORIGIN:;
#PREVIEWVID:;
#JACKET:Matsuyoi Nightbug - jacket.png;
#CDIMAGE:;
#DISCIMAGE:;
#BGCHANGES:2.000=Matsuyoi Nightbug.avi=1.000=0=0=0=StretchNoLoop====,
99999.000=-nosongbg-=1.000=0=0=0=StretchNoLoop====
;
#FGCHANGES:;

//--------------- dance-single - NAOKI (DDR Style) ----------------
#NOTEDATA:;
#STEPSTYPE:dance-single;
#DESCRIPTION:NAOKI (DDR Style);
#DIFFICULTY:Challenge;
#METER:13;
#RADARVALUES:0,0,0,0,0;
#NOTES:
0000
0000
0000
0000
,
0000
0000
0000
0000
,
2000
0000
3001
0100
0010
0000
1000
0000
0002
0000
0013
0100
1000
0000
0001
0000
,
0102
1003
2100
3001
0100
0010
0001
0010
,
1000
0100
0100
0100
1000
0002
0100
2003
,
3010
0000
0000
0000
0000
0000
0100
0000
0000
0010
0000
0000
1000
0000
0000
0000
0000
0000
0001
0000
0000
0000
0000
0000
0012
0000
0000
0000
0000
0000
1003
0000
0010
0000
0100
0000
0001
0000
0000
0000
0000
0000
0000
0000
0000
0000
0000
0000
,
0002
0000
1003
0100
0010
0000
0001
0000
2000
0000
3010
0100
0001
0000
1000
0000
,
2100
0000
3001
0000
0102
0000
1003
0000
0100
0000
0010
0001
1000
0001
0100
0000
,
0110
0000
0000
0000
0000
0000
0001
1000
0100
0000
0000
0000
0000
0000
0110
0000
,
0000
0000
0010
0001
1000
0000
0010
0000
0110
0000
0000
0000
1001
0000
0000
0000
,
1000
0001
0020
0100
0032
0100
2003
3200
,
0010
1300
0012
1000
0203
0010
0001
0310
,
1000
0000
0000
0000
0000
0000
0000
0000
0001
0000
0000
0000
0000
0000
0000
0000
0010
0000
0000
0000
0000
0000
0000
0000
0010
0000
0000
0000
0000
0000
0000
0000
0010
0000
0000
0000
0000
0000
0000
0000
0001
0000
0000
0000
0000
0000
0000
0000
0200
0300
0000
0000
0000
0000
0000
0000
0200
0300
0000
0000
0000
0000
0000
0000
,
1000
0000
0000
0001
0000
0000
0200
0000
0000
0010
0000
0000
0301
0000
0000
1000
0100
1000
0001
0000
0000
0100
0000
0000
,
0010
1000
0002
0100
2003
0100
3001
0200
,
0010
0302
0023
0130
2000
0010
3200
0010
,
0302
0000
0103
0000
2000
0000
3001
0000
0200
0000
0010
0000
0302
0003
2000
3000
,
0000
1001
0000
0011
1001
0101
1010
1001
,
1100
0000
0000
0000
0002
0000
0103
0010
2000
0000
3001
0010
0200
0000
2300
0000
,
0001
0000
3010
0100
0002
0000
1003
0100
0020
0000
0031
0000
1100
0000
0000
0000
,
1000
0000
0001
0100
0010
0000
1000
0000
0002
0000
0100
0000
2003
0000
3200
0000
,
0010
2300
3002
0203
0010
0001
0010
0301
,
2020
0000
3030
0000
1002
0000
0013
0100
2000
0000
3001
0000
0100
0000
0010
1000
,
0002
0000
0000
0000
0000
0000
0013
0000
0000
0000
0000
0000
0110
0000
0000
0000
0000
0000
0000
0000
0000
0000
0000
0000
0100
0000
0000
0000
0000
0000
0010
0000
0000
0001
0000
0000
1000
0000
0010
0000
0100
0000
0001
0000
0000
0000
0000
0000
,
0012
0000
1003
0010
0100
0001
1000
0000
2010
0000
3001
0010
0100
0000
1000
0000
,
0011
1001
0101
0110
1010
1001
1100
0110
,
0012
0000
1003
0010
0200
0300
1000
0100
0020
0030
1000
0001
0010
0100
0002
0003
,
0100
0010
0001
1000
0020
0030
0100
0001
0020
0000
0130
0000
1001
0000
0000
0000
,
0001
0100
0001
0010
0001
0100
0001
1000
0100
1000
0010
1000
0100
1000
0001
0100
,
0001
0010
0100
1000
0001
0100
0010
1000
0100
1000
0001
1000
0010
0100
0001
1000
,
0100
0000
0000
0000
0010
0000
0001
0100
1000
0000
0100
0010
1000
0000
0001
0100
,
1000
0000
0100
0010
1000
0000
0001
0100
0020
0000
0130
0000
1001
0000
0000
0000
,
0010
1000
0100
1000
0010
1000
0100
1000
0001
0100
0001
0010
0001
0100
0001
1000
,
0100
1000
0010
0100
1000
0100
0010
1000
0002
0000
0010
0000
0003
0000
0000
0000
,
1001
0000
0001
0100
0020
0030
0001
0010
0200
0300
0001
1000
0100
0010
2000
3000
,
0010
0100
1000
0001
0200
0300
0010
1000
0200
0000
0310
0000
1001
0000
0000
0000
,
1000
0010
0100
0001
1000
0100
0010
0001
0100
0010
1000
0001
0010
0100
1000
0001
,
0100
0001
1000
0100
0010
0001
1000
0001
0200
0000
0310
1000
0100
0000
1000
0000
,
2001
0000
3010
0100
0001
0000
1000
0100
0001
0000
0100
0010
0001
0000
1000
0010
,
0001
0000
0000
0000
0000
0000
0010
0000
0000
0100
0000
0000
0001
0000
0000
0000
0000
0000
1000
0000
0000
0100
0000
0000
0010
0000
0001
0000
0010
0000
0001
0000
0000
1000
0000
0000
0010
0000
0000
0000
0000
0000
0100
0000
0000
0000
0000
0000
,
0101
0000
0010
1000
0001
0000
0011
0000
0010
0100
1000
0000
1010
0000
0000
0000
,
2001
0000
0000
0000
0000
0000
0000
0000
0000
0000
0000
0000
0000
0000
0000
0000
0000
0000
0000
0000
0000
0000
0000
0000
3100
0000
0000
0000
0000
0000
0000
0000
0000
0000
0000
0000
0100
0000
0000
0000
0000
0000
0000
0000
0000
0000
0000
0000
0100
0000
0000
0000
0000
0000
0000
0000
0000
0000
0000
0000
0000
0000
0000
0000
0000
0000
0000
0000
0000
0000
0000
0000
0010
0000
0000
0000
0000
0000
0000
0000
0000
0000
0000
0000
0001
0000
0000
0000
0000
0000
0000
0000
0000
0000
0000
0000
1000
0000
0000
0000
0000
0000
0000
0000
0000
0000
0010
0000
0000
0000
0000
0000
0000
0000
0000
0100
0000
0000
0000
0000
0000
0000
0000
0000
0000
0001
0000
0000
0000
0000
0000
0000
0000
0000
1000
0000
0000
0000
0000
0000
0000
0000
0000
0000
0100
0000
0000
0000
0000
0000
0000
0000
0000
0000
0000
0000
0000
0000
0000
0000
0000
0000
0000
0000
0000
0000
0000
0000
0000
0000
0000
0000
0000
0000
0000
0000
0000
0000
0000
0000
0000
0000
0000
0000
0000
0000
0000
0000
0000
0000
0000
0000
,
1000
1100
0000
0001
0101
0000
0100
0110
,
0002
0003
2000
3000
,
1002
0000
0013
0100
1000
0000
0010
0000
0102
0000
1000
0000
0013
0000
0120
0000
,
0031
1000
0010
0000
0100
0001
1000
0100
0010
0000
0001
1000
0020
0000
0000
0030
,
1000
0100
0001
1000
0010
0001
0100
2010
,
0001
0000
3200
0000
0310
0001
1000
0001
0100
0010
0100
0001
1000
0100
0010
0001
,
2000
0000
3010
0100
0001
0000
1000
0000
0200
0000
0010
0000
1300
0000
2001
0000
,
3010
0000
0100
0000
0010
1000
0001
0010
0100
0000
1000
0001
0200
0000
0000
0300
,
0001
0010
0001
1000
0001
0100
0010
1000
0001
0010
0001
1000
0010
1000
0100
0000
,
0000
0011
1001
0110
2002
3003
0110
0000
,
2001
0000
3010
0100
0001
0000
0010
0000
2100
0000
0001
0000
3010
0000
0120
0000
,
1030
0001
0010
0000
0100
1000
0001
0100
0010
0000
1000
0001
0020
0000
0000
0030
,
0001
0100
1000
0001
0010
1000
0100
0012
,
1000
0000
0203
0000
0310
1000
0001
1000
0100
0010
0100
1000
0001
0100
0010
1000
,
0002
0000
0000
0000
0000
0000
0000
0000
1000
0000
0000
0000
0000
0000
0000
0000
0203
0300
0000
0000
0000
0000
0000
0000
0200
0300
0000
0000
0000
0000
0000
0000
1000
0000
0000
0000
0000
0000
0000
0000
0012
0000
0000
0000
0000
0000
0000
0000
1003
0000
0000
0000
0000
0000
0000
0000
2010
0000
0000
0000
0000
0000
0000
0000
,
0001
0000
0000
0000
0000
0000
0000
0000
3200
0300
0000
0000
0000
0000
0000
0000
0200
0300
0000
0000
0000
0000
0000
0000
0001
0000
0000
0000
0000
0000
0000
0000
2010
0000
0000
0000
0000
0000
0000
0000
3001
0000
0000
0000
0010
0000
0000
0000
0200
0000
0000
0000
0000
0000
0000
0000
0300
0000
0000
0000
0000
0000
0000
0000
,
1000
0100
0010
0001
1000
0010
0100
0001
1000
0100
1000
0001
1000
0010
0100
0001
,
1000
0000
0000
0000
0100
0000
0000
0000
0010
0000
0001
1000
0001
0000
0100
0000
,
0010
1000
0010
0100
0001
1000
0100
1000
0001
0100
0010
1000
0001
0010
0001
1000
,
0010
0100
0001
1000
0100
0010
0001
1000
0010
1000
0001
0010
0001
1000
0001
0100
,
0010
1000
0001
1000
0100
0010
0001
0100
0001
1000
0100
1000
0001
0100
0010
1000
,
0002
0003
0020
0030
0200
0300
0002
0003
2000
0000
3000
0020
0130
0000
1000
0000
,
2100
0000
0000
0000
3001
0000
0100
0010
1000
0000
0001
0100
0000
1000
0100
0000
,
0001
0000
1000
0100
0000
0001
0100
0000
2000
0000
3000
0010
0100
0000
0001
1000
,
0100
0010
1000
0010
0001
1000
0010
0100
,
0110
0101
1010
0110
,
2001
0000
0100
3002
0000
1003
0010
0010
,
1000
0100
1000
0010
1000
0001
0010
0001
0100
0001
1000
0100
0020
0000
0030
0000
,
0001
0000
1002
0000
0103
0100
0200
0000
0310
0000
1000
0000
0100
0000
0100
0000
,
0002
0003
0020
0030
2000
3000
0020
0030
0002
0000
1003
0010
0001
0000
0010
0000
,
0120
0000
0000
0000
1030
0000
0001
0000
0010
0100
1000
0000
0010
0100
0001
0000
,
1002
0003
0020
0030
0200
0300
2000
3000
0002
0000
0100
0000
2003
0000
0100
0000
,
3001
0010
0001
1000
0001
0100
0010
1000
0100
1000
0001
1000
0010
0100
0001
1000
,
0200
0000
0300
0000
,
1000
0001
0100
0100
1000
0100
0100
0001
2000
0000
3000
0000
0002
0000
0003
0000
,
0101
0000
0100
0010
1000
0000
0001
0000
0012
0000
1000
0000
0103
0000
2010
0000
,
0001
0000
3100
0000
0010
0001
1000
0010
0100
0000
0001
0010
0200
0000
0000
0300
,
1000
0010
0001
1000
0100
0001
0010
2100
,
3001
0100
0010
0100
0001
1000
0100
0010
1000
0010
0100
1000
0001
0100
0010
1000
,
0002
0000
0013
0100
1000
0000
1000
0000
2010
0000
0001
0000
3100
0000
0010
0001
,
1000
0001
0100
0000
0110
0000
0010
0000
2001
0000
3100
0010
0002
0000
0103
0000
,
1010
1001
0011
0100
1100
1000
0001
0101
,
0000
1010
1001
0011
1001
0000
0110
0000
,
0020
0030
1001
1000
2010
0001
3100
0012
,
1000
0000
0103
0000
0010
1000
0001
0010
0100
0000
1000
0010
0200
0000
0000
0300
,
0001
0010
1000
0001
0100
1000
0010
0102
,
1003
0100
0010
0100
1000
0001
0100
0010
0001
0010
0100
0001
1000
0100
0010
0001
,
2000
0000
3010
0100
0001
0000
0001
0000
0012
0000
1000
0000
0103
0000
0010
1000
,
0001
1000
0100
0000
0110
0000
0010
0000
1002
0000
0103
0010
2000
0000
3001
0000
,
1000
0100
0010
0001
1000
0010
1000
0001
0010
0100
1000
0001
1000
0010
0100
0001
,
1000
0100
0010
0001
,
1001
0000
1000
0010
0200
0000
0301
0000
1000
0000
0100
0010
0001
0000
1000
0000
,
0012
0000
1003
0000
0012
0000
1003
0000
0001
0000
0100
0010
1000
0000
0001
0000
,
0010
0000
0100
0000
1000
0001
0100
0000
0010
0000
2000
0000
0100
0000
3002
0000
,
0103
0000
0010
1000
0001
0000
0010
0000
0120
0030
0001
0100
1000
0000
0000
0000
,
0101
0000
0100
0010
1000
0000
0001
0000
0011
0000
0010
0100
1000
0000
0001
0000
,
2010
3001
2010
3001
1000
0100
0001
0100
,
0110
0000
0000
0000
0000
0000
1000
0001
0100
0000
0000
0000
0000
0000
0010
0000
,
0000
0000
1000
0001
0010
0000
0100
0000
1000
0000
0000
0000
0110
0000
0000
0000
,
0001
0000
1000
0010
1000
0000
0001
0000
0010
0000
0100
0000
1000
0000
0001
0000
,
0000
0000
1001
0000
0100
0010
0000
2002
0000
0000
0000
0000
0000
0000
0000
0000
,
3003
0000
0000
0000
;
