#TITLE:Macropolis;
#SUBTITLE:;
#ARTIST:MYUKKE.;
#TITLETRANSLIT:;
#SUBTITLETRANSLIT:;
#ARTISTTRANSLIT:;
#GENRE:;
#CREDIT:NAOKI;
#MUSIC:Macropolis.ogg;
#BANNER:Macropolis-bn.png;
#BACKGROUND:Macropolis-bg.png;
#CDTITLE:naokicdtitle.png;
#SAMPLESTART:76.217;
#SAMPLELENGTH:15.703;
#SELECTABLE:YES;
#OFFSET:-0.045;
#BPMS:0.000=128.000;
#STOPS:;
#BGCHANGES:;
#FGCHANGES:;

//--------------- dance-single - NAOKI BR DS FS SS XO 20ths ----------------
#NOTES:
     dance-single:
     NAOKI BR DS FS SS XO 20ths:
     Challenge:
     10:
     0,0,0,0,0:
0000
0000
0000
0000
,
0000
0000
0000
0000
,
0000
0000
0000
0000
,
0000
0000
0000
0000
,
0000
0000
0000
0000
,
0002
0000
0000
0000
0100
0000
0000
0000
2003
0000
0000
0000
3100
0010
0001
0000
,
1000
0000
0000
0000
0000
0000
0000
0000
0010
0000
0000
0000
0000
0000
0000
0000
0200
0300
0000
0000
0000
0000
0000
0000
0010
0000
0000
0000
0000
0000
0000
0000
1000
0000
0000
0000
0000
0000
0000
0000
0001
0000
0000
0000
0000
0000
0000
0000
0011
0000
0000
0000
0000
0000
0000
0000
0000
0000
0000
0000
0000
0000
0000
0000
,
2000
0000
0100
0000
3002
0000
0103
0010
,
0000
0000
0000
0000
0100
0000
0001
0000
2000
0000
3000
0000
0100
0000
0000
0000
2000
0000
0000
3000
0001
0000
0000
0000
1100
0000
00M0
0000
0000
0000
0000
0000
,
0020
0000
0000
0100
0000
0000
1030
0000
0002
0000
0000
0013
0000
0000
0100
0000
,
1000
0010
0100
0001
1000
0100
1000
0001
0100
0010
1000
0001
0010
0000
0100
0000
,
2000
0000
0000
0010
0000
0000
3001
0000
0020
0000
0000
0130
0000
0000
1000
0000
,
0001
01M0
0100
0010
0001
1000
0M10
0010
0100
1000
0001
0100
0010
0000
1000
0000
,
0200
0000
0000
0010
0000
0000
1300
0000
0002
0000
0000
0103
0000
0000
0010
0000
,
1000
0100
0010
0001
1000
0010
1000
0001
0010
0100
1000
0001
0100
0000
0010
0000
,
1000
0000
0000
0000
0000
0000
0000
0000
0000
0000
0000
0000
0100
0000
0000
0000
0000
0000
0000
0000
0000
0000
0000
0000
0010
0000
0000
0000
0000
0000
0000
0000
0000
0000
0000
0000
0001
0000
0000
0000
0000
0000
0000
0000
0000
0000
0000
0000
1000
0000
0000
0000
0000
0000
0000
0000
0000
0000
0000
0000
0010
0000
0000
0000
0000
0000
0000
0000
0000
0000
0000
0000
0100
0000
0000
0000
0000
0000
0000
0000
0000
0000
0000
0000
0001
0000
0000
0000
0000
0000
0000
0000
0000
0000
0000
0000
0010
0000
0000
0000
0000
0000
0000
0000
0000
0000
0100
0000
0000
0000
0000
0000
0000
0000
0000
1000
0000
0000
0000
0000
0000
0000
0000
0000
0000
0001
0000
0000
0000
0000
0000
0000
0000
0000
0100
0000
0000
0000
0000
0000
0000
0000
0000
0000
0020
0000
0000
0030
0000
0000
0000
0000
0000
0000
0000
0000
0000
0000
0000
0000
0000
0000
0000
0000
0000
0000
0000
0000
1000
0000
0000
0000
0000
0000
0000
0000
0000
0000
0000
0000
0000
0000
0000
0000
0000
0000
0000
0000
0000
0000
0000
0000
,
0001
0000
0000
0000
0010
0000
0000
0000
0001
0000
0000
0000
1000
0000
0000
0000
0010
0000
0000
0000
0100
0000
0000
0000
0001
0000
0000
0000
1000
0000
0000
0000
0010
0000
0000
0000
1000
0000
0000
0000
0001
0000
0000
0000
1000
0000
0000
0000
0200
0300
0000
0000
0000
0000
0000
0000
0010
0000
0000
0000
0000
0000
0000
0000
,
0002
0000
0000
0000
0000
0000
0000
0000
0000
0000
0000
0000
0000
0000
0000
0000
0000
0000
0003
0000
0000
0000
0000
0000
4000
0000
0000
0000
3000
0000
0000
0000
0000
0000
0000
0000
4000
0000
0000
0000
3000
0000
0000
0000
0000
0000
0000
0000
0010
0000
0000
0000
0000
0000
0100
0000
0000
0000
0000
0000
0001
0000
0000
0000
0000
0000
0000
0000
0000
0000
0000
0000
1000
0000
0000
0000
0000
0000
0000
0000
0000
0000
0000
0000
0200
0000
0000
0000
0000
0000
0000
0000
0000
0300
0000
0000
,
0020
0000
0000
0030
2000
0000
0000
3000
0020
0000
0000
0030
0200
0000
0000
0300
1000
0000
0000
0000
0001
0000
0000
0000
0400
0000
0000
0000
0300
0000
0000
0000
,
0020
0000
0030
0000
1000
0000
0000
0000
0002
0000
0000
0000
0010
0000
0003
0000
2000
0000
0000
0000
0010
0000
3000
0000
0001
0000
0000
0000
0020
0000
0000
0030
,
0200
0000
0000
0300
0002
0000
0000
0003
0200
0000
0000
0300
0020
0000
0000
0030
0001
0000
0000
0000
1000
0000
0001
0000
0100
0000
00M0
0000
0100
0000
0000
0000
,
2000
0000
0000
0000
3001
0000
0000
0000
0100
0000
0000
0000
0010
0000
1000
0000
0001
0000
0010
0000
0100
0000
0000
0000
1000
0000
0000
0000
0020
0000
0000
0030
,
0200
0000
0000
0300
2000
0000
0000
3000
0200
0000
0000
0300
0020
0000
0000
0030
1000
0000
0000
0000
0001
0000
0010
0000
0100
0000
0000
0000
1000
0000
0000
0000
,
0040
0030
0000
0000
0000
0000
0000
0000
0040
0030
0000
0000
0000
0000
0000
0000
0200
0000
0000
0000
0300
0000
0000
0000
0002
0000
0000
0000
0003
0000
0000
0000
0040
0030
0000
0000
0000
0000
0000
0000
0040
0030
0000
0000
0000
0000
0000
0000
0200
0000
0000
0000
0300
0000
0000
0000
2000
0000
0000
0000
0000
0000
0000
0000
,
0010
3000
0002
0000
0010
0003
1000
0000
0010
0M00
0010
0000
0101
0000
0000
0000
,
1000
0100
0010
0001
1000
0010
1000
0000
0001
0100
0010
1000
0001
0010
0001
0000
,
1100
0000
0001
0000
1010
0000
0001
0010
0100
0000
1000
0001
0200
0000
0310
0000
,
1000
0010
0100
0001
1000
0100
1000
0000
0001
0010
0100
1000
0001
0100
0001
0000
,
1000
0000
0001
0010
0100
0010
0001
0000
2000
0000
3001
0000
0100
0010
1000
0000
,
0001
0010
0100
1000
0001
0100
0001
0000
1000
0010
0100
0001
1000
0100
1000
0000
,
0011
0000
1000
0000
0101
0000
1000
0100
0010
0000
0001
0100
0010
0000
1000
0000
,
0200
0000
0000
0000
0000
0000
0000
0000
0310
0000
0000
0000
0000
0000
0000
0000
0002
0000
0000
0000
0000
0000
0000
0000
0400
0300
0000
0000
0003
0000
0000
0000
2000
0000
0000
0000
0000
0000
0000
3000
0400
0300
0000
0000
0010
0000
0000
0000
0001
0000
0000
0000
1000
0000
0000
0000
0010
0000
0000
0000
0000
0000
0000
0000
,
0100
0001
0010
0001
1000
0001
0100
0000
,
2001
0000
0100
0000
3002
0000
0103
0010
,
0000
1000
0000
0001
0010
0100
1000
0001
,
0100
0000
0010
0000
1000
0001
0000
0000
0010
0000
0100
1000
0000
0000
0001
0000
,
0000
1000
0010
0100
0001
0000
1000
1000
,
0002
0000
0100
0000
2003
0000
3100
0010
,
0001
1000
0010
0100
0001
0010
0100
1000
,
0001
0000
0000
0000
0000
0000
0000
0000
0000
0000
0000
0000
0100
0000
0000
0000
0000
0000
0000
0000
0000
0000
0000
0000
0010
0000
0000
0000
0000
0000
0000
0000
0000
0000
0000
0000
1000
0000
0000
0000
0000
0000
0000
0000
0000
0000
0000
0000
0001
0000
0000
0000
0000
0000
0000
0000
0000
0000
0000
0000
0010
0000
0000
0000
0000
0000
0000
0000
0000
0000
0000
0000
0001
0000
0000
0000
0000
0000
0000
0000
0000
0000
0000
0000
1000
0000
0000
0000
0000
0000
0000
0000
0000
0000
0000
0000
0040
0000
0030
0000
0000
0000
0000
0000
0000
0000
0400
0000
0300
0000
0000
0000
0000
0000
0000
0004
0000
0003
0000
0000
0000
0000
0000
0000
0000
4000
0000
3000
0000
0000
0000
0000
0000
0000
0400
0000
0300
0000
0000
0000
0000
0000
0000
0000
0010
0000
0000
0000
0000
0000
0000
0000
0000
0000
0000
0000
0000
0000
0000
0000
0000
0000
0000
0000
0000
0000
0000
0000
0001
0000
0000
0000
0000
0000
0000
0000
0000
0000
0000
0000
0000
0000
0000
0000
0000
0000
0000
0000
0000
0000
0000
0000
,
1000
0000
0000
0000
0000
0000
0000
0000
0010
0000
0000
0000
0400
0300
0000
0000
0001
0000
0000
0000
1000
0000
0000
0000
0400
0300
0000
0000
0010
0000
0000
0000
0001
0000
0000
0000
0000
0000
0000
0000
2100
0000
0000
0000
0000
0000
0000
0000
0012
0000
0000
0000
3000
0000
0000
0000
0000
0000
0000
0000
0003
0000
0000
0000
,
0100
0000
0010
1000
0001
0000
0020
0030
0100
1000
0001
0000
0100
0000
0020
0030
,
0100
0000
0001
0000
1000
0100
0010
0001
1000
0010
1000
0000
0001
0000
0020
0030
,
0100
1000
0001
0000
0100
0000
0010
1000
0001
0000
0020
0030
0100
0000
2000
3000
,
0001
0000
0200
0300
0010
0000
0100
0000
0001
0000
1000
0000
0101
0000
1000
0000
,
0001
0000
0100
0001
1000
0000
0200
0300
0010
0001
1000
0000
0010
0000
0200
0300
,
0001
0000
0010
0000
0100
1000
0000
0001
0100
0010
1000
0000
0001
0000
0010
0000
,
0100
0010
0002
0003
0100
0010
2000
3000
0100
0000
0010
0000
0001
0000
1100
0000
,
0001
0000
1010
0000
0002
0003
1200
0300
0020
0030
2000
3000
0101
0000
0000
0000
,
1000
0000
0100
0001
0000
0M01
0010
0100
1000
0000
0100
0001
0000
0M01
0010
0100
,
2000
0000
0010
3000
0002
0000
0010
0003
0100
0000
0001
1000
0200
0000
0310
0000
,
0001
0000
0010
1000
0000
10M0
0100
0010
0001
0000
0010
1000
0000
10M0
0100
0010
,
0001
0000
0000
0000
0000
0000
0000
0000
0100
0000
0000
0000
M0M0
0000
0000
0000
0100
0000
0000
0000
0000
0000
0000
0000
0100
0000
0000
0000
0000
0000
0000
0000
0001
0000
0000
0000
0000
0000
0000
0000
2000
3000
0000
0000
0000
0000
0000
0000
0002
0003
0000
0000
0010
0000
0000
0000
0100
0000
0000
0000
1000
0000
0000
0000
,
0001
0000
0100
1000
0000
1M00
0010
0100
0001
0000
0100
1000
0000
1M00
0010
0100
,
0002
0000
0000
0000
0010
0000
0003
0000
2000
0000
0000
0000
0010
0000
3000
0000
0100
0000
0000
0000
1000
0000
0001
0000
0200
0000
0000
0300
0010
0000
0000
0000
,
0002
0000
0003
0000
0010
0000
0100
0000
0001
0000
1000
0100
0010
0001
0200
0000
,
0300
0000
0002
0000
0010
0003
1000
0000
0101
0000
1000
0000
0010
0100
0001
0000
,
0020
0000
0000
0100
0000
0000
0031
0000
2000
0000
0000
3010
0000
0000
0100
0000
,
0001
0010
0100
1000
0001
0100
0001
1000
0100
0010
0001
1000
0010
0000
0100
0000
,
0002
0000
0000
0010
0000
0000
1003
0000
0020
0000
0000
0130
0000
0000
0001
0000
,
1000
01M0
0100
0010
1000
0001
0M10
0010
0100
0001
1000
0100
0010
0000
0001
0000
,
1000
0010
0100
0010
2000
0000
3001
0000
0020
0000
0000
0130
0000
0000
1000
0000
,
0001
0100
0010
1000
0001
0010
0001
1000
0010
0100
0001
1000
0100
0000
0010
0000
,
0001
0000
0000
0000
0000
0000
0000
0000
0000
0000
0000
0000
0100
0000
0000
0000
0000
0000
0000
0000
0000
0000
0000
0000
0010
0000
0000
0000
0000
0000
0000
0000
0000
0000
0000
0000
1000
0000
0000
0000
0000
0000
0000
0000
0000
0000
0000
0000
0001
0000
0000
0000
0000
0000
0000
0000
0000
0000
0000
0000
0010
0000
0000
0000
0000
0000
0000
0000
0000
0000
0000
0000
0100
0000
0000
0000
0000
0000
0000
0000
0000
0000
0000
0000
1000
0000
0000
0000
0000
0000
0000
0000
0000
0000
0000
0000
0010
0000
0000
0000
0000
0000
0000
0000
0000
0000
0100
0000
0000
0000
0000
0000
0000
0000
0000
0001
0000
0000
0000
0000
0000
0000
0000
0000
0000
1000
0000
0000
0000
0000
0000
0000
0000
0000
0100
0000
0000
0000
0000
0000
0000
0000
0000
0000
0020
0000
0000
0030
0000
0000
0000
0000
0000
0000
0000
0000
0000
0000
0000
0000
0000
0000
0000
0000
0000
0000
0000
0000
0002
0000
0000
0000
0000
0000
0000
0000
0000
0000
0000
0000
0000
0000
0000
0000
0000
0000
0000
0000
0000
0000
0000
0000
,
0100
0003
2000
0000
0100
3000
0010
0000
0100
0000
0001
0000
1010
0000
0000
0000
,
0002
0000
0000
0100
0000
0000
1003
0000
0200
0000
0000
0310
0000
0000
0000
0000
;
