#VERSION:0.83;
#TITLE:Machinegun Poem Doll;
#SUBTITLE:;
#ARTIST:cosMo@bousouP feat. Hatsune Miku;
#TITLETRANSLIT:;
#SUBTITLETRANSLIT:;
#ARTISTTRANSLIT:;
#GENRE:;
#CREDIT:NAOKI;
#MUSIC:machinegun poem doll.ogg;
#BANNER:machinegun-poem-doll-bn.png;
#BACKGROUND:machinegun-poem-doll-169-bg.png;
#CDTITLE:naokicdtitle.png;
#SAMPLESTART:70.906;
#SAMPLELENGTH:17.455;
#SELECTABLE:YES;
#OFFSET:0.005;
#BPMS:0.000=220.000
,58.500=330.000
,60.000=220.000
,108.500=330.000
,109.500=220.000
,111.000=330.000
,112.500=220.000
,114.000=330.000
,114.500=165.000
,115.000=220.001
,116.000=330.000
,116.500=220.000
,117.000=330.000
,117.500=220.000
,118.000=275.000
,118.750=137.500
,119.000=220.000
,120.000=440.000
,120.250=220.000
,120.375=110.000
,120.625=220.000
,120.750=440.000
,121.250=220.000
,121.375=110.000
,121.625=220.000
,121.750=440.000
,122.000=330.000
,124.000=220.000
,136.000=330.000
,139.000=440.000
,139.500=220.000
,139.750=110.000
,140.000=220.000
,236.000=110.000
,240.000=220.000
,251.500=440.000
,254.500=330.000
,255.000=220.000
,347.500=440.000
,350.500=330.000
,351.000=440.000
,351.500=220.000
,351.750=110.000
,352.000=220.000
,424.000=110.000
,425.479=220.001
,431.500=220.000
,448.000=440.000
,449.750=220.000
,498.000=330.000
,499.500=132.000
,499.750=220.000
;
#STOPS:58.500=0.023
,58.750=0.023
,59.000=0.023
,59.250=0.023
,59.500=0.023
,59.750=0.023
,108.625=0.023
,108.875=0.023
,109.125=0.023
,109.375=0.023
,111.125=0.023
,111.375=0.023
,111.625=0.023
,111.875=0.023
,112.063=0.011
,112.188=0.011
,112.313=0.011
,112.438=0.011
,116.125=0.023
,116.375=0.023
,117.125=0.023
,117.375=0.023
,122.125=0.023
,122.375=0.023
,122.625=0.023
,122.875=0.023
,123.125=0.023
,123.375=0.023
,123.625=0.023
,123.875=0.023
,136.000=0.091
,137.000=0.091
,138.000=0.045
,138.500=0.045
,252.000=0.136
,253.000=0.136
,254.000=0.136
,254.500=0.045
,348.000=0.136
,349.000=0.136
,350.000=0.136
,350.500=0.045
,431.479=0.136
,448.000=0.034
,448.250=0.034
,448.500=0.034
,448.750=0.034
,449.000=0.034
,449.250=0.034
,449.500=0.034
,498.000=0.045
,498.500=0.045
;
#WARPS:425.479=6.000;
#SPEEDS:0.000=1.000=0.000=0;
#SCROLLS:0.000=1.000;
#TICKCOUNTS:0.000=4;
#TIMESIGNATURES:0.000=4=4;
#LABELS:0.000=Song Start;
#COMBOS:0.000=1;
#DISPLAYBPM:220.000;
#ORIGIN:;
#PREVIEWVID:;
#JACKET:;
#CDIMAGE:;
#DISCIMAGE:;
#BGCHANGES:0.000=machinegun poem doll.avi=1.000=0=0=0=StretchNoLoop====,
99999.000=-nosongbg-=1.000=0=0=0=StretchNoLoop====
;
#FGCHANGES:;

//--------------- dance-single - NAOKI STR FS XO BPM Gimmicks ----------------
#NOTEDATA:;
#STEPSTYPE:dance-single;
#DESCRIPTION:NAOKI STR FS XO BPM Gimmicks;
#DIFFICULTY:Challenge;
#METER:16;
#RADARVALUES:1.47201,1.555862,0.099625,0.946437,2.049428,1448,1430,14,133,39,3,40,0,16,1.47201,1.555862,0.099625,0.946437,2.049428,1448,1430,14,133,39,3,40,0,16;
#DISPLAYBPM:220.000;
#CHARTNAME:NAOKI STR FS XO BPM Gimmicks;
#CHARTSTYLE:;
#CREDIT:NAOKI STR FS XO BPM Gimmicks;
#NOTES:
0000
0000
0000
0000
,
0000
0000
0000
0000
,
0000
0000
0000
0000
,
0001
0000
0000
0000
0000
0000
0000
0000
1001
0000
0000
0000
0000
0000
0000
0000
0000
0000
0000
0000
0000
0000
0000
0000
0000
0000
0000
0000
0000
0000
0000
0000
0000
0000
0000
0000
0000
0000
0000
0000
0100
0000
0000
0000
0000
0001
0000
0000
1000
0000
0000
0000
0000
0001
0000
0000
0020
0000
0000
0000
0000
0000
0000
0000
,
0030
0000
0100
0000
1000
0000
0002
0003
1000
0000
0010
0000
0200
0000
0310
1000
,
0001
0010
0100
0010
0002
0000
2003
0000
,
3010
0100
0001
1000
0200
0000
0320
0000
,
0031
0000
0000
0100
0000
0000
0010
1000
0001
0000
0010
0000
0100
0000
1000
0000
,
0001
0100
0001
1000
0100
0010
0001
0000
1000
0000
0010
0000
0100
0000
0002
0000
,
0000
0000
2000
0000
0003
0000
0000
0000
0000
0000
3000
0000
0001
0100
0010
1000
,
0001
0000
0000
0000
0000
0000
0010
0000
0000
0000
0000
0000
0100
0000
0000
0000
0000
0000
1000
0000
0000
0000
0000
0000
0001
0000
0000
0000
0000
0000
0100
0000
0000
0000
0000
0000
0001
0000
0000
0000
0000
0000
1000
0000
0000
0000
0000
0000
0100
0000
0000
0000
0000
0000
0010
0000
0000
0000
0000
0000
0001
0000
0000
0000
0000
0000
0000
0100
0000
0000
0000
0000
0000
0000
0010
0000
0000
0000
0000
0000
0000
0000
0000
0000
1000
0000
0000
0000
0000
0000
0000
0000
0000
0000
0000
0000
,
0001
0010
0001
1000
0010
0100
0001
1000
0100
1000
0001
0100
0010
1000
0001
0010
,
0100
1000
0001
0100
0001
1000
0100
0010
0001
0100
0010
1000
0001
0010
0100
1000
,
0001
0100
0001
1000
0100
0010
0001
1000
0010
1000
0001
0010
0100
1000
0001
0100
,
0010
0000
0000
0000
1000
0000
0000
0000
0001
0000
0000
0000
0010
0000
0000
0000
0001
0000
0000
0000
1000
0000
0000
0000
0010
0000
0000
0000
0100
0000
0000
0000
0001
0000
0000
0000
0000
0000
0000
0000
4000
3000
0000
0000
0400
0300
0000
0000
4000
3000
0000
0000
0400
0300
0000
0000
4000
3000
0000
0000
0400
0300
0000
0000
,
0010
0001
1000
0001
0100
0010
1000
0001
0010
0001
1000
0010
0100
0001
1000
0100
,
1000
0001
0100
0010
1000
0001
0010
0100
1000
0001
0100
0001
1000
0100
0010
0100
,
1000
0001
1000
0010
0100
0001
1000
0100
0010
0001
1000
0001
0100
0010
1000
0001
,
1000
0000
0100
00M0
0100
0000
0001
0000
0100
00M0
0100
0000
1000
0000
0000
0000
0000
0000
1001
0000
0000
0000
0000
0000
,
0001
0000
0200
0000
0010
0000
0302
0000
1000
0000
0013
0000
0100
1000
0001
0100
,
0020
0000
0100
0000
2030
0000
0001
0000
3100
0000
0010
0002
0003
0000
0100
0000
,
0010
0000
1000
0001
0010
0100
1000
0000
0200
0000
0010
0000
1300
0000
0001
0100
,
0010
1000
0001
0010
0100
1000
0001
0100
0001
1000
0100
0010
0001
1000
0010
0100
,
0001
0000
0010
0000
0100
0000
1000
0000
0001
0000
0100
0020
0000
0030
1000
0000
,
0001
0000
0010
0000
0100
0000
0001
0000
0100
0010
0001
2000
0000
3000
0010
0100
,
0001
1000
0100
0000
0010
0001
0010
0001
1000
0000
0010
0000
0100
0001
0100
0001
,
0010
0100
1000
0001
0100
0010
1000
0001
0010
0001
1000
0010
0100
0001
1000
0100
,
0020
0000
0000
0000
0030
0000
0000
0000
0004
0003
0000
0000
0400
0300
0000
0000
0040
0030
0000
0000
4000
3000
0000
0000
0002
0000
0000
0000
0000
0000
0000
0000
0013
0000
0000
0000
0000
0000
0000
0000
0100
0000
0000
0000
0000
0000
0000
0000
4000
3000
0000
0000
0040
0030
0000
0000
0400
0300
0000
0000
0004
0003
0000
0000
,
4000
3000
0100
0010
0001
0000
1000
0010
0200
0000
0300
0000
0001
1000
0100
1000
,
0004
0003
0000
0000
0400
0300
0000
0000
0020
0000
0000
0000
0030
0000
0000
0000
4000
3000
0000
0000
0400
0300
0000
0000
0020
0000
0000
0000
0030
0000
0000
0000
0002
0000
0000
0000
0000
0000
0000
0000
0000
0000
0000
0000
0003
0000
0000
0000
0100
0000
0000
0000
0010
0000
0000
0000
1000
0000
0000
0000
0001
0000
0000
0000
,
0020
0000
0000
0000
0000
0000
0000
0000
0130
0000
0000
0000
0000
0000
0000
0000
2000
0000
0000
0000
0000
0000
0000
0000
3001
0000
0000
0000
0000
0000
0000
0000
0400
0300
0000
0000
0040
0030
0000
0000
4000
3000
0000
0000
0040
0030
0000
0000
0400
0300
0000
0000
0040
0030
0000
0000
4000
3000
0000
0000
0004
0003
0000
0000
,
0010
0100
1000
0001
0100
0010
1000
0001
0010
0001
1000
0010
0100
0001
1000
0100
,
1000
0001
0100
0010
1000
0001
0010
0100
1000
0001
1000
0010
0100
0001
1000
0100
,
1000
0001
0100
0001
1000
0100
0010
0001
1000
0001
0100
0010
1000
0001
0010
0100
,
100M
0000
M101
0000
1101
1101
1111
0000
,
1000
0010
0100
0001
1000
0100
1000
0001
0200
0000
0010
0000
0301
0000
1000
0100
,
0010
0000
0001
1000
0010
0000
0200
0000
0310
0000
1000
0001
0010
0100
1000
0000
,
0002
0000
0103
0000
0010
0100
0001
1000
0100
0000
0020
0000
0130
0000
1000
0000
,
0001
0100
0001
1000
0100
0010
0001
1000
0010
1000
0001
0010
0001
1000
0010
0100
,
0002
2003
3200
0320
0032
1000
0203
0310
,
2000
0000
0001
0000
3200
0000
0310
0000
0002
0000
2003
0000
3010
0100
0001
1000
,
0100
0010
0001
0100
0010
1000
0100
0010
0001
1000
0010
0100
,
1000
0100
0010
2000
3000
0001
0020
0000
0130
1000
0001
0100
,
0010
0000
0200
0301
1000
0200
0300
0010
,
0002
0000
0000
0000
0003
0000
1000
0100
1000
0000
0001
0000
0200
0000
0310
0000
,
1000
0001
0010
0100
1000
0001
1000
0010
0100
0001
1000
0100
1000
0001
0100
0010
,
1000
0001
0010
0001
1000
0010
0100
0001
1000
0001
0010
0100
1000
0001
0100
0010
,
1000
0001
0100
0001
1000
0100
0010
0001
1000
0010
1000
0010
0100
0001
1000
0100
,
0010
0001
1000
0010
0100
0001
1000
0001
0010
0100
1000
0001
1000
0010
0100
0001
,
0000
1000
0200
0000
0310
0002
0003
0100
,
0020
0000
0030
2000
0000
3000
0001
0010
0100
1000
0001
0100
0020
0000
0130
0000
,
0001
0010
0100
1000
0010
0100
0001
1000
0100
1000
0001
0100
0010
0100
0001
1000
,
0100
0010
0001
0100
0010
1000
0001
0010
0001
1000
0010
1000
0001
0010
0100
1000
,
0001
0100
0010
1000
0001
0010
0001
0010
0100
1000
0001
0100
0010
0000
0110
0000
,
1000
0000
0100
00M0
0100
0000
0001
0000
2000
0000
0000
0000
0100
0000
0000
0000
3001
0000
0100
00M0
0100
0000
1000
0000
0002
0000
0000
0000
0100
0000
0000
0000
,
2003
0000
0000
0000
3200
0300
0010
0000
2000
3000
0010
0000
0200
0300
1000
0000
,
0002
0003
0100
0000
0020
0030
0002
0003
0020
0030
0200
0300
0002
0003
2000
3000
,
0200
0300
0020
0030
0002
0000
1003
0000
0020
0030
0200
0300
0002
0003
2000
0000
,
3200
0000
0000
0000
0000
0000
0000
0000
0040
0000
0030
0000
0000
0000
0000
0000
4300
0000
3000
0000
0000
0000
0000
0000
0004
0000
0003
0000
0000
0000
0000
0000
0400
0300
0000
0000
0000
0000
0000
0000
0400
0300
0000
0000
0000
0000
0000
0000
0040
0030
0000
0000
0000
0000
0000
0000
0040
0030
0000
0000
0000
0000
0000
0000
,
M20M
0310
2000
3001
0020
0130
0100
0100
0020
0130
2000
3001
0200
0310
0010
0010
,
M200
0300
0000
0000
0001
0000
0000
0000
1000
0000
0000
0000
0100
0000
0000
0000
0010
0000
0000
0000
0001
0000
0000
0000
1000
0000
0000
0000
0010
0000
0000
0000
0100
0000
0000
0000
0001
0000
0000
0000
1000
0000
0000
0000
0100
0000
0000
0000
1000
0000
0000
0000
0001
0000
0000
0000
0100
0000
0000
0000
0010
0000
0000
0000
,
1000
0100
0010
0001
1000
0010
0100
0001
1000
0001
0010
0100
1000
0001
0100
0010
,
1000
0001
1000
0100
1000
0001
0010
0001
1000
0001
0100
0010
1000
0001
0020
0000
,
0M30
0000
0000
0000
0000
0000
0000
0000
0200
0000
0000
0000
0000
0000
0000
0000
M300
0000
0000
0000
0000
0000
0000
0000
2000
0000
0000
0000
0000
0000
0000
0000
300M
0000
0000
0000
0000
0000
0000
0000
0010
0000
0000
0000
0000
0000
0000
0000
0220
0330
0000
0000
0000
0000
0000
0000
1000
0000
0000
0000
0000
0000
0000
0000
,
0002
0000
0003
0010
0100
0000
1000
0000
0010
MM0M
0010
0000
0001
0000
0100
0000
,
0010
1000
0001
0010
0100
1000
0001
0100
0010
1000
0010
1000
0001
0010
0200
0000
,
1300
0001
0100
0010
0001
0010
0100
0001
,
1000
0100
0010
0001
1000
0010
0100
0001
0010
0001
1000
0010
1000
0001
0010
0100
,
2000
0000
3001
0000
0100
M0MM
0100
0000
1000
0000
0010
0100
0001
0000
1000
0100
,
0020
0000
0230
0000
1300
0000
0002
0000
0100
0000
2003
3000
0200
0300
0020
0030
,
0002
0000
0100
0003
2000
0000
0100
3000
0001
0100
0010
0000
1000
0000
0001
0000
,
0010
0000
0100
1000
0001
1000
0100
1000
0002
0000
0103
0010
1000
0001
0010
0100
,
2000
0000
3000
0010
0100
0000
0001
0000
0010
MM0M
0010
0000
1000
0000
0100
0000
,
0010
0001
1000
0010
0100
0001
1000
0100
0010
0001
0010
0001
1000
0010
0200
0000
,
0301
1000
0100
0010
1000
0010
0100
1000
,
0001
0100
0010
1000
0001
0010
0100
1000
0010
1000
0001
0010
0001
1000
0010
0100
,
0002
0000
1003
0000
0100
M0MM
0100
0000
0001
0000
0010
0100
1000
0000
0001
0100
,
0020
0030
1000
0100
0010
0001
2000
0000
0100
0000
3002
0003
0200
0300
0020
0030
,
2000
0000
0100
3000
0002
0000
0100
0003
1000
0100
0010
0000
0001
0000
1000
0000
,
0010
0000
0100
0001
1000
0001
0100
0001
1000
0000
0100
0000
0010
0000
0001
0000
,
1000
0000
0000
0000
0010
0000
0000
0000
0100
0000
0000
0000
1000
0000
0000
0000
0100
0000
0000
0000
0010
0000
0000
0000
1000
0000
0000
0000
0000
0000
1000
0000
0000
0000
0000
0000
0100
0000
0000
00M0
0000
0000
0100
0000
0000
0000
0000
0000
,
0001
0000
0000
0000
0010
0000
0000
0000
0100
0000
0000
0000
0001
0000
0000
0000
0100
0000
0000
0000
0010
0000
0000
0000
0001
0000
0000
0000
0000
0000
0001
0000
0000
0000
0000
0000
0100
0000
0000
00M0
0000
0000
0100
0000
0000
0000
0000
0000
,
1000
0000
0010
0000
1000
0000
0001
0000
0010
0000
0001
0000
1000
0000
0000
1000
0000
0000
0010
0000
0000
0100
0000
0000
,
0001
0000
0010
0000
0001
0000
1000
0000
0010
0000
1000
0000
0001
0000
0000
0010
0000
0000
0100
0000
0000
1000
0000
0000
,
0001
0100
0010
0100
0001
0100
0010
1000
0001
0010
0001
1000
0001
0010
0100
1000
,
0001
0100
0001
1000
0100
1000
0001
0100
0010
1000
0001
0010
0001
1000
0010
0100
,
0001
1000
0100
1000
0001
1000
0100
1000
0001
1000
0100
0010
0001
1000
0020
0000
,
0M30
0000
0000
0000
0000
0000
0000
0000
0200
0000
0000
0000
0000
0000
0000
0000
030M
0000
0000
0000
0000
0000
0000
0000
0002
0000
0000
0000
0000
0000
0000
0000
00M3
0000
0000
0000
0000
0000
0000
0000
0010
0000
0000
0000
0000
0000
0000
0000
0220
0330
0000
0000
0000
0000
0000
0000
0000
0000
0000
0000
0000
0000
0000
0000
,
0200
0300
1000
0010
0100
0010
1000
0001
0010
0100
0010
0001
1000
0010
0100
0001
,
1000
0100
0010
0001
0100
0010
1000
0001
0010
0100
1000
0001
0100
0000
0020
0000
,
0030
0000
0100
0001
1000
0000
0100
0000
0010
0001
1000
0010
0100
0001
0100
0001
,
1000
0100
0010
0001
1000
0010
0100
0001
1000
0100
0010
0001
1000
0010
1000
0001
,
0010
0100
1000
0001
0100
0001
1000
0100
0010
0001
1000
0010
0100
0010
1000
0001
,
0010
0100
1000
0001
0100
0010
1000
0001
0010
0001
0100
0010
1000
0100
0000
0000
,
0010
0001
1000
0010
0100
0001
1000
0100
1000
0001
0100
0010
1000
0001
0010
0100
,
1000
0001
1000
0100
1000
0001
0200
0000
0300
0010
1000
0000
0100
0010
0001
0000
,
0200
0300
0001
0010
0100
0010
0001
1000
0010
0100
0010
1000
0001
0010
0100
1000
,
0001
0100
0010
1000
0100
0010
0001
1000
0010
0100
0001
1000
0100
0000
0020
0000
,
0030
0000
0100
1000
0001
0000
0100
0000
0010
1000
0001
0010
0100
1000
0100
1000
,
0001
0100
0010
1000
0001
0010
0100
1000
0001
0100
0010
1000
0001
0010
0001
1000
,
0010
0100
0001
1000
0100
1000
0001
0100
0010
1000
0001
0010
0100
0010
0001
1000
,
0010
0100
0001
1000
0100
0010
0001
1000
0010
1000
0100
0010
0001
0100
0000
0000
,
0010
1000
0001
0010
0100
1000
0001
0100
0001
1000
0100
0010
0001
0100
0010
1000
,
0001
1000
0100
1000
0001
0010
0001
1000
0001
0100
0010
1000
0001
0010
0100
1000
,
0020
0000
0000
0000
0000
0000
2030
0002
,
0000
0000
0000
0000
0000
0000
00M0
0M00
00M0
0M00
00M0
0M00
,
3003
0000
0000
MM00
0000
0M0M
0000
MM00
,
0000
0000
0000
0000
000M
0000
0000
0000
M00M
000M
000M
000M
000M
000M
000M
000M
0000
0000
0000
0000
0000
0000
0000
0000
0000
0000
0000
0000
1100
0000
0000
0000
,
0000
0101
0000
1100
0000
0001
1002
0000
,
1003
0010
1000
0001
0010
0100
1000
0001
0100
0001
1000
0100
0010
0001
1000
0010
,
0100
0001
1000
0100
1000
0001
0100
0010
1000
0100
0010
0001
1000
0010
0100
0001
,
1000
0100
1000
0001
0100
0010
1000
0001
0010
0001
1000
0010
0100
0001
0010
0100
,
1000
0000
0000
0000
0004
0003
0000
0000
0400
0300
0000
0000
0004
0003
0000
0000
0400
0300
0000
0000
0004
0003
0000
0000
0400
0300
0000
0000
0002
0000
0000
0000
0000
0000
0000
0000
0000
0000
0000
0000
0000
0000
0000
0000
0000
0000
0000
0000
0003
0000
0000
0000
0000
0000
0000
0000
1000
0000
0000
0000
0100
0000
0000
0000
,
2000
0000
3001
0000
0100
00M0
0100
0000
1000
0000
0010
0000
0100
0000
0001
0000
,
0010
0001
1000
0010
1000
0001
0010
0100
1000
0001
0100
0001
1000
0100
0020
0000
,
0031
1000
0010
0100
1000
0100
0010
1000
,
0001
0010
0100
1000
0001
0100
0010
1000
0100
1000
0001
0100
0001
1000
0100
0010
,
0002
0000
1003
0000
0010
MM0M
0010
0000
0001
0000
0100
0010
1000
0000
0001
0010
,
0200
0300
1000
0010
0100
0001
2000
0000
0010
0000
3002
0003
0020
0030
0200
0300
,
2000
0000
0010
3000
0002
0000
0010
0003
1000
0010
0100
0000
0001
0000
1000
0000
,
0200
0000
0310
0001
1000
0001
0100
0001
1000
0010
1000
0001
1000
0100
0010
0001
,
0100
0000
0010
0000
1000
0000
0001
0000
0010
0100
0010
0000
0001
0000
1000
0000
,
0010
0100
0010
1000
0002
0003
0010
0000
0002
0003
1000
0010
0100
0000
0001
0000
,
1000
0100
0010
0001
1000
0010
1000
0001
0010
0100
1000
0001
0100
0010
1000
0001
,
0010
0001
1000
0010
0100
0001
1000
0000
01M0
0000
01M0
0000
0220
0000
0000
0330
;
