#TITLE:MAXIMUM LOGIC;
#SUBTITLE:;
#ARTIST:TOMOYUKi;
#TITLETRANSLIT:;
#SUBTITLETRANSLIT:;
#ARTISTTRANSLIT:;
#GENRE:;
#CREDIT:;
#BANNER:maximum_logic-bn.png;
#BACKGROUND:maximum_logic-bg.png;
#CDTITLE:NAOKI_cdtitle.png;
#MUSIC:MAXIMUM LOGIC.ogg;
#OFFSET:-0.46;
#SAMPLESTART:100.011000;
#SAMPLELENGTH:12.000000;
#SELECTABLE:YES;
#DISPLAYBPM:176.000;
#BPMS:0.000=176.000
,28.000=352.000
,29.000=176.000
;
#STOPS:27.750=0.170;
#BGCHANGES:;
#FGCHANGES:;

//---------------dance-single - NAOKI----------------
#NOTES:
     dance-single:
     NAOKI:
     Beginner:
     2:
     0.178000,0.183000,0.000000,0.090000,0.000000:
0000
0000
0000
0000
,
0000
0000
0000
0000
,
0000
0000
0000
0000
,
0000
0000
0000
0000
,
2000
0000
0000
3000
,
0002
0000
0000
0003
,
0200
0000
0000
0300
,
0000
0000
0000
0000
,
0010
0000
0010
0000
,
0100
0000
0100
0000
,
0001
0000
0001
0000
,
1000
0000
1000
0000
,
0100
0000
0100
0000
,
0010
0000
0010
0000
,
0001
0000
0001
0000
,
1000
0000
2000
0000
,
3010
0000
0100
0000
,
0001
0000
1000
0000
,
0100
0000
0010
0000
,
0001
0000
1000
0000
,
0010
0000
0100
0000
,
0001
0000
1000
0000
,
0100
0000
0010
0000
,
0002
0000
0003
0000
,
1000
1000
0000
0000
,
0000
0000
0000
0000
,
0001
0001
0000
0000
,
0000
0000
0000
0000
,
0100
0100
0000
0000
,
0000
0000
0000
0000
,
0010
0010
0000
0000
,
0000
0000
0000
0000
,
1000
0000
0100
0000
,
0010
0000
0001
0000
,
1000
0000
0010
0000
,
0100
0000
0001
0000
,
0001
0000
0010
0000
,
0100
0000
1000
0000
,
0001
0000
0100
0000
,
0010
0000
2000
0000
,
3000
0000
0000
0000
,
0001
0000
0001
0000
,
0010
0000
0100
0000
,
1000
0000
1000
0000
,
0010
0000
0100
0000
,
0002
0000
0003
0000
,
1000
0000
0100
0000
,
0010
0000
0001
0000
,
0100
0000
0100
0000
,
0010
0000
0010
0000
,
1000
0000
1000
0000
,
0001
0000
0001
0000
,
0010
0000
0010
0000
,
0100
0000
0100
0000
,
1000
0000
1000
0000
,
0001
0000
0001
0000
,
0100
0000
0000
0000
,
0010
0000
0000
0000
,
1000
0000
0000
0000
,
0001
0000
0000
0000
,
0010
0000
0000
0000
,
0100
0000
0000
0000
,
2000
0000
0000
0000
,
0002
0000
3003
0000
,
0100
0000
0000
0000
,
0010
0000
0000
0000
,
1000
0000
0000
0000
,
0001
0000
0000
0000
,
0010
0000
0000
0000
,
0100
0000
0000
0000
,
1000
0000
0000
0000
,
0020
0000
0000
0000
0000
0000
0000
0030
,
0000
0000
0000
0000
,
0100
0000
0100
0000
,
0001
1000
0001
0000
,
0010
0000
0100
0000
,
1000
0000
1000
0000
,
0010
0000
0010
0000
,
1000
0001
1000
0000
,
0100
0000
0010
0000
,
0001
0000
0001
1000
,
0100
0000
0100
0000
,
1000
0001
1000
0000
,
0010
0000
0100
0000
,
0001
0000
0001
0000
,
0010
0000
0010
0000
,
0001
1000
0001
0000
,
0100
0000
0010
0000
,
1000
0000
1000
0000
,
0002
0003
0000
0000
;

//---------------dance-single - NAOKI----------------
#NOTES:
     dance-single:
     NAOKI:
     Easy:
     7:
     0.327000,0.329000,0.074000,0.139000,0.000000:
0000
0000
0000
0000
,
0000
0000
0000
0000
,
0000
0000
0000
0000
,
0000
0000
0000
0000
,
0010
0000
1000
0001
,
0010
0000
0100
1000
,
0001
0000
0000
0000
0100
0000
0020
0030
,
0000
0000
0000
0000
,
1000
0001
1000
0000
,
0100
0010
0001
1000
,
0010
0100
0010
0000
,
1000
0001
0010
0100
,
1000
0001
1000
0000
,
0010
0100
0001
1000
,
0100
0010
0100
0000
,
0010
0001
1000
0010
,
0100
0100
0001
0000
,
1000
0100
0010
0000
,
0001
0001
1000
0000
,
0010
0100
0001
0000
,
0010
0010
0100
0000
,
1000
0001
0100
0000
,
0010
0010
0100
0000
,
1001
0000
0000
0000
,
0010
1010
0000
0000
,
0000
0000
0000
0000
,
0010
0011
0000
0000
,
0000
0000
0000
0000
,
0100
1100
0000
0000
,
0000
0000
0000
0000
,
0100
0101
0000
0000
,
0000
0000
0000
0000
,
0100
1000
0001
0100
,
0010
0010
0010
0010
,
0100
0001
1000
0100
,
0010
0001
0100
1000
,
0100
0001
1000
0100
,
0010
0010
0010
0010
,
0100
1000
0001
0100
,
0010
1000
0100
0010
,
0002
0000
0003
0000
,
0010
0100
0010
0100
,
1000
0010
0001
0010
,
1000
0100
0001
0100
,
0010
0001
1000
0010
,
0100
0100
0100
0100
,
0010
1000
0001
0010
,
0110
0000
0100
0000
,
1000
0001
0100
0000
,
0010
0010
0010
0000
,
1000
0001
0010
0000
,
0100
0100
0100
1000
,
0001
1000
0010
0000
,
0100
0100
0100
0000
,
0001
1000
0100
0000
,
0010
0010
0010
0000
,
0002
0000
0103
0000
,
2000
0000
3100
0000
,
0020
0000
0130
0000
,
0002
0103
2000
3100
,
0002
0000
0013
0000
,
2000
0000
3010
0000
,
0200
0000
0310
0000
,
0002
0013
2000
3010
,
0100
0001
0000
0001
,
1000
0100
0000
0100
,
0010
0001
0000
0001
,
0100
0010
0110
0000
,
0010
1000
0000
1000
,
0100
0010
0000
0010
,
0001
0100
0000
0100
,
0010
0000
1001
0000
,
0200
0000
0300
0000
,
0001
1000
0001
0000
,
0010
0100
1000
1000
,
0001
0100
0010
1000
,
0100
0010
0002
0003
,
1000
0001
1000
0000
,
0010
0100
0001
0001
,
1000
0100
0010
0001
,
0100
0010
2000
3000
,
0001
1000
0001
0000
,
0100
0010
1000
1000
,
0001
0010
0100
1000
,
0010
0100
0001
0001
,
1000
0001
1000
0000
,
0100
0010
0001
0001
,
1000
0010
0100
0001
,
0010
0100
1000
1000
,
2002
3003
0000
0000
;

//---------------dance-single - NAOKI----------------
#NOTES:
     dance-single:
     NAOKI:
     Medium:
     11:
     0.472000,0.475000,0.172000,0.196000,0.045000:
0000
0000
0000
0000
,
0000
0000
0000
0000
,
0000
0000
0000
0000
,
0000
0000
0000
0000
,
0100
0000
0010
1000
,
0100
0000
0010
0001
,
0100
0010
1000
0001
0010
0100
1000
0200
,
0300
0000
0000
0000
0010
0000
0000
0001
0000
0000
1000
0000
0000
0000
0010
0000
,
0100
0000
0100
0000
0001
0010
0100
0000
,
1000
0000
0001
0000
0100
0010
1000
0001
,
0010
0000
0010
0000
0001
0100
0010
0000
,
1000
0000
0000
0000
0001
0000
0000
0000
0010
0000
0000
0100
0000
0000
1000
0000
,
0100
0000
0100
0000
1000
0010
0100
0000
,
0001
0000
1000
0000
0100
0010
0001
1000
,
0010
0000
0010
0000
1000
0100
0010
0000
,
0001
0000
0000
0000
1000
0000
0000
0000
0010
0000
0000
0100
0000
0000
0001
0000
,
0100
0000
0010
0000
1000
0001
0010
0000
,
0001
0001
1000
1000
,
0010
0000
0100
0000
0001
1000
0100
0000
,
0010
0010
0001
1000
,
0100
0000
0010
0000
0001
1000
0010
0000
,
1000
1000
0001
0001
,
0100
0000
0010
0000
1000
0001
0010
0000
,
2002
0000
3003
0000
,
1010
1010
0000
0000
,
0100
0000
0000
0000
,
0011
0011
0000
0000
,
0000
0000
0000
0000
,
1100
1100
0000
0000
,
0010
0000
0000
0000
,
0101
0101
0000
0000
,
0000
0000
0000
0000
,
0100
0001
1000
0100
,
0011
1010
0011
1010
,
0100
0001
0010
0100
,
1000
0001
0100
0100
,
0010
1000
0001
0010
,
1100
0101
1100
0101
,
0010
1000
0100
0010
,
0001
1000
0020
0200
,
0030
0000
0300
0000
,
0010
0010
0010
1000
,
0001
0010
0100
0000
1000
0000
0001
0000
,
0100
0000
0010
0000
1000
0100
0010
0001
,
1000
0000
0010
0000
0100
0001
1000
0000
,
0001
0000
0000
0010
0000
0000
0100
0000
0000
1000
0000
0000
0001
0000
0000
0000
,
1000
0000
0010
0000
0100
0001
1000
0100
,
0010
0000
0010
0000
0100
1000
0001
0100
,
0010
0000
0010
0000
0100
0001
0100
0000
,
0010
0000
1000
0000
0100
0010
0100
0000
,
0010
0000
0010
0000
0100
1000
0100
0000
,
0010
0000
0001
0000
1000
0010
0100
0010
,
1000
0000
0100
0000
0010
0001
0010
0000
,
0001
0000
1000
0000
0010
0100
0010
0000
,
0100
0000
0100
0000
0010
1000
0010
0000
,
1000
0100
0010
0000
0001
0100
0010
0100
,
0002
1000
0023
0100
,
0032
1003
0001
0000
,
2000
0001
3200
0010
,
2300
3001
1000
0000
,
0002
1000
0203
0010
,
0302
1003
0001
0000
,
2000
0001
3020
0100
,
2030
3001
1000
0000
,
0001
0101
0000
0100
,
0010
1000
0000
0100
,
0010
0001
0000
1000
,
0010
0000
0100
0001
,
1000
1100
0000
0100
,
0010
0001
0000
0100
,
0010
1000
0000
0001
,
1000
0000
0200
0020
,
0300
0000
0030
0000
,
0001
0100
0010
0000
1000
0100
0010
0000
,
0001
0000
1001
0000
1000
0010
0200
0000
,
0300
0000
0001
1000
0100
0010
0001
1000
,
0010
0000
0000
0000
0100
0000
0000
0000
0001
0000
0000
0001
0000
0000
0001
0000
,
1000
0010
0100
0000
0001
0010
0100
0000
,
1000
0000
1001
0000
0001
0100
0020
0000
,
0030
0000
1000
0001
0010
0100
1000
0001
,
0100
0000
0000
0000
0010
0000
0000
0000
1000
0000
0000
1000
0000
0000
1000
0000
,
0001
0010
0100
0000
1000
0010
0100
0000
,
0001
0000
0000
1000
0000
0000
0001
0000
0000
1000
0000
0000
0200
0000
0000
0000
,
0300
0000
0010
0000
0001
1000
0010
0100
,
0001
0010
0100
1000
0001
0100
0010
0000
,
1000
0100
0010
0000
0001
0100
0010
0000
,
1000
0000
0000
0001
0000
0000
1000
0000
0000
0001
0000
0000
0200
0000
0000
0000
,
0300
0000
0010
0000
1000
0001
0100
0010
,
1000
0100
0010
0001
1000
0010
0100
0001
,
0020
0030
0000
0000
;

//---------------dance-single - NAOKI----------------
#NOTES:
     dance-single:
     NAOKI:
     Hard:
     14:
     0.726000,0.840000,0.368000,0.393000,0.340000:
0000
0000
0000
0000
,
0000
0000
0000
0000
,
0000
0000
0000
0000
,
0000
0000
0000
0000
,
0010
0000
0000
1000
0000
0000
0001
0000
0000
0010
0000
0000
0100
0000
0000
0000
,
1000
0001
0100
0000
0001
1000
0100
0000
,
0001
0100
0010
0001
1000
0010
0100
2000
,
3000
0000
0000
0000
0110
0000
0000
1001
0000
0000
0110
0000
0000
0000
1000
0000
,
0001
0000
0010
0000
1000
0000
0010
0000
0001
0000
0000
0100
0000
0000
0010
0000
,
1000
0000
0001
0000
1000
0000
0100
0000
0010
0000
0000
0001
0000
0000
1000
0000
,
0010
0000
0100
0000
1000
0000
0100
0000
0001
0000
0000
1000
0000
0000
0100
0000
,
0010
0000
1000
0000
0010
0000
0100
0000
1000
0000
0000
1000
0000
0000
0001
0000
,
0100
0000
0010
0000
0001
0000
0010
0000
1000
0000
0000
0100
0000
0000
0010
0000
,
0001
0000
0100
0000
0000
0010
0000
0000
0010
0000
1000
0000
0100
0000
0001
0000
,
0100
0000
0010
0000
0001
0000
1000
0000
0010
0000
0000
0100
0000
0000
0001
0000
,
1000
0000
0100
0000
0000
0100
0000
0000
0100
0010
0000
0010
0001
0000
1000
0010
,
0100
0000
0001
0000
1000
0000
0100
0000
0010
0000
0000
0010
0000
0000
0001
0000
,
1000
0010
0100
0001
0010
1000
0001
1000
,
0010
0000
0001
0000
1000
0000
0010
0000
0100
0000
0000
0100
0000
0000
0100
0000
,
0001
1000
0100
0010
0001
0001
1000
1000
,
0010
0000
0100
0000
1000
0000
0100
0000
0001
0000
0000
0010
0000
0000
1000
0000
,
0010
0100
1000
0001
0100
1000
0001
1000
,
0100
0000
0010
0000
1000
0000
0001
0000
0010
0100
0000
0010
0100
0000
1000
0000
,
0002
0000
0000
0000
0000
0000
0000
0000
0010
0000
0000
1000
0000
0000
0103
0000
,
0010
0000
0000
0000
0110
0000
0000
0100
0000
0000
0100
0000
0000
0002
0000
0003
,
1000
0000
0000
1000
0000
0000
1000
0000
0000
0100
0000
0000
0010
0000
0001
0000
,
0100
0000
0000
0000
0110
0000
0000
0010
0000
0000
0010
0000
0000
1000
0000
0000
,
0001
0000
0000
0010
0000
0000
0100
0000
1000
0000
1000
0000
0001
1000
0001
0000
,
0100
0000
0000
0000
0110
0000
0000
0010
0000
0000
0010
0000
0000
2000
0000
3000
,
0100
0000
0000
0100
0000
0000
0100
0000
0000
0010
0000
0000
0001
0000
1000
0000
,
0010
0000
0000
0000
0110
0000
0000
0100
0000
0000
0100
0000
0000
0001
0000
0000
,
0010
0000
0000
0100
0000
0000
1000
0000
0001
0000
0001
0000
1000
0001
1000
0000
,
0001
0000
0010
0000
0200
0000
0300
1000
0001
0000
0100
0000
0000
0010
0000
0000
,
1010
0000
0000
0100
0000
0000
1001
0000
0000
0010
0000
0000
0101
0000
0100
0000
,
0010
0000
1000
0000
0100
0000
0000
0010
0000
0000
0001
0000
0000
1000
0000
0000
,
0010
0000
0000
0100
0000
0000
0001
0000
1000
0000
1000
0000
0001
1000
0001
0000
,
1000
0000
0100
0000
0020
0000
0030
0001
1000
0000
0010
0000
0000
0100
0000
0000
,
0101
0000
0000
0010
0000
0000
1001
0000
0000
0100
0000
0000
1010
0000
0010
0000
,
0100
0000
0001
0000
0010
0000
0000
0100
0000
0000
1000
0000
0000
0001
0000
0000
,
0100
0000
0000
0010
0000
0000
1000
0000
0001
0000
0001
0000
1000
0001
1000
0000
,
0002
0000
0003
0000
,
1100
0000
0000
0010
0000
0000
1001
0000
0000
0100
0000
0000
0010
0000
0001
0000
,
0100
0100
0010
0000
1000
0100
0010
0001
,
2000
3020
0032
2003
3200
0302
0013
0100
,
1000
0001
0100
0000
0001
0010
0100
1000
,
0011
0000
0000
0100
0000
0000
1001
0000
0000
0010
0000
0000
0100
0000
1000
0000
,
0010
0010
0100
0000
0001
0010
0100
1000
,
0002
0203
2300
3002
0023
2030
3100
0010
,
0001
0000
1100
0000
1000
0010
0100
0000
,
0001
0000
1000
0000
0100
0010
0001
0000
,
1000
0000
0011
0000
0001
0100
0010
0000
,
1000
0000
0100
0000
0010
0001
1000
0010
,
0100
0000
0101
0000
0001
0010
0100
0000
,
1000
0000
0001
0000
0100
0010
1000
0000
,
0001
0000
1010
0000
1000
0100
0010
0000
,
0001
0000
0100
0000
0000
0100
0000
0000
0010
0000
1000
0000
0001
0000
0010
0000
,
0200
1000
1300
0000
,
0001
0000
0020
0000
0000
0100
0000
0000
0130
0000
0000
1000
0000
0000
0010
0000
,
0200
0001
0301
0000
,
1000
0000
0020
0000
0000
0100
0000
0000
0130
0000
0001
0000
1000
0000
0100
0000
,
0020
0001
0031
0000
,
1000
0000
0200
0000
0000
0010
0000
0000
0310
0000
0001
0000
0000
0100
0000
0000
,
0020
1000
1030
0000
,
0001
0000
0200
0000
0000
0010
0000
0000
0310
0000
1000
0000
0001
0000
0010
0000
,
0100
0000
1100
0000
0000
1000
0001
0000
,
0100
0000
0101
0000
0000
0001
1000
0000
,
0010
0000
1010
0000
0000
1000
0001
0000
,
0010
0000
0000
0000
0011
0000
0000
0000
0001
0000
0000
1000
0000
0000
0010
0000
,
0100
0000
0101
0000
0000
0001
1000
0000
,
0100
0000
1100
0000
0000
1000
0001
0000
,
0010
0000
0011
0000
0000
0001
1000
0000
,
0010
0000
0000
0000
1010
0000
0000
0000
1000
0000
0000
0100
0000
0000
0020
0000
,
0000
0000
0030
0000
0000
0000
0000
0000
0001
1000
0000
0001
1000
0000
0100
0000
,
0010
0001
0010
0000
0001
0000
1000
0000
0010
0000
0100
0000
0002
0000
0003
0000
,
0010
0000
0000
0110
0000
0000
0100
0000
1000
0001
0100
0000
0020
0000
0000
0000
,
0030
0000
0100
0001
1000
0100
0010
0010
,
0001
1000
0010
0000
0100
0000
0001
0000
0010
0000
0000
1100
0000
0000
0101
0000
,
0010
1000
0010
0000
1000
0000
0001
0000
0010
0000
0100
0000
2000
0000
3000
0000
,
0010
0000
0000
0110
0000
0000
0100
0000
0001
1000
0100
0000
0020
0000
0000
0000
,
0030
0000
0100
1000
0001
0100
0010
0010
,
1000
0001
0010
0000
0100
0000
1000
0000
0010
0000
0000
1001
0000
0000
0010
0000
,
0100
1000
0100
0000
1000
0000
0001
0000
0100
0000
0010
0000
2000
0000
3000
0000
,
0101
0000
0000
1100
0000
0000
1001
0000
0000
0011
0000
0000
1010
0000
0000
0000
,
0100
0001
1000
0100
0010
0001
0100
0010
,
2000
3200
0302
2003
3020
0032
1003
0010
,
0100
0001
0100
0000
0001
0000
1000
0000
0100
0000
0010
0000
0002
0000
0003
0000
,
1100
0000
0000
0101
0000
0000
1001
0000
0000
1010
0000
0000
0011
0000
0000
0000
,
0100
1000
0001
0100
1000
0100
0010
1000
,
0002
0023
2030
3002
0203
2300
3001
0100
,
0220
0330
0000
0000
;

//---------------dance-single - NAOKI----------------
#NOTES:
     dance-single:
     NAOKI:
     Challenge:
     16:
     1.000000,1.000000,0.336000,0.769000,1.000000:
0000
0000
0000
0000
,
0000
0000
0000
0000
,
0000
0000
0000
0000
,
0000
0000
0000
0000
,
0012
0000
0000
0100
0000
0000
2003
0000
0000
0010
0000
0000
3100
0000
0010
0000
,
0001
0000
1000
0100
1000
0000
0001
0000
1000
0000
0001
0100
0001
0000
0000
0000
,
1000
0010
1000
0010
0100
0010
0100
0001
0100
0001
1000
0001
1000
0100
0010
0002
,
0003
0000
0000
0000
1001
0000
0000
1100
0000
0000
0101
0000
0001
0100
0010
1000
,
0100
0000
0001
0000
0100
0000
1000
0000
0001
0000
0100
0010
0000
0100
0010
0000
,
1000
0001
0010
0000
0100
0010
0000
0100
1000
0001
0100
0010
1000
0100
0010
0001
,
0100
0000
1000
0000
0100
0000
0001
0000
1000
0000
0100
0010
0000
0100
0010
0000
,
0001
1000
0010
0000
0100
0010
0000
0100
0001
1000
0100
0010
0001
0100
0010
1000
,
0100
0000
0001
0000
0100
0000
1000
0000
0001
0000
0100
0010
0000
0100
0010
0000
,
1000
0001
0010
0000
0100
0010
0000
0100
1000
0001
0100
0010
1000
0100
0010
0001
,
0100
0000
1000
0000
0100
0000
0001
0000
1000
0000
0100
0010
0000
0100
0010
0000
,
0001
1000
0010
0000
0100
0001
0000
0100
0020
1030
0100
0020
0031
0100
0020
1030
,
0100
0000
0001
0000
0100
0000
0010
0000
0001
0000
1000
0010
0000
0010
0100
0000
,
0001
1000
0100
0000
0010
0001
0000
1000
0010
0000
0100
1000
0000
0100
0001
0000
,
0010
0000
1000
0000
0010
0000
0100
0000
1000
0000
0001
0100
0000
0100
0010
0000
,
1000
0001
0010
0000
0100
1000
0000
0001
1000
0010
0100
0001
0100
0010
0100
0001
,
1000
0000
0010
0000
0100
0000
1000
0000
0100
0000
0001
0010
0000
0010
0100
0000
,
1000
0001
0100
0000
0010
1000
0000
0001
0010
0000
0100
0001
0000
0100
1000
0000
,
0010
0000
0001
0000
0010
0000
0100
0000
0001
1000
0000
0100
0010
0001
1000
0010
,
0200
0000
0300
0000
0000
0000
0000
0000
00M0
0000
0000
00M0
0000
0000
00M0
0000
,
1001
0000
0010
0000
0110
0000
0000
0100
0000
0000
0010
0000
0000
2000
3000
0000
,
0002
0003
0000
0002
0003
0000
0002
0003
0000
0002
0003
0000
1000
0100
0010
0001
,
1000
0000
0000
0000
0000
0000
0010
0000
0000
0000
0000
0000
0110
0000
0000
0000
0000
0000
0000
0000
0000
0200
0000
0000
0300
0000
0000
0000
0000
0000
0200
0000
0000
0300
0000
0000
0000
0000
0000
0200
0000
0300
0000
0000
0000
0000
0000
0000
,
0200
0000
0000
0000
0300
0000
0000
0000
0000
0000
0000
0000
0000
0000
0000
0000
0000
0000
0200
0000
0000
0300
0000
0000
0000
0000
0000
0000
0000
0000
0000
0000
0000
0000
0000
0000
0020
0000
0000
0000
0000
0000
0030
0000
0000
0000
0000
0000
0100
0000
0000
0000
0000
0000
0000
0000
0000
0000
0000
0000
0100
0000
0000
0000
0000
0000
0000
0000
0000
0000
0000
0000
0001
0000
0000
0000
0000
0000
1000
0000
0000
0000
0000
0000
0001
0000
0000
0000
0000
0000
1000
0000
0000
0000
0000
0000
,
0100
0000
0010
0000
0110
0000
0000
0100
0000
0000
0010
0000
0000
0002
0003
0000
,
2000
3000
0000
2000
3000
0000
2000
3000
0000
2000
3000
0000
0001
0100
0010
1000
,
0001
0000
0100
0000
0110
0000
0000
0020
0030
0000
0020
0030
0000
0020
0030
0000
,
0020
0000
0000
0000
0030
0000
0000
0000
0000
0000
0000
0000
0000
0000
0000
0000
0000
0000
0020
0000
0000
0030
0000
0000
0000
0000
0000
0000
0000
0000
0000
0000
0000
0000
0000
0000
0200
0000
0000
0000
0000
0000
0300
0000
0000
0000
0000
0000
0010
0000
0000
0000
0000
0000
0000
0000
0000
0000
0000
0000
0010
0000
0000
0000
0000
0000
0000
0000
0000
0000
0000
0000
1000
0000
0000
0000
0000
0000
0001
0000
0000
0000
0000
0000
1000
0000
0000
0000
0000
0000
0001
0000
0000
0000
0000
0000
,
0010
0000
0010
0000
0100
0000
0000
0100
1000
0000
0001
0000
0100
0010
0000
0000
,
0202
0303
0000
2020
3030
0000
0022
0033
0000
2200
3300
0000
0001
0010
0100
1000
,
0001
0000
0100
0000
0110
0000
0000
0010
1000
0000
02M0
0300
0000
001M
0000
0000
,
M001
0000
0000
10M0
0000
0000
0M10
0000
0100
0000
0100
0000
0001
1000
0001
1000
,
0100
0000
0100
0000
0010
0000
0000
0010
0001
0000
1000
0000
0010
0100
0000
0000
,
0002
0000
0000
0000
0003
0000
0000
0000
0000
0000
0000
0000
0022
0000
0000
0000
0033
0000
0000
0000
0000
0000
0000
0000
2002
0000
0000
0000
3003
0000
0000
0000
0000
0000
0000
0000
0202
0000
0000
0303
0000
0000
0000
0000
0000
0000
0000
0000
1000
0000
0000
0000
0100
0000
0000
0000
0010
0000
0000
0000
0001
0000
0000
0000
,
1000
0000
0010
0000
0100
0000
0000
0100
0001
0000
0M20
0030
0000
M100
0000
0000
,
100M
0000
0000
0M01
0000
0000
01M0
0000
1001
0000
1001
0000
0010
0100
0010
0100
,
0000
0001
0001
0000
1000
1000
0000
0100
0010
0001
1000
0001
0100
0010
0000
0000
,
2020
3030
0000
0202
0303
0000
2200
3300
0000
0022
0033
0000
0100
1000
0001
0100
,
0010
1000
0100
0000
0010
0001
0000
1000
0001
1000
0100
1000
0100
0010
0100
0010
,
0001
0000
1000
0000
0010
0000
0100
0001
0010
0000
1000
0000
0010
0001
0100
0010
,
1000
0100
0010
0000
0001
1000
0000
0010
0100
1000
0100
0010
0100
0001
0000
0000
,
2000
0000
0000
0000
3000
0000
0000
0000
0000
0000
0000
0000
2020
0000
0000
0000
3030
0000
0000
0000
0000
0000
0000
0000
2002
0000
0000
0000
3003
0000
0000
0000
0000
0000
0000
0000
2200
0000
0000
3300
0000
0000
0000
0000
0000
0000
0000
0000
0001
0000
0000
0000
0010
0000
0000
0000
0100
0000
0000
0000
1000
0000
0000
0000
,
0001
0100
0001
0000
1000
0100
0000
0010
0001
1000
0010
0100
0010
1000
0001
0010
,
0200
0000
2300
0000
3002
0000
0203
0000
0320
0000
0031
0000
1000
0100
0001
0010
,
0100
0000
0001
0000
0100
0000
0010
0000
0100
0000
1000
0001
0000
0000
0100
0000
,
0010
0100
0001
0000
1000
0100
0000
0010
0100
0000
1000
0001
0000
1000
0001
0000
,
0100
0000
1000
0000
0100
0000
0010
0000
0100
0000
0001
1000
0000
0000
0100
0000
,
0010
0100
1000
0000
0001
0100
0000
0100
0020
1030
0001
0020
0130
1000
0001
0100
,
0010
0000
0001
0000
0010
0000
0100
0000
0010
0000
1000
0001
0000
0000
0010
0000
,
0100
0010
0100
0000
1000
0010
0000
0100
0010
0000
1000
0001
0000
1000
0001
0000
,
0010
0000
1000
0000
0010
0000
0100
0000
0010
0000
0001
1000
0000
0000
0010
0000
,
0100
0010
0100
0000
0001
1000
0000
0100
0020
0031
1000
0020
0130
0001
1000
0100
,
0010
0000
0000
0000
0010
0000
0000
0000
0010
0000
0001
1000
0000
0000
0010
0000
,
0000
0000
0100
0000
0000
0100
0000
0000
0100
0000
0001
1000
0000
0001
1000
0000
,
0100
0000
0000
0000
0100
0000
0000
0000
0100
0000
1000
0001
0000
0000
0100
0000
,
0000
0000
0010
0000
0000
0010
0000
1000
0001
0000
0010
0100
0000
1000
0001
0000
,
0100
0000
0000
0000
0100
0000
0000
0000
0100
0000
0001
1000
0000
0000
0100
0000
,
0000
0000
0010
0000
0000
0010
0000
0000
0010
0000
0001
1000
0000
0001
1000
0000
,
0010
0000
0000
0000
0010
0000
0000
0000
0010
0000
1000
0001
0000
0000
0010
0000
,
0000
0000
0100
0000
0000
0100
0000
1000
0001
0000
0100
0010
0000
1000
0001
0000
,
2000
3000
0001
0000
0000
1000
1100
0000
,
0001
0000
0100
0000
0000
0010
1010
0000
,
1000
0001
0010
0000
0000
0100
1100
0000
,
0010
0000
0001
0000
1000
0000
0010
0000
0100
0000
0000
0100
0000
0000
0100
0000
,
0001
0000
1000
0000
0000
0001
0101
0000
,
1000
0000
0100
0000
0000
0010
0011
0000
,
0100
0000
1000
0000
0001
0100
0010
0000
1000
0000
0001
0010
0100
1000
0100
0000
,
0010
0001
0010
0001
1000
0001
1000
0010
0100
0000
0001
1000
0000
0100
0010
0000
,
0000
0000
0000
0000
0000
0000
0000
0000
0001
0200
0300
0020
1030
0000
0001
0000
,
1000
0100
1000
0100
0010
0000
0001
0000
1000
0010
0100
0000
0001
0000
0010
0000
,
0100
0000
1000
0010
0000
0100
0001
0000
1000
0001
1000
0000
0200
0000
0000
0000
,
M30M
0000
0010
0001
1000
0010
0100
0100
,
0001
1000
0100
0010
0001
0100
0010
0000
2010
0000
0000
3200
0000
0000
0310
0000
,
0001
0100
0001
0100
0010
0000
1000
0000
0001
0010
0100
0000
1000
0000
0010
0000
,
0100
0000
0001
1000
0000
0100
0010
0000
0001
1000
0001
0000
0200
0000
0000
0000
,
M30M
0000
0010
1000
0001
0010
0100
0100
,
1000
0001
0100
0010
1000
0100
0010
0000
0012
0000
0000
0203
0000
0000
0310
0000
,
1000
0010
1000
0010
0100
0000
0001
0000
1000
0100
0010
0000
0002
1000
0003
0000
,
0110
0000
0000
0101
0000
0000
1010
0000
0000
0011
0000
0000
0100
1000
0001
0100
,
0010
0000
0100
0000
0001
0100
1000
0000
0100
0000
0001
0000
1000
0100
0010
0000
,
0002
0000
0203
0000
2300
0000
3002
0000
0023
0000
2030
0000
3100
0010
0001
1000
,
0001
0100
0010
0100
0001
0000
1000
0000
0001
0010
0100
0000
2000
0001
3000
0000
,
0110
0000
0000
1010
0000
0000
0101
0000
0000
1100
0000
0000
0010
0001
1000
0010
,
0100
0000
0010
0000
1000
0100
0001
0000
0100
0000
1000
0000
0001
0100
0010
0000
,
2000
0000
3200
0000
0302
0000
2003
0000
3020
0000
0032
0000
0103
0010
1000
0100
,
0020
0030
0000
0000
;

//---------------dance-double - [FG v1.00] NAOKI----------------
#NOTES:
     dance-double:
     [FG v1.00] NAOKI:
     Beginner:
     2:
     0.178000,0.183000,0.000000,0.090000,0.000000:
00000000
00000000
00000000
00000000
,
00000000
00000000
00000000
00000000
,
00000000
00000000
00000000
00000000
,
00000000
00000000
00000000
00000000
,
00020000
00000000
00000000
00030000
,
00002000
00000000
00000000
00003000
,
02000000
00000000
00000000
03000000
,
00000000
00000000
00000000
00000000
,
00100000
00000000
00100000
00000000
,
01000000
00000000
01000000
00000000
,
00001000
00000000
00001000
00000000
,
00010000
00000000
00010000
00000000
,
00000100
00000000
00000100
00000000
,
00000010
00000000
00000010
00000000
,
00000001
00000000
00000001
00000000
,
00001000
00000000
00002000
00000000
,
00003100
00000000
00010000
00000000
,
00000010
00000000
00001000
00000000
,
00000100
00000000
00010000
00000000
,
00001000
00000000
01000000
00000000
,
00100000
00000000
10000000
00000000
,
00010000
00000000
00100000
00000000
,
00001000
00000000
01000000
00000000
,
00020000
00000000
00030000
00000000
,
10000000
10000000
00000000
00000000
,
00000000
00000000
00000000
00000000
,
00010000
00010000
00000000
00000000
,
00000000
00000000
00000000
00000000
,
00100000
00100000
00000000
00000000
,
00000000
00000000
00000000
00000000
,
00001000
00001000
00000000
00000000
,
00000000
00000000
00000000
00000000
,
00010000
00000000
00000100
00000000
,
00000010
00000000
00000001
00000000
,
00000100
00000000
00000010
00000000
,
00010000
00000000
00001000
00000000
,
00001000
00000000
01000000
00000000
,
00100000
00000000
10000000
00000000
,
00010000
00000000
01000000
00000000
,
00001000
00000000
00020000
00000000
,
00030000
00000000
00000000
00000000
,
00000100
00000000
00000100
00000000
,
00001000
00000000
00000001
00000000
,
00000010
00000000
00000010
00000000
,
00000100
00000000
00010000
00000000
,
00002000
00000000
00003000
00000000
,
01000000
00000000
00010000
00000000
,
10000000
00000000
00100000
00000000
,
01000000
00000000
01000000
00000000
,
00010000
00000000
00010000
00000000
,
00100000
00000000
00100000
00000000
,
00001000
00000000
00001000
00000000
,
00010000
00000000
00010000
00000000
,
00000010
00000000
00000010
00000000
,
00001000
00000000
00001000
00000000
,
00000001
00000000
00000001
00000000
,
00000100
00000000
00000000
00000000
,
00000010
00000000
00000000
00000000
,
00010000
00000000
00000000
00000000
,
00000100
00000000
00000000
00000000
,
00001000
00000000
00000000
00000000
,
00000010
00000000
00000000
00000000
,
00020000
00000000
00000000
00000000
,
00002000
00000000
00033000
00000000
,
01000000
00000000
00000000
00000000
,
00010000
00000000
00000000
00000000
,
10000000
00000000
00000000
00000000
,
01000000
00000000
00000000
00000000
,
00100000
00000000
00000000
00000000
,
00001000
00000000
00000000
00000000
,
00010000
00000000
00000000
00000000
,
00000200
00000000
00000000
00000000
00000000
00000000
00000000
00000300
,
00000000
00000000
00000000
00000000
,
00001000
00000000
00001000
00000000
,
00000001
00000100
00000001
00000000
,
00001000
00000000
00000100
00000000
,
00010000
00000000
00010000
00000000
,
00000010
00000000
00000010
00000000
,
00010000
00000100
00010000
00000000
,
00001000
00000000
01000000
00000000
,
00100000
00000000
00100000
10000000
,
01000000
00000000
01000000
00000000
,
10000000
00010000
10000000
00000000
,
01000000
00000000
00100000
00000000
,
00001000
00000000
00001000
00000000
,
00010000
00000000
00010000
00000000
,
00001000
01000000
00001000
00000000
,
00010000
00000000
00000010
00000000
,
00000100
00000000
00000100
00000000
,
00000002
00000003
00000000
00000000
;

//---------------dance-double - [FG v1.00] NAOKI----------------
#NOTES:
     dance-double:
     [FG v1.00] NAOKI:
     Easy:
     7:
     0.327000,0.329000,0.074000,0.139000,0.000000:
00000000
00000000
00000000
00000000
,
00000000
00000000
00000000
00000000
,
00000000
00000000
00000000
00000000
,
00000000
00000000
00000000
00000000
,
00000010
00000000
00010000
00000100
,
00000010
00000000
00000001
00001000
,
00000100
00000000
00000000
00000000
00010000
00000000
00002000
00003000
,
00000000
00000000
00000000
00000000
,
01000000
00100000
01000000
00000000
,
00010000
00100000
00001000
01000000
,
00010000
10000000
00010000
00000000
,
00100000
00001000
00010000
00000100
,
00001000
00000010
00001000
00000000
,
00000100
00000010
00000001
00001000
,
00000100
00010000
00000100
00000000
,
00010000
00001000
01000000
00010000
,
10000000
10000000
00100000
00000000
,
01000000
00001000
00100000
00000000
,
00010000
00010000
01000000
00000000
,
00001000
00010000
00000010
00000000
,
00001000
00001000
00000001
00000000
,
00000100
00000010
00010000
00000000
,
00001000
00001000
00010000
00000000
,
00110000
00000000
00000000
00000000
,
01000000
01100000
00000000
00000000
,
00000000
00000000
00000000
00000000
,
01000000
00011000
00000000
00000000
,
00000000
00000000
00000000
00000000
,
00000100
00000110
00000000
00000000
,
00000000
00000000
00000000
00000000
,
00000100
00001001
00000000
00000000
,
00000000
00000000
00000000
00000000
,
00001000
00100000
01000000
10000000
,
00010000
00010000
00010000
00010000
,
10000000
00100000
01000000
00001000
,
00010000
00000010
00000100
00001000
,
00000100
00000010
00001000
00000001
,
00000010
00000010
00000010
00000010
,
00000001
00001000
00000100
00010000
,
00001000
00100000
00010000
01000000
,
00002000
00000000
00003000
00000000
,
01000000
00010000
01000000
00010000
,
10000000
00100000
00010000
00100000
,
10000000
01000000
00010000
01000000
,
00100000
00001000
00010000
00000100
,
00001000
00001000
00001000
00001000
,
00000100
00000010
00000001
00001000
,
00001100
00000000
00000100
00000000
,
00010000
00001000
01000000
00000000
,
00010000
00010000
00010000
00000000
,
00100000
00001000
00010000
00000000
,
00000010
00000010
00000010
00001000
,
00000001
00001000
00000100
00000000
,
00010000
00010000
00010000
00000000
,
00001000
00100000
01000000
00000000
,
10000000
10000000
10000000
00000000
,
00200000
00000000
01300000
00000000
,
20000000
00000000
31000000
00000000
,
00200000
00000000
01300000
00000000
,
00020000
01030000
20000000
31000000
,
00020000
00000000
00130000
00000000
,
20000000
00000000
30100000
00000000
,
02000000
00000000
03100000
00000000
,
00020000
00130000
20000000
30100000
,
01000000
00010000
00000000
00010000
,
00100000
00001000
00000000
00001000
,
00010000
00000100
00000000
00000100
,
00001000
00000001
00001001
00000000
,
00000001
00000100
00000000
00000100
,
00000010
00001000
00000000
00001000
,
00000100
00010000
00000000
00010000
,
00001000
00000000
00001010
00000000
,
00020000
00000000
00030000
00000000
,
00000010
00001000
00000010
00000000
,
00000100
00000001
00001000
00001000
,
00000100
00010000
00001000
00100000
,
00010000
01000000
00002000
00003000
,
00010000
00001000
00010000
00000000
,
00000100
00000010
00000001
00000001
,
00000100
00000010
00010000
00000100
,
00001000
00000010
00020000
00030000
,
00001000
00010000
00001000
00000000
,
00100000
00010000
01000000
01000000
,
00001000
00100000
01000000
10000000
,
00010000
01000000
00001000
00001000
,
00010000
00001000
00010000
00000000
,
00000100
00000010
00000001
00000001
,
00000100
00000010
00001000
00000100
,
00010000
00001000
01000000
01000000
,
02020000
03030000
00000000
00000000
;

//---------------dance-double - [FG v1.00] NAOKI----------------
#NOTES:
     dance-double:
     [FG v1.00] NAOKI:
     Medium:
     11:
     0.472000,0.475000,0.172000,0.196000,0.045000:
00000000
00000000
00000000
00000000
,
00000000
00000000
00000000
00000000
,
00000000
00000000
00000000
00000000
,
00000000
00000000
00000000
00000000
,
00100000
00000000
00010000
01000000
,
00001000
00000000
00010000
00000100
,
00001000
00000001
00000010
00000100
00010000
00001000
00100000
00002000
,
00003000
00000000
00000000
00000000
01000000
00000000
00000000
00010000
00000000
00000000
10000000
00000000
00000000
00000000
01000000
00000000
,
00100000
00000000
00100000
00000000
00001000
00010000
00000010
00000000
,
00001000
00000000
00000100
00000000
00010000
00000010
00000100
00000001
,
00001000
00000000
00001000
00000000
00000001
00000010
00000100
00000000
,
00010000
00000000
00000000
00000000
00001000
00000000
00000000
00000000
01000000
00000000
00000000
00010000
00000000
00000000
10000000
00000000
,
00010000
00000000
00010000
00000000
10000000
01000000
00100000
00000000
,
00010000
00000000
01000000
00000000
00001000
00010000
00000010
00001000
,
00000100
00000000
00000100
00000000
00001000
00000001
00000010
00000000
,
00000100
00000000
00000000
00000000
00010000
00000000
00000000
00000000
00001000
00000000
00000000
01000000
00000000
00000000
00100000
00000000
,
01000000
00000000
00001000
00000000
00010000
00000010
00001000
00000000
,
00000010
00000010
00010000
00010000
,
00001000
00000000
00100000
00000000
00010000
01000000
00100000
00000000
,
10000000
10000000
01000000
00100000
,
00001000
00000000
00010000
00000000
00000100
00001000
00000010
00000000
,
00001000
00001000
00000001
00000001
,
00000100
00000000
00000010
00000000
00010000
00000100
00001000
00000000
,
00020200
00000000
00030300
00000000
,
00011000
00011000
00000000
00000000
,
01000000
00000000
00000000
00000000
,
00011000
00011000
00000000
00000000
,
00000000
00000000
00000000
00000000
,
11000000
11000000
00000000
00000000
,
00010000
00000000
00000000
00000000
,
10100000
10100000
00000000
00000000
,
00000000
00000000
00000000
00000000
,
10000000
00100000
01000000
00001000
,
00010100
00001001
00010010
00000101
,
00000010
00000100
00010000
00001000
,
00100000
00010000
01000000
01000000
,
00001000
00010000
00000100
00001000
,
00000011
00010100
00101000
01010000
,
00001000
00100000
00010000
01000000
,
00001000
00010000
00000200
00002000
,
00000300
00000000
00003000
00000000
,
00000100
00000100
00000100
00000010
,
00000001
00001000
00000010
00000000
00010000
00000000
00001000
00000000
,
01000000
00000000
00010000
00000000
00100000
00001000
01000000
00010000
,
00100000
00000000
00001000
00000000
01000000
00010000
10000000
00000000
,
00010000
00000000
00000000
00100000
00000000
00000000
00001000
00000000
00000000
00010000
00000000
00000000
00000010
00000000
00000000
00000000
,
00010000
00000000
00000100
00000000
00001000
00000001
00000100
00000010
,
00001000
00000000
00001000
00000000
00000010
00010000
00001000
01000000
,
00100000
00000000
00100000
00000000
01000000
00010000
01000000
00000000
,
00001000
00000000
00010000
00000000
00000100
00000010
00000100
00000000
,
00000010
00000000
00000010
00000000
00000100
00001000
00000100
00000000
,
00010000
00000000
00001000
00000000
00100000
00010000
01000000
00010000
,
10000000
00000000
01000000
00000000
00100000
00001000
00100000
00000000
,
00001000
00000000
01000000
00000000
00010000
10000000
00010000
00000000
,
10000000
00000000
10000000
00000000
00010000
01000000
00010000
00000000
,
01000000
00001000
00010000
00000000
00000010
00001000
00000001
00001000
,
00000200
00000010
00002300
00000010
,
00003002
00000103
00000001
00000000
,
00000200
00000001
00000320
00001000
,
00020030
00031000
00010000
00000000
,
00002000
00010000
02003000
00100000
,
03020000
00130000
00010000
00000000
,
00200000
00010000
02300000
10000000
,
03200000
00301000
00100000
00000000
,
00001000
00011000
00000000
00010000
,
00000100
00001000
00000000
00000001
,
00000100
00000010
00000000
00001000
,
00000001
00000000
00000010
00000100
,
00010000
00011000
00000000
00001000
,
00100000
01000000
00000000
10000000
,
00010000
01000000
00000000
00100000
,
01000000
00000000
00002000
00020000
,
00003000
00000000
00030000
00000000
,
00000100
00000010
00000001
00000000
00001000
00000100
00010000
00000000
,
00001000
00000000
01001000
00000000
01000000
00010000
00200000
00000000
,
00300000
00000000
00001000
00010000
00000100
00000010
00000001
00000100
,
00000010
00000000
00000000
00000000
00010000
00000000
00000000
00000000
00001000
00000000
00000000
00001000
00000000
00000000
00001000
00000000
,
01000000
00010000
10000000
00000000
00100000
01000000
00010000
00000000
,
10000000
00000000
11000000
00000000
01000000
00100000
00002000
00000000
,
00003000
00000000
00010000
00000100
00001000
00000010
00010000
00000100
,
00001000
00000000
00000000
00000000
00000010
00000000
00000000
00000000
00010000
00000000
00000000
00010000
00000000
00000000
00010000
00000000
,
00000100
00001000
00000001
00000000
00000100
00000010
00010000
00000000
,
00001000
00000000
00000000
00100000
00000000
00000000
00001000
00000000
00000000
00100000
00000000
00000000
02000000
00000000
00000000
00000000
,
03000000
00000000
10000000
00000000
00010000
01000000
00001000
00010000
,
00000100
00001000
00000001
00000100
00000010
00001000
00000001
00000000
,
00000100
00000010
00010000
00000000
00001000
00100000
00010000
00000000
,
10000000
00000000
00000000
01000000
00000000
00000000
10000000
00000000
00000000
01000000
00000000
00000000
00200000
00000000
00000000
00000000
,
00300000
00000000
00001000
00000000
01000000
00010000
00100000
00001000
,
00010000
00000100
00001000
00000001
00000010
00000100
00010000
00000010
,
00002000
00003000
00000000
00000000
;

//---------------dance-double - [FG v1.00] NAOKI----------------
#NOTES:
     dance-double:
     [FG v1.00] NAOKI:
     Hard:
     14:
     0.726000,0.840000,0.368000,0.393000,0.340000:
00000000
00000000
00000000
00000000
,
00000000
00000000
00000000
00000000
,
00000000
00000000
00000000
00000000
,
00000000
00000000
00000000
00000000
,
00000100
00000000
00000000
00010000
00000000
00000000
00001000
00000000
00000000
01000000
00000000
00000000
00010000
00000000
00000000
00000000
,
00100000
00001000
00010000
00000000
00001000
00100000
01000000
00000000
,
00010000
01000000
00100000
00001000
00010000
00000010
00000100
00002000
,
00003000
00000000
00000000
00000000
00000101
00000000
00000000
00001010
00000000
00000000
00011000
00000000
00000000
00000000
01000000
00000000
,
00010000
00000000
00100000
00000000
10000000
00000000
00100000
00000000
00010000
00000000
00000000
01000000
00000000
00000000
00001000
00000000
,
00010000
00000000
00000010
00000000
00010000
00000000
00000100
00000000
00000010
00000000
00000000
00000001
00000000
00000000
00001000
00000000
,
00000010
00000000
00000100
00000000
00001000
00000000
00000100
00000000
00000010
00000000
00000000
00001000
00000000
00000000
00000001
00000000
,
00000010
00000000
00001000
00000000
00000010
00000000
00000100
00000000
00010000
00000000
00000000
00010000
00000000
00000000
00001000
00000000
,
01000000
00000000
00100000
00000000
00010000
00000000
00100000
00000000
10000000
00000000
00000000
01000000
00000000
00000000
00100000
00000000
,
00001000
00000000
01000000
00000000
00000000
00010000
00000000
00000000
00010000
00000000
10000000
00000000
01000000
00000000
00010000
00000000
,
01000000
00000000
10000000
00000000
00010000
00000000
00100000
00000000
00001000
00000000
00000000
00010000
00000000
00000000
00000100
00000000
,
00001000
00000000
00000001
00000000
00000000
00000001
00000000
00000000
00000001
00000100
00000000
00000100
00000010
00000000
00001000
00000100
,
00010000
00000000
00001000
00000000
01000000
00000000
00010000
00000000
10000000
00000000
00000000
10000000
00000000
00000000
01000000
00000000
,
00100000
00001000
00010000
00000100
00000010
00001000
00000001
00001000
,
00000010
00000000
00000001
00000000
00001000
00000000
00000100
00000000
00010000
00000000
00000000
00010000
00000000
00000000
00010000
00000000
,
00001000
01000000
00010000
00100000
00001000
00001000
00010000
00010000
,
00000010
00000000
00000100
00000000
00001000
00000000
00000100
00000000
00000001
00000000
00000000
00000010
00000000
00000000
00001000
00000000
,
00000010
00000100
00010000
00000010
00000100
00001000
00000001
00001000
,
00000100
00000000
00000010
00000000
00010000
00000000
00001000
00000000
00100000
01000000
00000000
00100000
01000000
00000000
10000000
00000000
,
00200000
00000000
00000000
00000000
00000000
00000000
00000000
00000000
01000000
00000000
00000000
10000000
00000000
00000000
01300000
00000000
,
00010000
00000000
00000000
00000000
01010000
00000000
00000000
01000000
00000000
00000000
01000000
00000000
00000000
00002000
00000000
00003000
,
00010000
00000000
00000000
00010000
00000000
00000000
00010000
00000000
00000000
00000100
00000000
00000000
00001000
00000000
00000010
00000000
,
00010000
00000000
00000000
00000000
00011000
00000000
00000000
00001000
00000000
00000000
00001000
00000000
00000000
00100000
00000000
00000000
,
00010000
00000000
00000000
01000000
00000000
00000000
00100000
00000000
10000000
00000000
10000000
00000000
00010000
10000000
00010000
00000000
,
00100000
00000000
00000000
00000000
00101000
00000000
00000000
00001000
00000000
00000000
00001000
00000000
00000000
00020000
00000000
00030000
,
00000100
00000000
00000000
00000100
00000000
00000000
00000100
00000000
00000000
00001000
00000000
00000000
00000010
00000000
00000100
00000000
,
00000001
00000000
00000000
00000000
00001001
00000000
00000000
00001000
00000000
00000000
00001000
00000000
00000000
00000010
00000000
00000000
,
00010000
00000000
00000000
00001000
00000000
00000000
01000000
00000000
00010000
00000000
00010000
00000000
01000000
00010000
01000000
00000000
,
00010000
00000000
10000000
00000000
00200000
00000000
00300000
01000000
00001000
00000000
00010000
00000000
00000000
00000100
00000000
00000000
,
00001100
00000000
00000000
00000010
00000000
00000000
00001010
00000000
00000000
00000001
00000000
00000000
00010100
00000000
00010000
00000000
,
00001000
00000000
00100000
00000000
01000000
00000000
00000000
10000000
00000000
00000000
00100000
00000000
00000000
01000000
00000000
00000000
,
00001000
00000000
00000000
00010000
00000000
00000000
00000010
00000000
00001000
00000000
00001000
00000000
00000010
00001000
00000010
00000000
,
00001000
00000000
00000100
00000000
00020000
00000000
00030000
00001000
00100000
00000000
00010000
00000000
00000000
10000000
00000000
00000000
,
11000000
00000000
00000000
00100000
00000000
00000000
00110000
00000000
00000000
01000000
00000000
00000000
00101000
00000000
00001000
00000000
,
00010000
00000000
00000100
00000000
00000010
00000000
00000000
00000001
00000000
00000000
00000100
00000000
00000000
00000010
00000000
00000000
,
00010000
00000000
00000000
00001000
00000000
00000000
01000000
00000000
00010000
00000000
00010000
00000000
01000000
00010000
01000000
00000000
,
00020000
00000000
00030000
00000000
,
11000000
00000000
00000000
00001000
00000000
00000000
10100000
00000000
00000000
01000000
00000000
00000000
00100000
00000000
00001000
00000000
,
00010000
00010000
00000100
00000000
00001000
00000001
00000010
00000100
,
00002000
00003020
00000032
00002003
00003200
00000302
00000013
00000100
,
00010000
00001000
00100000
00000000
00001000
00010000
00000100
00001000
,
00000011
00000000
00000000
00010000
00000000
00000000
00000110
00000000
00000000
00010000
00000000
00000000
00001000
00000000
01000000
00000000
,
00100000
00100000
10000000
00000000
00010000
01000000
00001000
00010000
,
00000020
00000230
00002300
00003002
00000023
00000230
00000301
00000010
,
00000100
00000000
00011000
00000000
00010000
00001000
00100000
00000000
,
00010000
00000000
10000000
00000000
01000000
00100000
00001000
00000000
,
01000000
00000000
00011000
00000000
00010000
00100000
00001000
00000000
,
01000000
00000000
00010000
00000000
10000000
00100000
01000000
00001000
,
00010000
00000000
00010100
00000000
00000100
00001000
00000001
00000000
,
00000010
00000000
00000100
00000000
00010000
00001000
01000000
00000000
,
00100000
00000000
11000000
00000000
10000000
00010000
01000000
00000000
,
00001000
00000000
00010000
00000000
00000000
00010000
00000000
00000000
00000100
00000000
00001000
00000000
00000001
00000000
00000100
00000000
,
00000020
00001000
00001030
00000000
,
00000100
00000000
00020000
00000000
00000000
00001000
00000000
00000000
00031000
00000000
00000000
00100000
00000000
00000000
00010000
00000000
,
20000000
01000000
31000000
00000000
,
00100000
00000000
00002000
00000000
00000000
00010000
00000000
00000000
00013000
00000000
00000100
00000000
00001000
00000000
00000010
00000000
,
00020000
00001000
00031000
00000000
,
00100000
00000000
02000000
00000000
00000000
10000000
00000000
00000000
13000000
00000000
00010000
00000000
00000000
00100000
00000000
00000000
,
00002000
00010000
00013000
00000000
,
00000010
00000000
00000200
00000000
00000000
00000001
00000000
00000000
00000301
00000000
00000010
00000000
00000100
00000000
00001000
00000000
,
00000010
00000000
00010010
00000000
00000000
00010000
00001000
00000000
,
01000000
00000000
01001000
00000000
00000000
00001000
00100000
00000000
,
01000000
00000000
01100000
00000000
00000000
00100000
00010000
00000000
,
10000000
00000000
00000000
00000000
10010000
00000000
00000000
00000000
00010000
00000000
00000000
00100000
00000000
00000000
00001000
00000000
,
00010000
00000000
00010100
00000000
00000000
00000100
00001000
00000000
,
00000001
00000000
00001001
00000000
00000000
00001000
00000100
00000000
,
00010000
00000000
00010100
00000000
00000000
00000100
00000010
00000000
,
00000001
00000000
00000000
00000000
00000011
00000000
00000000
00000000
00000010
00000000
00000000
00000100
00000000
00000000
00020000
00000000
,
00000000
00000000
00030000
00000000
00000000
00000000
00000000
00000000
00001000
01000000
00000000
00001000
01000000
00000000
00010000
00000000
,
00100000
00001000
00100000
00000000
00001000
00000000
01000000
00000000
00100000
00000000
10000000
00000000
00020000
00000000
00030000
00000000
,
01000000
00000000
00000000
01001000
00000000
00000000
00001000
00000000
00010000
00000100
00001000
00000000
00000020
00000000
00000000
00000000
,
00000030
00000000
00001000
00000100
00010000
00001000
00100000
00100000
,
00010000
01000000
00001000
00000000
00010000
00000000
00000100
00000000
00000010
00000000
00000000
00011000
00000000
00000000
01010000
00000000
,
00001000
00010000
00001000
00000000
00010000
00000000
00000100
00000000
00000010
00000000
00000001
00000000
00000200
00000000
00000300
00000000
,
00000010
00000000
00000000
00010010
00000000
00000000
00010000
00000000
00001000
01000000
00010000
00000000
00200000
00000000
00000000
00000000
,
00300000
00000000
00010000
10000000
01000000
00100000
00001000
00001000
,
00010000
00000100
00001000
00000000
00000001
00000000
00000100
00000000
00000010
00000000
00000000
00000101
00000000
00000000
00001000
00000000
,
00000010
00010000
00000010
00000000
00010000
00000000
00001000
00000000
01000000
00000000
00100000
00000000
20000000
00000000
30000000
00000000
,
01010000
00000000
00000000
11000000
00000000
00000000
01010000
00000000
00000000
00110000
00000000
00000000
10100000
00000000
00000000
00000000
,
01000000
00001000
00010000
00000100
00001000
00000001
00000100
00000010
,
00002000
00003200
00000302
00002003
00003020
00000032
00000103
00000010
,
00001000
00000100
00001000
00000000
00000100
00000000
00010000
00000000
00001000
00000000
01000000
00000000
00020000
00000000
00030000
00000000
,
10100000
00000000
00000000
00110000
00000000
00000000
10010000
00000000
00000000
11000000
00000000
00000000
01010000
00000000
00000000
00000000
,
00001000
00010000
00000010
00000100
00001000
00000100
00000010
00001000
,
00000002
00000023
00002030
00003002
00000203
00002300
00003010
00010000
,
00022000
00033000
00000000
00000000
;

//---------------dance-double - [FG v1.00] NAOKI----------------
#NOTES:
     dance-double:
     [FG v1.00] NAOKI:
     Challenge:
     16:
     1.000000,1.000000,0.336000,0.769000,1.000000:
00000000
00000000
00000000
00000000
,
00000000
00000000
00000000
00000000
,
00000000
00000000
00000000
00000000
,
00000000
00000000
00000000
00000000
,
01002000
00000000
00000000
00010000
00000000
00000000
02003000
00000000
00000000
00100000
00000000
00000000
03010000
00000000
00100000
00000000
,
00001000
00000000
00010000
00000010
00010000
00000000
00000100
00000000
00010000
00000000
00000100
00001000
00000100
00000000
00000000
00000000
,
00000010
00000001
00000010
00000001
00001000
00000001
00001000
00000100
00001000
00000100
00010000
00000100
00010000
00001000
01000000
00020000
,
00030000
00000000
00000000
00000000
10010000
00000000
00000000
11000000
00000000
00000000
00101000
00000000
00001000
00100000
00010000
10000000
,
01000000
00000000
00010000
00000000
01000000
00000000
00100000
00000000
00001000
00000000
00010000
00000010
00000000
00010000
00000010
00000000
,
00001000
00000100
00010000
00000000
00001000
00010000
00000000
00001000
00100000
00010000
10000000
01000000
00100000
00010000
10000000
00100000
,
01000000
00000000
10000000
00000000
01000000
00000000
00010000
00000000
00100000
00000000
00001000
01000000
00000000
00001000
01000000
00000000
,
00010000
00100000
00001000
00000000
00010000
00001000
00000000
00010000
00000100
00001000
00000001
00000010
00000100
00001000
00000001
00000010
,
00000100
00000000
00000001
00000000
00000100
00000000
00001000
00000000
00000001
00000000
00000010
00000100
00000000
00000010
00000100
00000000
,
00001000
00000010
00010000
00000000
00001000
00010000
00000000
00001000
01000000
00010000
10000000
01000000
00100000
00010000
10000000
00100000
,
01000000
00000000
10000000
00000000
01000000
00000000
00010000
00000000
00100000
00000000
00001000
01000000
00000000
00001000
01000000
00000000
,
00010000
00100000
00001000
00000000
00010000
00000100
00000000
00010000
00000020
00001030
00000001
00000200
00000310
00001000
00000002
00000013
,
00000100
00000000
00000001
00000000
00000100
00000000
00001000
00000000
00000010
00000000
00010000
00001000
00000000
00001000
00100000
00000000
,
00010000
01000000
00001000
00000000
00010000
00000100
00000000
00001000
00000010
00000000
00000100
00001000
00000000
00000100
00000001
00000000
,
00000010
00000000
00001000
00000000
00000010
00000000
00000100
00000000
00010000
00000000
00000010
00001000
00000000
00001000
00000100
00000000
,
00010000
00000010
00001000
00000000
00000100
00010000
00000000
00000010
00010000
00001000
01000000
00010000
01000000
00001000
01000000
00010000
,
10000000
00000000
00100000
00000000
01000000
00000000
10000000
00000000
01000000
00000000
00010000
00100000
00000000
00100000
00001000
00000000
,
00010000
00000010
00001000
00000000
00000100
00010000
00000000
00001000
00100000
00000000
01000000
00010000
00000000
01000000
10000000
00000000
,
00100000
00000000
00010000
00000000
00100000
00000000
01000000
00000000
00001000
00100000
00000000
00010000
01000000
00001000
00010000
00000100
,
00002000
00000000
00003000
00000000
00000000
00000000
00000000
00000000
00000M00
00000000
00000000
00000M00
00000000
00000000
00000M00
00000000
,
00000011
00000000
00000100
00000000
00001100
00000000
00000000
00001000
00000000
00000000
00000100
00000000
00000000
00020000
00030000
00000000
,
00002000
00003000
00000000
00002000
00003000
00000000
00002000
00003000
00000000
00002000
00003000
00000000
00010000
00000010
00001000
00000001
,
00000100
00000000
00000000
00000000
00000000
00000000
00000010
00000000
00000000
00000000
00000000
00000000
00010010
00000000
00000000
00000000
00000000
00000000
00000000
00000000
00000000
00020000
00000000
00000000
00030000
00000000
00000000
00000000
00000000
00000000
00020000
00000000
00000000
00030000
00000000
00000000
00000000
00000000
00000000
00020000
00000000
00030000
00000000
00000000
00000000
00000000
00000000
00000000
,
00020000
00000000
00000000
00000000
00030000
00000000
00000000
00000000
00000000
00000000
00000000
00000000
00000000
00000000
00000000
00000000
00000000
00000000
00020000
00000000
00000000
00030000
00000000
00000000
00000000
00000000
00000000
00000000
00000000
00000000
00000000
00000000
00000000
00000000
00000000
00000000
00000020
00000000
00000000
00000000
00000000
00000000
00000030
00000000
00000000
00000000
00000000
00000000
00010000
00000000
00000000
00000000
00000000
00000000
00000000
00000000
00000000
00000000
00000000
00000000
00010000
00000000
00000000
00000000
00000000
00000000
00000000
00000000
00000000
00000000
00000000
00000000
00001000
00000000
00000000
00000000
00000000
00000000
01000000
00000000
00000000
00000000
00000000
00000000
00001000
00000000
00000000
00000000
00000000
00000000
01000000
00000000
00000000
00000000
00000000
00000000
,
00010000
00000000
10000000
00000000
10010000
00000000
00000000
00010000
00000000
00000000
10000000
00000000
00000000
02000000
03000000
00000000
,
00200000
00300000
00000000
00200000
00300000
00000000
00200000
00300000
00000000
00200000
00300000
00000000
01000000
10000000
00010000
00100000
,
00001000
00000000
00010000
00000000
00010100
00000000
00000000
00000200
00000300
00000000
00000200
00000300
00000000
00000200
00000300
00000000
,
00000200
00000000
00000000
00000000
00000300
00000000
00000000
00000000
00000000
00000000
00000000
00000000
00000000
00000000
00000000
00000000
00000000
00000000
00000200
00000000
00000000
00000300
00000000
00000000
00000000
00000000
00000000
00000000
00000000
00000000
00000000
00000000
00000000
00000000
00000000
00000000
00020000
00000000
00000000
00000000
00000000
00000000
00030000
00000000
00000000
00000000
00000000
00000000
00000100
00000000
00000000
00000000
00000000
00000000
00000000
00000000
00000000
00000000
00000000
00000000
00000100
00000000
00000000
00000000
00000000
00000000
00000000
00000000
00000000
00000000
00000000
00000000
00001000
00000000
00000000
00000000
00000000
00000000
00000010
00000000
00000000
00000000
00000000
00000000
00001000
00000000
00000000
00000000
00000000
00000000
00000010
00000000
00000000
00000000
00000000
00000000
,
00010000
00000000
00010000
00000000
00001000
00000000
00000000
00001000
00100000
00000000
00010000
00000000
01000000
00001000
00000000
00000000
,
02200000
03300000
00000000
22000000
33000000
00000000
00202000
00303000
00000000
22000000
33000000
00000000
00010000
01000000
00001000
00010000
,
00000010
00000000
00001000
00000000
00001001
00000000
00000000
00000001
00000100
00000000
0000002M
00000030
00000000
000M1000
00000000
00000000
,
00000M01
00000000
00000000
0000M100
00000000
00000000
000M0010
00000000
00010000
00000000
00010000
00000000
00001000
01000000
00001000
01000000
,
00010000
00000000
00010000
00000000
00100000
00000000
00000000
00100000
00001000
00000000
00010000
00000000
00000010
00001000
00000000
00000000
,
00000002
00000000
00000000
00000000
00000003
00000000
00000000
00000000
00000000
00000000
00000000
00000000
00000022
00000000
00000000
00000000
00000033
00000000
00000000
00000000
00000000
00000000
00000000
00000000
00002002
00000000
00000000
00000000
00003003
00000000
00000000
00000000
00000000
00000000
00000000
00000000
00000022
00000000
00000000
00000033
00000000
00000000
00000000
00000000
00000000
00000000
00000000
00000000
00001000
00000000
00000000
00000000
00000100
00000000
00000000
00000000
00010000
00000000
00000000
00000000
00001000
00000000
00000000
00000000
,
01000000
00000000
00100000
00000000
10000000
00000000
00000000
10000000
01000000
00000000
M0200000
00300000
00000000
000M1000
00000000
00000000
,
M1000000
00000000
00000000
0001M000
00000000
00000000
10M00000
00000000
00110000
00000000
00110000
00000000
00001000
00010000
00001000
00010000
,
00000000
00000010
00000010
00000000
00000100
00000100
00000000
00000001
00001000
00000100
00010000
00000100
00001000
00000001
00000000
00000000
,
00000022
00000033
00000000
00020200
00030300
00000000
00202000
00303000
00000000
22000000
33000000
00000000
00010000
01000000
00001000
00010000
,
00000010
00001000
00000001
00000000
00000100
00000010
00000000
00010000
00000010
00010000
00001000
00010000
00001000
01000000
00001000
01000000
,
00010000
00000000
10000000
00000000
01000000
00000000
00100000
00001000
00010000
00000000
01000000
00000000
00010000
00001000
00100000
00010000
,
10000000
01000000
00100000
00000000
00010000
10000000
00000000
00100000
01000000
10000000
01000000
00100000
01000000
00010000
00000000
00000000
,
00200000
00000000
00000000
00000000
00300000
00000000
00000000
00000000
00000000
00000000
00000000
00000000
00202000
00000000
00000000
00000000
00303000
00000000
00000000
00000000
00000000
00000000
00000000
00000000
00220000
00000000
00000000
00000000
00330000
00000000
00000000
00000000
00000000
00000000
00000000
00000000
02200000
00000000
00000000
03300000
00000000
00000000
00000000
00000000
00000000
00000000
00000000
00000000
00010000
00000000
00000000
00000000
01000000
00000000
00000000
00000000
00001000
00000000
00000000
00000000
00010000
00000000
00000000
00000000
,
00000100
00001000
00000100
00000000
00010000
00000010
00000000
00000100
00000001
00001000
00000100
00010000
00000100
00001000
00000001
00000100
,
00000020
00000000
00002030
00000000
00003002
00000000
00000203
00000000
00000320
00000000
00000031
00000000
00001000
00000100
00000010
00001000
,
00000100
00000000
00000001
00000000
00000100
00000000
00001000
00000000
00000100
00000000
00010000
00001000
00000000
00000000
01000000
00000000
,
00010000
01000000
00001000
00000000
00100000
00010000
00000000
10000000
00010000
00000000
01000000
00001000
00000000
01000000
00001000
00000000
,
00010000
00000000
00100000
00000000
00010000
00000000
00001000
00000000
00010000
00000000
00000100
00001000
00000000
00000000
00000010
00000000
,
00010000
00000010
00001000
00000000
00000100
00010000
00000000
00010000
00000020
00001030
00000001
00000200
00000310
00001000
00000001
00000100
,
00000010
00000000
00000001
00000000
00000010
00000000
00001000
00000000
00000010
00000000
00010000
00001000
00000000
00000000
00100000
00000000
,
01000000
00100000
01000000
00000000
10000000
00010000
00000000
00100000
00010000
00000000
01000000
00001000
00000000
01000000
00001000
00000000
,
00010000
00000000
01000000
00000000
00010000
00000000
00001000
00000000
00010000
00000000
00000100
00001000
00000000
00000000
00000010
00000000
,
00010000
00000010
00010000
00000000
00001000
00100000
00000000
00010000
02000000
03100000
10000000
00020000
00130000
00001000
00010000
00000100
,
00001000
00000000
00000000
00000000
00001000
00000000
00000000
00000000
00001000
00000000
00000001
00000100
00000000
00000000
00000010
00000000
,
00000000
00000000
00001000
00000000
00000000
00001000
00000000
00000000
00001000
00000000
00000100
00010000
00000000
00000100
00010000
00000000
,
00000010
00000000
00000000
00000000
00000010
00000000
00000000
00000000
00000010
00000000
00010000
00001000
00000000
00000000
00100000
00000000
,
00000000
00000000
01000000
00000000
00000000
01000000
00000000
10000000
00010000
00000000
00100000
00001000
00000000
01000000
00010000
00000000
,
10000000
00000000
00000000
00000000
10000000
00000000
00000000
00000000
10000000
00000000
00010000
00100000
00000000
00000000
00001000
00000000
,
00000000
00000000
01000000
00000000
00000000
01000000
00000000
00000000
01000000
00000000
00010000
00100000
00000000
00010000
00100000
00000000
,
00001000
00000000
00000000
00000000
00001000
00000000
00000000
00000000
00001000
00000000
00100000
00010000
00000000
00000000
01000000
00000000
,
00000000
00000000
00001000
00000000
00000000
00001000
00000000
00010000
00000100
00000000
00000010
00000001
00000000
00001000
00000100
00000000
,
00002000
00003000
00000100
00000000
00000000
00001000
00001010
00000000
,
00000001
00000000
00000010
00000000
00000000
00000100
00010100
00000000
,
00010000
00001000
00100000
00000000
00000000
00010000
01010000
00000000
,
10000000
00000000
00100000
00000000
01000000
00000000
00001000
00000000
00010000
00000000
00000000
00010000
00000000
00000000
00010000
00000000
,
00000100
00000000
00000010
00000000
00000000
00000100
00001100
00000000
,
00000010
00000000
00000001
00000000
00000000
00001000
00001010
00000000
,
00000100
00000000
00010000
00000000
00001000
01000000
00010000
00000000
00100000
00000000
00001000
01000000
00010000
10000000
00010000
00000000
,
01000000
00001000
01000000
00001000
00010000
00001000
00010000
00000100
00001000
00000000
00000001
00000010
00000000
00000100
00001000
00000000
,
00000000
00000000
00000000
00000000
00000000
00000000
00000000
00000000
00000001
00000020
00000030
00000200
00001300
00000000
00000001
00000000
,
00001000
00000100
00001000
00000100
00010000
00000000
00000010
00000000
00001000
00000100
00010000
00000000
00001000
00000000
00100000
00000000
,
01000000
00000000
10000000
00010000
00000000
00100000
01000000
00000000
10000000
01000000
10000000
00000000
00020000
00000000
00000000
00000000
,
MM030000
00000000
00100000
00001000
00010000
00000010
00000100
00000100
,
00000001
00001000
00000010
00010000
00001000
00100000
00010000
00000000
20010000
00000000
00000000
32000000
00000000
00000000
03100000
00000000
,
00010000
01000000
00010000
01000000
00001000
00000000
00100000
00000000
00010000
01000000
00001000
00000000
00010000
00000000
00000010
00000000
,
00000100
00000000
00000001
00001000
00000000
00000010
00010000
00000000
00001000
01000000
00001000
00000000
00200000
00000000
00000000
00000000
,
0M30M000
00000000
01000000
10000000
00010000
01000000
00100000
00100000
,
10000000
00010000
01000000
00001000
00010000
00000100
00001000
00000000
00001002
00000000
00000000
00000203
00000000
00000000
00000310
00000000
,
00010000
00000010
00010000
00000010
00001000
00000000
00000100
00000000
00010000
00000010
00001000
00000000
00000200
00010000
00000300
00000000
,
00101000
00000000
00000000
00110000
00000000
00000000
11000000
00000000
00000000
00110000
00000000
00000000
01000000
10000000
00010000
01000000
,
00001000
00000000
01000000
00000000
00100000
01000000
10000000
00000000
01000000
00000000
00010000
00000000
00100000
01000000
10000000
00000000
,
00020000
00000000
02030000
00000000
23000000
00000000
30020000
00000000
00230000
00000000
02300000
00000000
03010000
00100000
00001000
00010000
,
00001000
01000000
00010000
01000000
00001000
00000000
00100000
00000000
00001000
01000000
00010000
00000000
00200000
00001000
00300000
00000000
,
00010100
00000000
00000000
00000110
00000000
00000000
00001010
00000000
00000000
00000011
00000000
00000000
00001000
00000100
00010000
00001000
,
01000000
00000000
00001000
00000000
00100000
01000000
00010000
00000000
01000000
00000000
10000000
00000000
00010000
01000000
00001000
00000000
,
00200000
00000000
02300000
00000000
03020000
00000000
20030000
00000000
30200000
00000000
00320000
00000000
01030000
00001000
00010000
00000100
,
00002000
00003000
00000000
00000000
;
