#TITLE:Life Stream;
#SUBTITLE:-SUPER HAPPY MIX-;
#ARTIST:橘 朋之;
#TITLETRANSLIT:;
#SUBTITLETRANSLIT:;
#ARTISTTRANSLIT:TOMOYUKI;
#GENRE:;
#CREDIT:;
#MUSIC:Life Stream -SUPER HAPPY MIX-.ogg;
#BANNER:Life-Stream-bn.png;
#BACKGROUND:Life-Stream-bg.png;
#CDTITLE:EternalTune-cdtitle.png;
#SAMPLESTART:85.073;
#SAMPLELENGTH:15.000;
#SELECTABLE:YES;
#OFFSET:-0.372;
#BPMS:0.000=180.000;
#STOPS:;
#DISPLAYBPM:180.000;
#BGCHANGES:;
#FGCHANGES:;

//--------------- dance-single - NAOKI ----------------
#NOTES:
     dance-single:
     NAOKI:
     Beginner:
     1:
     0.102,0.186,0.015,0.062,0:
0000
0000
0000
0000
,
0000
0000
0000
0000
,
0000
0000
0000
0000
,
0000
0000
0000
0000
,
0000
0000
0000
0000
,
0000
0000
0000
0000
,
0000
0000
0000
0000
,
0000
0000
0000
0000
,
0010
0000
0000
0000
,
0010
0000
0000
0000
,
0100
0000
0000
0000
,
0100
0000
0000
0000
,
0001
0000
0000
0000
,
0001
0000
0000
0000
,
1000
0000
0000
0000
,
1000
0000
0000
0000
,
0100
0000
0000
0000
,
0100
0000
0000
0000
,
0010
0000
0000
0000
,
0010
0000
0000
0000
,
0001
0000
0000
0000
,
0001
0000
0000
0000
,
1000
0000
0000
0000
,
1000
0000
0000
0000
,
0010
0000
0000
0000
,
0010
0000
0000
0000
,
0100
0000
0000
0000
,
0100
0000
0000
0000
,
0001
0000
0000
0000
,
0001
0000
0000
0000
,
1000
0000
0000
0000
,
1000
0000
0000
0000
,
0100
0000
0000
0000
,
0010
0000
0000
0000
,
0001
0000
0000
0000
,
1000
0000
0000
0000
,
0010
0000
0000
0000
,
0100
0000
0000
0000
,
0001
0000
0000
0000
,
1000
0000
0000
0000
,
0010
0000
0000
0000
,
0100
0000
0000
0000
,
0001
0000
0000
0000
,
0010
0000
0000
0000
,
0100
0000
0000
0000
,
1000
0000
0000
0000
,
0010
0000
0000
0000
,
0100
0000
0000
0000
,
0010
0000
0000
0000
,
0010
0000
0000
0000
,
0100
0000
0000
0000
,
0100
0000
0000
0000
,
0001
0000
0000
0000
,
0001
0000
0000
0000
,
1000
0000
0000
0000
,
1000
0000
0000
0000
,
0200
0000
0000
0000
,
0300
0000
0000
0000
,
0020
0000
0000
0000
,
0030
0000
0000
0000
,
0001
0000
0000
0000
,
1000
0000
0000
0000
,
0010
0000
0000
0000
,
0220
0000
0000
0000
,
0330
0000
0000
0000
,
0001
0000
0000
0000
,
0010
0000
0000
0000
,
0010
0000
0000
0000
,
1000
0000
0000
0000
,
1000
0000
0000
0000
,
0100
0000
0000
0000
,
0100
0000
0000
0000
,
0001
0000
0000
0000
,
0001
0000
0000
0000
,
1000
0000
0000
0000
,
1000
0000
0000
0000
,
0010
0000
0000
0000
,
0010
0000
0000
0000
,
0100
0000
0000
0000
,
0100
0000
0000
0000
,
0002
0000
0000
0000
,
0003
0000
0000
0000
,
2000
0000
0000
0000
,
3000
0000
0000
0000
,
0020
0000
0000
0000
,
0030
0000
0000
0000
,
0200
0000
0000
0000
,
0300
0000
0000
0000
,
0010
0000
0000
0000
,
0010
0000
0000
0000
,
0010
0000
0000
0000
,
0010
0000
0000
0000
,
0100
0000
0000
0000
,
0100
0000
0000
0000
,
0100
0000
0000
0000
,
0100
0000
0000
0000
,
1001
0000
0000
0000
;

//--------------- dance-single - NAOKI ----------------
#NOTES:
     dance-single:
     NAOKI:
     Easy:
     5:
     0.29,0.374,0.077,0.17,0:
0000
0000
0000
0000
,
0000
0000
0000
0000
,
0000
0000
0000
0000
,
0000
0000
0000
0000
,
0000
0000
0000
0000
,
0000
0000
0000
0000
,
0000
0000
0000
0000
,
0000
0000
0000
0000
,
0010
0010
0010
0000
,
0100
0100
0100
0000
,
0001
0001
0001
0000
,
1000
1000
1000
0000
,
0010
0100
0010
0100
,
0001
1000
0001
1000
,
0010
0000
0100
0000
,
0001
1000
0001
1000
,
0010
0000
0100
0000
,
0001
1000
0100
0000
,
0010
0000
0100
0000
,
1000
0001
0100
0000
,
0010
0000
0100
0000
,
0001
1000
0100
0000
,
0010
0000
0100
0000
,
1000
0001
0100
0010
,
0100
0000
0010
0000
,
1000
0001
0010
0000
,
0100
0000
0010
0000
,
0001
1000
0010
0000
,
0100
0000
0010
0000
,
1000
0001
0010
0000
,
0100
0000
0010
0000
,
2002
0000
0000
3003
,
0010
0000
0010
0000
,
1000
0000
1000
0000
,
0100
0000
0100
0000
,
0001
0000
0001
0000
,
0010
0000
0010
0000
,
0001
0000
0001
0000
,
0100
0000
0100
0000
,
1000
0000
1000
0001
,
0010
0000
0010
0000
,
0100
0000
0100
0000
,
1000
0000
1000
0000
,
0001
0000
0001
1000
,
0010
0000
0010
0000
,
0100
0000
0100
0000
,
0001
0000
0001
0000
,
1000
0000
1000
0000
,
0001
0100
0000
0100
,
0010
1000
0000
1000
,
0100
0010
0000
0010
,
0001
1000
2002
3003
,
1000
0010
0000
0010
,
0100
0001
0000
0001
,
0010
0000
0010
0100
,
1000
0001
2002
3003
,
0100
0000
0000
0010
0000
0000
0100
0000
,
0001
1000
0100
0010
,
0001
0001
0100
0000
,
1000
1000
0100
0010
,
0001
1000
0001
0100
,
0010
1000
0100
0100
,
0010
0000
0001
0000
,
2002
0000
0000
3003
,
0010
0000
0100
0000
,
1000
0001
0100
0000
,
0010
0000
0100
0000
,
0001
1000
0100
0000
,
0010
0000
0100
0000
,
1000
0001
0100
0000
,
0010
0000
0100
0000
,
0001
1000
0100
0010
,
0100
0000
0010
0000
,
0001
1000
0010
0000
,
0100
0000
0010
0000
,
1000
0001
0010
0000
,
0100
0000
0010
0000
,
0001
1000
0010
0000
,
0100
0000
0010
0000
,
2002
0000
0000
3003
,
0020
0000
0030
0000
,
0200
0000
0300
0000
,
0002
0000
0003
0000
,
2000
0000
3200
0000
,
0320
0000
0030
0000
,
0002
0000
0003
0000
,
2000
0000
3000
0000
,
0020
0000
0200
0030
,
0310
0010
1000
0001
,
0010
0010
0100
1000
,
0001
0100
0010
0010
,
1000
0100
0010
0001
,
0100
0100
0001
1000
,
0100
0100
0010
0001
,
1001
0000
0110
0000
,
1000
0010
0100
0001
,
2002
0000
3003
0000
;

//--------------- dance-single - NAOKI ----------------
#NOTES:
     dance-single:
     NAOKI:
     Medium:
     11:
     0.515,0.561,0.403,0.302,0.012:
0000
0000
0000
0000
,
0000
0000
0000
0000
,
0000
0000
0000
0000
,
0000
0000
0000
0000
,
0000
0000
0000
0000
,
0000
0000
0000
0000
,
0000
0000
0000
0000
,
0000
0000
0000
0000
,
0010
0010
1000
1000
,
0001
0000
0001
0000
0010
0000
0010
0100
,
1000
1000
0001
0001
,
0100
0000
0000
0000
0100
0000
0000
0000
0010
0000
0000
0010
0000
0000
0010
0000
,
1000
0001
0010
0100
0010
0001
1000
0010
,
0100
0000
0000
0100
0000
0000
0100
0000
0010
0000
1000
0000
0001
0000
0010
0000
,
0100
0000
0100
1000
0000
0001
0100
0000
,
0010
1000
0001
0010
0100
0000
2002
3003
,
1000
0100
0010
0000
0001
0100
0010
0000
,
1000
0101
1100
0000
,
0001
0100
0010
0000
1000
0100
0010
0000
,
0002
0000
1003
0010
0000
0100
0001
0000
,
1000
0010
0100
0000
0001
0010
0100
0000
,
1000
0011
1010
0000
,
0001
0010
0100
0000
1000
0010
0100
0000
,
0020
0000
1030
0001
0020
0000
0130
0000
,
1000
0100
0001
0000
0100
1000
0010
0000
,
0100
0101
1010
0000
,
0001
0100
1000
0000
0100
0001
0010
0000
,
0100
0000
1000
0010
0000
0100
0001
1000
,
0100
0010
0001
0000
1000
0010
0100
0000
,
0001
1010
0011
0000
,
1100
0110
0011
0110
,
2002
0000
3003
0000
,
0001
0000
1000
0000
0010
0100
0001
0000
,
1000
0000
0100
0000
0010
0001
1000
0000
,
0010
0000
0100
0000
0001
1000
0000
0100
,
0000
0001
0000
0100
0000
0010
0000
0001
,
1000
0000
0001
0000
0100
0010
1000
0000
,
0001
0000
0010
0100
1000
0000
0001
0000
,
0100
0000
0010
1000
0001
0010
0000
0100
,
0000
1000
0100
0010
0001
0000
1000
0010
,
0100
0000
0001
0000
0010
0100
1000
0000
,
0001
0000
0100
0000
0010
1000
0001
0000
,
0010
0000
0100
0000
1000
0001
0000
0100
,
0000
1000
0000
0100
0000
0010
1000
0001
,
0010
0000
0100
0000
1000
0001
0100
0000
,
0010
0000
1000
0001
0010
0000
0100
0000
,
1000
0000
0001
0100
0010
1000
0000
0001
,
0100
1010
0110
0101
,
0010
0000
1000
0001
0000
0010
0100
0000
,
1000
0100
0010
0001
0000
1000
0010
0000
,
0100
0001
1000
0100
,
0010
0001
1000
0010
0200
0000
0310
0000
,
0100
0000
0001
1000
0000
0100
0010
0000
,
0001
0100
0010
1000
0000
0001
0010
0000
,
0100
1000
0100
0000
0010
0001
0010
0000
,
0100
1000
0001
0100
0020
0000
0130
0000
,
0010
1000
0000
0001
0010
0000
0100
1000
,
0100
0010
0001
0100
,
0110
0010
1000
0100
,
0110
0010
0001
0100
,
0010
1000
0010
0000
0100
0001
0100
0010
,
1000
0001
0010
0000
1100
0000
0101
0000
,
1010
0110
0101
0110
,
2002
0000
3003
0000
,
0001
0010
0100
0000
1000
0010
0100
0000
,
0001
1010
0101
0000
,
1000
0010
0100
0000
0001
0010
0100
0000
,
2000
0000
3001
0100
0000
0010
1000
0000
,
0001
0100
0010
0000
1000
0100
0010
0000
,
0001
1100
0101
0000
,
1000
0100
0010
0000
0001
0100
0010
0000
,
0200
0000
0301
1000
0200
0000
0310
0000
,
0001
0010
1000
0000
0010
0001
0100
0000
,
0010
1010
0101
0000
,
1000
0010
0001
0000
0010
1000
0100
0000
,
0010
0000
0001
1000
0000
0010
0100
0001
,
1000
0010
0001
0000
0010
1000
0100
0000
,
0010
0011
1100
0000
,
1010
0011
1100
0101
,
0220
0000
0000
0330
,
2002
0000
3000
0000
,
0020
0000
0003
0000
,
0200
0000
0030
0000
,
2000
0300
0002
3000
,
0200
0000
0003
0000
,
0020
0300
2000
0030
,
0200
0000
3000
0000
,
0020
0300
0002
0033
,
1000
1000
0010
0100
,
0001
0000
0001
0000
0010
0000
0100
1000
,
0001
0100
0010
0010
,
2000
0000
0000
0000
3002
0000
0000
0000
0103
0000
0000
0100
0000
0000
0100
0000
,
0010
1000
0001
0010
0100
0010
0001
1000
,
0010
0100
0001
0000
1000
0100
0010
0000
,
0001
0000
1000
0010
0000
0100
0001
0000
,
0010
0100
1000
0001
0200
0000
0310
0000
,
2002
0000
3003
0000
;

//--------------- dance-single - NAOKI ----------------
#NOTES:
     dance-single:
     NAOKI:
     Hard:
     14:
     0.727,0.785,0.581,0.31,0.302:
0000
0000
0000
0000
,
0000
0000
0000
0000
,
0000
0000
0000
0000
,
0000
0000
0000
0000
,
0000
0000
0000
0000
,
0000
0000
0000
0000
,
0000
0000
0000
0000
,
0000
0000
0000
0000
,
0010
0010
0001
0001
,
1000
0000
1000
0000
0010
0000
0010
0100
,
0001
0001
1000
1000
,
0100
0000
0000
0000
0100
0000
0000
0000
0010
0000
0000
0001
0000
0000
1000
0000
,
0010
0000
0100
0000
0001
0000
0010
0000
0100
0000
1000
0000
0001
0000
0100
0010
,
0100
0000
0000
0001
0000
1000
0100
0000
0010
0001
1000
0010
0000
0100
0001
1000
,
0100
0000
0010
0001
0000
0001
0100
0000
0010
1000
0000
1000
0100
0000
0010
0000
,
0001
0100
0001
1000
0100
1000
0001
0100
0020
0000
0000
0000
0130
0000
0000
0000
,
0010
0000
1000
0100
0000
0000
0010
0000
0001
0100
0000
0000
0010
0000
1000
0000
,
0001
0000
0101
0000
1100
0000
1000
0010
,
0100
0000
0001
0010
0000
0000
0100
0000
1000
0010
0000
0000
0100
0000
0001
0000
,
2000
0000
3010
0200
0000
0301
1000
0100
,
0010
0000
0001
0100
0000
0000
0010
0000
1000
0100
0000
0000
0010
0000
0001
0000
,
1000
0000
1100
0000
0101
0000
0001
0010
,
0100
0000
1000
0010
0000
0000
0100
0000
0001
0010
0000
0000
0100
0000
1000
0000
,
0002
0000
0000
0000
0100
0000
0103
0000
0010
0000
0000
0010
1000
0000
0100
0000
,
0010
0000
0001
0100
0000
0000
0010
0000
1000
0100
0000
0000
0010
0000
0001
0000
,
1000
0000
1100
0000
0101
0000
0001
0010
,
0100
0000
1000
0010
0000
0000
0100
0000
0001
0010
0000
0000
0100
0000
1000
0000
,
0002
0000
0013
0200
0000
1300
0001
0100
,
0010
0000
1000
0100
0000
0000
0010
0000
0001
0100
0000
0000
0010
0000
1000
0000
,
0001
0000
0101
0000
1100
0000
0010
0001
,
0101
0000
0000
0100
0010
0000
1000
0000
1100
0000
0000
0100
0010
0000
0001
0000
,
2002
0000
0000
3003
,
0011
0000
1010
0000
0001
0100
1000
0000
,
1010
0000
0011
0000
1000
0100
0001
0000
,
0110
0000
1001
0000
0010
0100
0000
1010
,
0000
0011
0000
1100
0000
0101
0000
0001
,
0020
0000
0130
0000
1000
0010
0001
0000
,
0110
0000
0001
0010
1000
0000
0110
0000
,
1000
0010
0010
0100
0100
0001
0000
1001
,
0000
0000
1000
0000
0100
0000
0010
0000
0001
0000
0000
0001
1000
0000
0010
0000
,
1010
0000
0011
0000
1000
0100
0001
0000
,
0011
0000
1010
0000
0001
0100
1000
0000
,
0110
0000
1001
0000
0010
0100
0000
0011
,
0000
1010
0000
0101
0100
0001
1000
0100
,
1200
0000
0310
0000
0001
0010
1000
0000
,
0110
0000
1000
0010
0001
0000
0110
0000
,
0001
0100
0100
0010
0010
1000
0000
1000
,
1100
0000
0000
0100
0010
0000
0001
0000
0101
0000
0000
0100
0010
0000
1000
0000
,
1001
0000
1000
0100
0000
0100
0010
0000
,
0010
0001
1000
0010
0000
0010
0100
0001
,
0010
0100
0010
1000
0010
0100
1000
0001
,
0100
0010
1000
0100
2200
0000
3300
0000
,
1001
0000
0001
0100
0000
0100
0010
0000
,
0010
1000
0001
0010
0000
0010
0100
1000
,
0010
0100
0010
0001
0010
0100
0001
1000
,
0100
0010
0001
0100
0202
0000
0303
0000
,
0010
0000
1000
0001
0010
0000
0100
0000
1000
0001
0100
0000
0010
0000
1000
0001
,
0010
0000
0100
0000
1000
0000
0001
0000
0100
0000
0100
0000
0010
1000
0001
0000
,
0020
0000
0130
0000
2000
0000
3001
0000
0100
0000
0010
0000
1000
0001
0010
0000
,
0200
0310
0002
1003
0010
0010
0100
0010
,
1000
0000
1000
0000
0001
0000
0001
0000
0100
0000
0100
0000
0010
1000
0001
0010
,
0100
1000
0010
0100
0001
0001
1000
1000
,
1100
0101
1010
0011
,
0220
0000
0000
0330
,
0010
0000
0001
0100
0000
0000
0010
0000
1000
0100
0000
0000
0010
0000
0001
0000
,
1000
0000
1100
0000
0101
0000
0001
0010
,
0100
0000
1000
0010
0000
0000
0100
0000
0001
0010
0000
0000
0100
0000
1000
0000
,
0002
0000
0013
0200
0000
1300
0001
0100
,
0010
0000
1000
0100
0000
0000
0010
0000
0001
0100
0000
0000
0010
0000
1000
0000
,
0001
0000
0101
0000
1100
0000
1000
0010
,
0100
0000
0001
0010
0000
0000
0100
0000
1000
0010
0000
0000
0100
0000
0001
0000
,
2000
0000
0000
0000
0010
0000
3010
0000
0100
0000
0000
0100
0001
0000
0010
0000
,
0100
0000
1000
0010
0000
0000
0100
0000
0001
0010
0000
0000
0100
0000
1000
0000
,
0001
0000
0011
0000
1010
0000
1000
0100
,
0010
0000
0001
0100
0000
0000
0010
0000
1000
0100
0000
0000
0010
0000
0001
0000
,
2000
0000
3010
0200
0000
0301
1000
0100
,
0010
0000
0001
0100
0000
0000
0010
0000
1000
0100
0000
0000
0010
0000
0001
0000
,
1000
0000
1100
0000
0101
0000
0010
1000
,
0100
0000
0000
0100
1000
0000
0010
0000
0100
0000
0000
0100
0001
0000
0010
0000
,
0011
0000
0000
0001
1000
0000
0010
0000
1010
0000
0000
1000
0001
0000
0100
0000
,
0220
0000
0300
0000
,
2000
0000
0030
0000
,
0002
0000
3000
0000
,
0020
0003
0200
0030
,
2000
0000
0300
0000
,
0020
3000
0200
0030
,
0002
0000
0300
0000
,
0020
0003
2000
3030
,
1010
0011
1010
0011
,
1100
0000
0101
0000
1100
0000
0101
0001
,
0010
1010
0011
1010
,
0101
0000
0000
0000
1100
0000
0000
0000
0101
0000
0000
1001
0000
0000
1100
0000
,
0100
0000
0010
0000
0001
0000
0100
0000
0010
0000
1000
0000
0100
0000
0010
0100
,
0010
0000
0000
0001
0000
1000
0010
0000
0100
0001
1000
0100
0000
0010
0001
1000
,
0010
0000
0100
0001
0000
0001
0010
0000
0100
1000
0000
1000
0010
0000
0100
0000
,
0001
0010
0001
1000
0010
0100
0001
1000
0200
0000
0000
0000
0310
0000
0000
0000
,
2002
0000
3003
0000
;

//--------------- dance-single - NAOKI ----------------
#NOTES:
     dance-single:
     NAOKI:
     Challenge:
     16:
     0.896,1,0.48,0.527,0.531:
0000
0000
0000
0000
,
0000
0000
0000
0000
,
0000
0000
0000
0000
,
0000
0000
0000
0000
,
0000
0000
0000
0000
,
0000
0000
0000
0000
,
0000
0000
0000
0000
,
0000
0000
0000
0000
,
0001
0000
0010
0000
0100
0000
1000
0000
0001
0000
0100
0010
1000
0000
0001
0000
,
0020
0100
0130
1000
0001
0100
0010
0010
,
0100
0000
0001
0000
1000
0000
0100
0000
0010
0000
0001
1000
0010
0000
0100
0000
,
2001
0000
0000
0000
3020
0000
0000
0000
0130
0000
0000
1010
0000
0000
0011
0000
,
0100
0000
1000
0000
0001
0000
0100
0000
0010
0000
1000
0001
1000
0000
0100
0010
,
0001
0000
1000
0010
0000
0010
0100
0000
0001
0010
0100
1000
0000
0001
0100
0000
,
0020
0000
1030
0001
0000
0010
0200
0000
1300
0001
0000
0100
0020
0000
1030
0000
,
0001
0000
0000
0010
0000
0000
0100
0000
0000
0010
0000
0000
0001
0000
0000
1000
0000
0000
0010
0000
0000
0100
0000
0000
0010
0000
1000
0000
0001
0000
1000
0000
0001
0000
1000
0000
0002
0000
0000
0000
0000
0000
0003
0000
0000
0000
0000
0000
,
0100
0000
0010
2000
0000
3000
0100
0000
0010
0002
0000
0003
0100
0000
0010
0000
,
1010
0000
0000
0000
0101
0000
0000
0000
1100
0000
0000
0000
0010
0000
0001
1000
,
0010
0000
0100
0002
0000
0003
0010
0000
0100
2000
0000
3000
0010
0000
0100
0000
,
0101
0000
0000
0000
0010
0000
0010
0000
0100
0000
0001
1000
0001
0000
0010
0000
,
0100
1000
0010
0200
0000
0300
0001
0100
0010
2000
0000
3000
0100
0000
0010
0000
,
0011
0000
0000
0000
1100
0000
0000
0000
0101
0000
0000
0000
0010
0000
1000
0001
,
0010
0000
0100
2000
0000
3000
0010
0000
0100
0002
0000
0003
0010
0000
0100
0000
,
1100
0000
0000
1000
0010
0000
0100
0000
0101
0000
0000
0001
1000
0000
0100
0000
,
0010
0001
1000
0020
0000
0030
0100
0001
1000
0200
0000
0300
0010
0000
0100
0000
,
1100
0000
0000
0000
0011
0000
0000
0000
1010
0000
0000
0000
0100
0000
0001
1000
,
0100
0000
0010
0002
0000
0003
0100
0000
0010
2000
0000
3000
0100
0000
0010
0000
,
0011
0000
0000
0000
0100
0000
1000
0000
0001
0000
0100
0010
1000
0010
1000
0000
,
0010
0100
0001
0020
0000
0030
0100
1000
0010
0200
0000
0300
0010
0000
0100
0000
,
0101
0000
0000
0000
1010
0000
0000
0000
0011
0000
0000
0000
0100
0000
1000
0001
,
0100
0000
0000
0100
0010
0000
1000
0000
1001
0000
0000
0001
0010
0000
0100
0000
,
2000
0000
0001
0000
0000
0000
3010
0000
0100
0000
0001
0010
0100
0000
1000
0010
,
0100
0000
0001
0000
1000
0100
0010
0000
,
0001
0000
1000
0000
0010
0100
0001
0000
,
1000
0000
0100
0000
0010
0001
1000
0010
,
0000
0100
0000
0001
1000
0100
0010
0001
,
1000
0000
0001
0000
0100
0010
1000
0000
,
0001
0000
0010
0100
1000
0000
1001
0000
,
0001
0100
0010
1000
0001
0010
0000
0110
,
0000
0000
0100
0000
1000
0000
0001
0000
0100
0000
0000
0100
0010
0000
1000
0000
,
0001
0010
0100
1000
0001
0100
0010
0000
,
1000
0010
0100
0001
1000
0100
0010
0000
,
0001
0000
0100
0000
0010
1000
0001
0010
,
0000
0100
0000
1000
0001
0100
0010
1000
,
0001
0010
0100
1000
0001
0100
0010
0000
,
1000
0000
0100
0010
0001
0000
1001
0000
,
1000
0010
0100
0001
1000
0100
0000
0010
,
0011
0000
0000
0001
0100
0000
0010
0000
1010
0000
0000
1000
0001
0000
0010
0000
,
0110
0000
0100
1000
0001
0100
0010
0000
,
0010
1000
0001
0010
0000
0010
0100
1000
,
0001
0100
1000
0100
0001
0010
1000
0010
,
0001
0100
0010
1000
2001
0000
3100
0010
,
0110
0000
0010
0001
1000
0010
0100
0000
,
0100
0001
1000
0100
0000
0100
0010
0001
,
1000
0010
0001
0010
1000
0100
0001
0100
,
1000
0000
0010
0000
0100
0000
0001
0000
1002
0000
0000
0013
0100
0000
1000
0000
,
0010
M00M
0010
0001
1000
0000
0010
M00M
0010
0001
1000
0000
0010
M00M
0010
0001
,
1000
0000
0010
0000
0100
0000
0001
0000
1000
0000
0100
0000
0010
0001
1000
0000
,
1010
0000
0010
0000
0101
0000
0100
0000
0001
0000
0010
0000
0100
1000
0001
0000
,
0011
0010
1100
0100
1000
0001
0010
0100
,
1100
0000
1000
0000
1001
0000
0001
0000
0101
0000
0100
0000
0010
1000
0001
0010
,
0100
1000
0010
0100
0101
0010
1001
0100
,
2010
0000
0000
3010
0100
0000
0001
0000
0012
0000
0000
0013
0100
0000
1000
0000
,
0001
0100
0010
0100
0001
1000
0001
0010
0100
1000
0001
0010
0001
1000
0010
0100
,
0002
0000
1003
0100
0000
0000
0010
0000
0001
2000
0000
3000
0010
0000
0100
0000
,
0101
0000
0000
0000
1010
0000
0000
0000
0011
0000
0000
0000
0100
0000
1000
0001
,
0100
0000
0010
2000
0000
3000
0100
0000
0010
0002
0000
0003
0100
0000
0010
0000
,
1010
0000
0000
0000
0100
0000
0100
0000
0010
0000
1000
0001
1000
0000
0100
0000
,
0010
0001
0100
0020
0000
0030
1000
0010
0100
0002
0000
0003
0010
0000
0100
0000
,
1100
0000
0000
0000
0011
0000
0000
0000
1010
0000
0000
0000
0100
0000
0001
1000
,
0100
0000
0010
0002
0000
0003
0100
0000
0010
2000
0000
3000
0100
0000
0010
0000
,
0011
0000
0000
0001
0100
0000
0010
0000
1010
0000
0000
1000
0001
0000
0010
0000
,
0100
1000
0001
0200
0000
0300
0010
1000
0001
0020
0000
0030
0100
0000
0010
0000
,
0011
0000
0000
0000
1100
0000
0000
0000
0101
0000
0000
0000
0010
0000
1000
0001
,
0010
0000
0100
2000
0000
3000
0010
0000
0100
0002
0000
0003
0010
0000
0100
0000
,
1100
0000
0000
0000
0010
0000
0001
0000
1000
0000
0010
0100
0001
0100
0001
0000
,
0100
0010
1000
0200
0000
0300
0010
0001
0100
0020
0000
0030
0100
0000
0010
0000
,
1010
0000
0000
0000
0101
0000
0000
0000
1100
0000
0000
0000
0010
0000
0001
1000
,
0010
0000
0100
0001
0000
1000
0100
0010
0001
0000
1000
0000
0001
0100
0010
1000
,
0002
0000
0003
0010
0100
0000
1000
0000
2010
0000
3000
0010
0100
0000
0001
0000
,
2002
0000
3000
0000
,
0023
0000
0230
2300
,
0002
0000
3000
0000
0103
0010
1000
0100
,
0020
0032
0203
0320
,
2030
0000
0000
0000
3100
0010
0001
0100
,
0020
2030
3002
0023
,
0230
0000
0000
0000
0310
0001
1000
0010
,
0200
0302
2000
3003
,
0010
0000
0100
0000
0001
0000
0100
0000
0010
0000
1000
0001
1000
0000
0100
0000
,
0010
0100
1000
0100
0010
0001
0100
0100
,
0010
0000
1000
0000
0001
0000
0010
0000
0100
0000
1000
0001
0100
0000
0010
0000
,
1002
0000
0000
0000
0203
0000
0000
0000
0310
0000
0000
0101
0000
0000
1100
0000
,
0010
0000
0001
0000
1000
0000
0010
0000
0100
0000
0001
1000
0001
0000
0010
0100
,
1000
0000
0001
0100
0000
0100
0010
0000
1000
0100
0010
0001
0000
1000
0010
0000
,
0200
0000
0301
1000
0000
0100
0020
0000
0031
1000
0000
0010
0200
0000
0301
0000
,
1000
0000
0000
0100
0000
0000
0010
0000
0000
0100
0000
0000
1000
0000
0000
0001
0000
0000
0100
0000
0000
0010
0000
0000
0100
0000
0001
0000
1000
0000
0001
0000
1000
0000
0001
0000
1000
0000
0000
0000
0000
0000
0000
0000
0000
0000
0000
0000
,
2002
0000
3003
0000
;

//--------------- dance-single - NAOKI ----------------
#NOTES:
     dance-single:
     NAOKI:
     Edit:
     18:
     0,0,0,0,0:
0000
0000
0000
0000
,
0000
0000
0000
0000
,
0000
0000
0000
0000
,
0000
0000
0000
0000
,
0000
0000
0000
0000
,
0000
0000
0000
0000
,
0000
0000
0000
0000
,
0000
0000
0000
0000
,
1000
0000
0000
0010
0000
0000
0100
0000
0000
0010
0000
0000
1000
0000
0000
0001
0010
0001
0010
0000
0000
0100
0000
0000
,
1000
0001
0100
0010
1000
0001
0010
0010
,
0100
0000
0000
1000
0000
0000
0001
0000
0000
0100
0000
0000
0010
0000
0000
1000
0010
1000
0010
0000
0000
0100
0000
0000
,
0002
0000
1003
0000
0200
0000
0310
0000
0001
0000
1000
0010
0000
0100
0001
1000
,
0100
0000
0000
0000
0000
0000
0010
0000
0000
0000
0000
0000
0100
0000
0000
0000
0000
0000
1000
0000
0000
0000
0000
0000
0001
0000
0000
0000
0000
0000
0100
0000
0010
0000
0100
0000
0001
0000
0000
0000
0000
0000
1000
0000
0000
0001
0000
0000
,
0010
0000
0000
0000
0100
0000
0010
0000
0000
0000
0001
0000
1000
0000
0010
0100
0010
0000
1000
0000
0001
0000
0010
0000
0000
0000
0001
0000
1000
0000
0010
0000
,
0100
0000
0000
0000
0010
0000
1000
0000
0001
0000
0010
0100
0010
0000
0000
0000
0100
0000
1000
0000
0001
0000
0100
0010
0100
0000
0000
0000
0001
0000
1000
0000
,
0100
0000
0000
0010
0000
0000
0100
0000
0000
1000
0000
0000
0001
0000
0000
0100
0000
0000
0010
0000
0000
0100
0000
0000
0001
0000
1000
0000
0001
0000
1000
0000
0001
0000
1000
0000
0020
0000
0000
0000
0000
0000
0030
0000
0000
0000
0000
0000
,
0100
0001
1000
0200
0000
0300
0010
0001
0100
0020
0000
0030
1000
0001
1000
0000
,
0100
0000
0000
0000
0010
0000
0000
0001
1000
0000
0000
0000
0010
0000
0000
0000
0200
0000
0000
0000
0310
0000
0000
0000
1000
0000
0001
0000
0010
0000
0100
0000
,
0010
0001
1000
0020
0000
0030
0100
0010
1000
0002
0000
0003
0010
0100
1000
0000
,
0001
0000
0000
0000
0000
0000
1000
0000
0010
0000
0100
0000
0001
0000
0000
0000
0000
0000
0100
0000
0000
0000
0000
0000
0010
0000
0000
0000
0000
0000
1000
0000
0000
0001
0000
0000
0000
0000
0000
1000
0000
0000
0100
0000
0000
0010
0000
0000
,
0001
1000
0010
0200
0000
0300
0010
1000
0100
0020
0000
0030
0001
1000
0010
0000
,
0100
0000
0000
0000
0010
0000
0000
1000
0001
0000
0000
0000
0010
0000
0000
0000
0200
0000
0000
0000
0310
0000
0000
0000
0001
0000
1000
0000
0010
0000
0100
0000
,
0010
1000
0001
0020
0000
0030
0100
0010
0001
2000
0000
3000
0001
0100
0010
0000
,
1000
0000
0000
0000
0000
0000
0001
0000
0010
0000
0100
0000
1000
0000
0000
0000
0000
0000
0001
0000
0000
0000
0000
0000
0100
0000
0000
0000
0000
0000
0010
0000
0000
0100
0000
0000
0001
0000
0000
0000
0000
0000
1000
0000
0000
0100
0000
0000
,
0010
0001
1000
0020
0000
0030
0100
0001
0010
0200
0000
0300
1000
0001
1000
0000
,
0010
0000
0000
0000
0100
0000
0000
0001
1000
0000
0000
0000
0100
0000
0000
0000
0020
0000
0000
0000
0130
0000
0000
0000
1000
0000
0001
0000
0100
0000
0010
0000
,
0100
0001
1000
0200
0000
0300
0010
0100
1000
0002
0000
0003
0100
0010
1000
0000
,
0001
0000
0000
0000
0000
0000
1000
0000
0100
0000
0010
0000
0001
0000
0000
0000
0000
0000
0010
0000
0000
0000
0000
0000
0100
0000
0000
0000
0000
0000
1000
0000
0000
0001
0000
0000
0100
0000
0000
0010
0000
0000
0100
0000
0000
0000
0000
0000
,
0010
1000
0001
0020
0000
0030
0100
1000
0010
0200
0000
0300
0001
1000
0100
0000
,
0010
0000
0000
0000
0100
0000
0000
1000
0001
0000
0000
0000
0100
0000
0000
0000
0020
0000
0000
0000
0130
0000
0000
0000
0001
0000
1000
0000
0001
0000
1000
0000
,
0200
0000
0310
0001
1000
0000
0010
0000
0200
0000
0310
0000
1000
0001
0010
0001
,
1000
0000
0010
0100
0001
1000
0100
0010
0100
1000
0001
0010
0001
1000
0010
0100
,
0001
0100
0010
1000
0001
0010
0100
0000
,
1000
0010
0100
0001
1000
0100
0010
0000
,
0001
0100
0010
1000
0100
0010
0001
0100
,
0000
0110
0000
0010
1000
0100
0010
0001
,
1001
1000
0010
0100
0001
0010
0100
0000
,
1000
0000
0010
0100
0001
0000
1001
0000
,
1000
0100
0010
0001
1000
0010
0000
0110
,
0000
0000
0100
0000
0001
0000
1000
0000
0100
0000
0000
0010
0001
0000
1000
0000
,
0010
0100
0001
1000
0100
0010
0001
0000
,
1000
0010
0100
0001
0010
0100
1000
0000
,
0100
0010
0001
1000
0010
0100
0001
0010
,
0000
0110
0000
0100
1000
0010
0100
0001
,
1001
1000
0100
0010
0001
0100
0010
0000
,
1000
0000
0100
0010
0001
0000
1001
0000
,
1000
0000
0010
0100
0010
0000
1000
0000
0001
0010
0001
0000
1000
0000
0001
0000
,
1000
0000
0010
0000
1000
0000
0001
0000
0010
0000
0001
0000
1000
0000
0100
0000
1000
0000
0001
0000
0100
0000
0001
1000
0001
0000
0010
0000
0100
0000
1000
0000
,
0002
0000
0000
0003
0200
0000
0000
0300
0020
0000
0000
0030
2000
0000
0000
0000
3001
0000
0000
0000
0020
0000
0000
0030
0200
0000
0000
0300
1000
0000
0000
0000
,
0020
0000
0000
0030
0200
0000
0000
0300
0002
0000
0000
0003
2000
0000
0000
3000
0100
0000
0000
0000
0020
0000
0000
0030
0002
0000
0000
0003
2000
0000
0000
3000
,
0020
0000
0000
0030
0200
0000
0000
0300
2000
0000
0000
3000
0200
0000
0000
0300
0020
0000
0000
0030
2000
0000
0000
0000
3001
0000
0000
0000
0020
0000
0000
0030
,
2000
0000
0000
3000
0020
0000
0000
0030
0200
0000
0000
0300
2000
0000
0000
3000
0020
0000
0000
0000
0100
0000
0000
0000
0130
0000
0000
0000
0001
0000
0000
0000
,
2000
0000
0000
3000
0200
0000
0000
0300
0020
0000
0000
0030
0002
0000
0000
0000
1003
0000
0000
0000
0020
0000
0000
0030
0200
0000
0000
0300
0001
0000
0000
0000
,
0020
0000
0000
0030
0200
0000
0000
0300
2000
0000
0000
3000
0002
0000
0000
0003
0100
0000
0000
0000
0020
0000
0000
0030
2000
0000
0000
3000
0002
0000
0000
0003
,
0020
0000
0000
0030
0200
0000
0000
0300
0002
0000
0000
0003
0200
0000
0000
0300
0020
0000
0000
0030
0002
0000
0000
0000
1003
0000
0000
0000
0020
0000
0000
0030
,
0002
0000
0000
0003
0020
0000
0000
0030
0200
0000
0000
0300
0002
0000
0000
0003
0020
0000
0000
0000
0030
0000
0100
0000
1000
0000
0000
0000
0001
0000
0000
0000
,
0200
0000
0000
0300
0000
0000
0001
0000
1000
0000
0001
0000
1000
0000
0000
0000
0000
0000
0020
0000
0000
0030
0000
0000
0100
0000
0001
0000
0100
0000
0001
0000
0000
0000
0000
0000
2000
0000
0000
3000
0000
0000
0100
0000
0010
0000
0100
0000
,
0010
0000
0000
0001
0000
0000
0100
0000
0000
1000
0000
0000
0100
0000
0000
0001
0000
0000
1000
0100
0010
0001
0000
0000
,
1000
0000
0000
0000
0000
0000
0010
0000
0000
0000
0000
0000
0001
0000
0000
0000
0000
0000
0010
0000
0000
0000
0000
0000
1000
0000
0000
0001
0000
0000
1000
0000
0000
0000
0000
0000
0001
0000
0100
0000
0010
0000
1000
0000
0000
0000
0000
0000
,
0001
0010
1000
0010
0001
1000
0010
0100
,
0101
0000
0001
0000
1001
0000
1000
0000
1100
0000
0100
0000
0010
0001
1000
0010
,
0100
0000
0000
0001
0000
0000
1000
0000
0000
0100
0000
0000
0010
0000
0000
0001
1000
0001
1000
0000
0000
0010
0000
0000
,
0110
0000
0000
0000
0100
0000
0001
0000
1000
0000
0000
0000
0100
0000
0000
0000
0110
0000
0000
0000
0010
0000
0000
0001
1000
0000
0000
0000
0010
0000
1000
0000
,
0001
0010
0001
1000
0001
0010
0100
1000
0001
1000
0100
1000
0001
0010
0001
1000
0001
0100
0010
1000
0001
1000
0010
0100
,
0001
1000
0001
0020
0000
0030
0100
1000
0010
0200
0000
0300
0001
1000
0001
0000
,
0010
0000
0000
0000
0100
0000
0000
1000
0001
0000
0000
0000
0100
0000
0000
0000
0020
0000
0000
0000
0130
0000
0000
0000
0001
0000
1000
0000
0100
0000
0010
0000
,
0100
1000
0001
0200
0000
0300
0010
0100
0001
2000
0000
3000
0100
0010
0001
0000
,
1000
0000
0000
0000
0000
0000
0001
0000
0100
0000
0010
0000
1000
0000
0000
0000
0000
0000
0001
0000
0000
0000
0000
0000
0010
0000
0000
0000
0000
0000
0100
0000
0000
1000
0000
0000
0000
0000
0000
0001
0000
0000
0100
0000
0000
0010
0000
0000
,
1000
0001
0010
0200
0000
0300
0010
0001
0100
0020
0000
0030
1000
0001
1000
0000
,
0100
0000
0000
0000
0010
0000
0000
0001
1000
0000
0000
0000
0010
0000
0000
0000
0200
0000
0000
0000
0310
0000
0000
0000
1000
0000
0001
0000
0010
0000
0100
0000
,
0010
0001
1000
0020
0000
0030
0100
0010
1000
0002
0000
0003
0010
0100
1000
0000
,
0001
0000
0000
0000
0000
0000
1000
0000
0010
0000
0100
0000
0001
0000
0000
0000
0000
0000
0200
0000
0000
0000
0000
0000
0310
0000
0000
0000
0000
0000
0100
0000
0000
0010
0000
0000
1000
0000
0000
0001
0000
0000
0010
0000
0000
0100
0000
0000
,
0010
0001
1000
0020
0000
0030
0100
0001
0010
0200
0000
0300
1000
0001
1000
0000
,
0010
0000
0000
0000
0100
0000
0000
0001
1000
0000
0000
0000
0100
0000
0000
0000
0020
0000
0000
0000
0130
0000
0000
0000
1000
0000
0001
0000
0100
0000
0010
0000
,
0100
0001
1000
0200
0000
0300
0010
0100
1000
0002
0000
0003
0100
0010
1000
0000
,
0001
0000
0000
0000
0000
0000
1000
0000
0100
0000
0010
0000
0001
0000
0000
0000
0000
0000
1000
0000
0000
0000
0000
0000
0010
0000
0000
0000
0000
0000
0100
0000
0000
0001
0000
0000
1000
0000
0000
0100
0000
0000
0010
0000
0000
0000
0000
0000
,
0100
1000
0001
0200
0000
0300
0010
1000
0100
0020
0000
0030
0001
1000
0010
0000
,
0100
0000
0000
0000
0010
0000
0000
1000
0001
0000
0000
0000
0010
0000
0000
0000
0200
0000
0000
0000
0310
0000
0000
0000
0001
0000
1000
0000
0010
0000
0100
0000
,
0002
0000
1003
0100
0000
0010
0001
1000
0010
0000
0100
0000
0001
1000
0100
1000
,
0001
0000
0000
0000
0100
0000
0010
0000
1000
0000
0001
0000
0010
0000
0001
0000
1000
0000
0100
0000
0010
0000
0001
1000
0001
0000
0100
0000
0010
0000
1000
0000
,
0002
0000
0000
0000
0013
0100
1000
0001
,
0200
0000
0320
2030
,
3200
0000
0300
0010
0010
0001
1000
0010
,
0200
0302
0023
0230
,
2300
0000
3000
0010
0010
0100
0001
1000
,
0200
0320
0032
0203
,
0320
0000
0000
0000
0030
0000
1000
0000
0001
0000
0010
0000
0100
0000
1000
0001
,
1000
0010
0100
0002
2000
0000
3003
0000
,
0001
0000
0000
0010
0000
0000
0100
0000
0000
0010
0000
0000
0001
0000
0000
1000
0010
1000
0010
0000
0000
0100
0000
0000
,
0001
1000
0100
0010
0001
1000
0010
0010
,
0100
0000
0000
0001
0000
0000
0010
0000
0000
0100
0000
0000
1000
0000
0000
0001
0010
0001
0010
0000
0000
0100
0000
0000
,
2000
0000
3001
0000
0200
0000
0310
0000
1000
0000
0001
0010
0000
0100
0010
0001
,
1000
0000
0000
0000
0000
0000
0010
0000
0000
0000
0000
0000
0100
0000
0000
0000
0000
0000
0001
0000
0000
0000
0000
0000
1000
0000
0000
0000
0000
0000
0001
0000
0010
0000
0100
0000
1000
0000
0000
0000
0000
0000
0001
0000
0000
1000
0000
0000
,
0010
0000
0000
0000
0100
0000
0010
0000
0000
0000
1000
0000
0001
0000
0010
0100
0010
0000
0001
0000
1000
0000
0010
0000
0000
0000
0100
0000
0001
0000
1000
0000
,
0100
0000
0000
0000
0010
0000
0001
0000
1000
0000
0010
0100
0010
0000
0000
0000
0100
0000
0001
0000
1000
0000
0100
0010
0100
0000
0000
0000
1000
0000
0001
0000
,
0100
0000
0000
0010
0000
0000
0100
0000
0000
0001
0000
0000
1000
0000
0000
0100
0000
0000
0010
0000
0000
0100
0000
0000
1000
0000
0001
0000
1000
0000
0001
0000
1000
0000
0001
0000
1000
0000
0001
0000
1000
0000
0001
0000
1000
0000
0001
0000
,
0020
0030
0000
0000
;

//--------------- dance-double - DOLZARK ----------------
#NOTES:
     dance-double:
     DOLZARK:
     Easy:
     5:
     0.284,0.337,0.062,0.186,0:
00000000
00000000
00000000
00000000
,
00000000
00000000
00000000
00000000
,
00000000
00000000
00000000
00000000
,
00000000
00000000
00000000
00000000
,
00000000
00000000
00000000
00000000
,
00000000
00000000
00000000
00000000
,
00000000
00000000
00000000
00000000
,
00000000
00000000
00000000
00000000
,
10000000
10000000
10000000
00000000
,
00010000
00010000
00010000
00000000
,
01000000
01000000
01000000
00000000
,
00100000
00100000
00100000
00000000
,
10000000
01000000
00010000
00010000
,
00001000
00000100
00000001
00000001
,
00000010
00000000
00000100
00000000
,
00001000
00000001
00002002
00003003
,
00000010
00000000
00000100
00000000
,
00000001
00001000
00000100
00000000
,
00000010
00000000
00000100
00000000
,
00010000
00001000
01000000
00000000
,
00100000
00000000
01000000
00000000
,
00001000
00010000
01000000
00000000
,
00100000
00000000
01000000
00000000
,
10000000
00010000
01000000
00100000
,
01000000
00000000
00100000
00000000
,
10000000
00010000
00100000
00000000
,
01000000
00000000
00100000
00000000
,
00001000
00010000
00000010
00000000
,
00000100
00000000
00000010
00000000
,
00010000
00001000
00000010
00000000
,
00000001
00000001
00001000
00001000
,
00002002
00000000
00000000
00003003
,
00000010
00000000
00000010
00000000
,
00001000
00000000
00001000
00000000
,
00000100
00000000
00000100
00000000
,
00010000
00000000
00010000
00000000
,
00001000
00000000
01000000
00000000
,
00010000
00000000
00100000
00000000
,
01000000
00000000
10000000
00000000
,
00100000
00000000
10000000
00010000
,
00100000
00000000
00100000
00000000
,
00010000
00000000
00010000
00000000
,
01000000
00000000
01000000
00000000
,
00001000
00000000
00001000
00000000
,
00010000
00000000
00000100
00000000
,
00001000
00000000
00000010
00000000
,
00000100
00000000
00000001
00000000
,
00001000
00001000
00000001
00000001
,
00001000
00000001
00000000
00001000
,
00000001
00000100
00000000
00000001
,
00000100
00001000
00000000
00000100
,
00001000
00010000
00022000
00033000
,
00001000
00010000
00000000
00001000
,
00010000
01000000
00000000
00010000
,
01000000
10000000
00000000
01000000
,
10000000
00010000
20020000
30030000
,
01000000
01000000
00010000
00010000
,
10000000
01000000
00100000
00000000
,
00010000
01000000
00001000
00000000
,
00010000
00000100
00001000
00000000
,
00000010
00000010
00000010
00000100
,
00001000
00010000
01000000
00000000
,
00100000
00100000
01000000
01000000
,
02200000
00000000
00000000
03300000
,
00100000
00000000
01000000
00000000
,
10000000
00010000
01000000
00000000
,
00100000
00000000
01000000
00000000
,
00001000
00010000
00000100
00000000
,
00000010
00000000
00000100
00000000
,
00010000
00001000
00000100
00000000
,
00000010
00000000
00000100
00000000
,
00000001
00001000
00000100
00000010
,
00000100
00000000
00000010
00000000
,
00000001
00001000
00000010
00000000
,
00000100
00000000
00000010
00000000
,
00010000
00001000
00100000
00000000
,
01000000
00000000
00100000
00000000
,
00001000
00010000
00100000
00000000
,
10000000
10000000
00010000
00010000
,
20020000
00000000
00000000
30030000
,
00200000
00000000
00300000
00000000
,
20000000
00000000
30000000
00000000
,
02000000
00000000
03000000
00000000
,
00020000
00000000
00030000
00000000
,
00002000
00000000
00003000
00000000
,
00000020
00000000
00000030
00000000
,
00000002
00000000
00000003
00000000
,
00000200
00000000
00000300
00000000
,
00000001
00000001
00000001
00000000
,
00001000
00001000
00001000
00000000
,
00000100
00000100
00000100
00000000
,
00000010
00000010
00000010
00000000
,
00000001
00000100
00001000
00001000
,
00010000
01000000
10000000
10000000
,
00100000
00000000
01000000
00000000
,
00010000
10000000
20020000
30030000
,
20020000
00000000
30030000
00000000
;

//--------------- dance-double - DOLZARK ----------------
#NOTES:
     dance-double:
     DOLZARK:
     Medium:
     11:
     0.516,0.561,0.31,0.232,0.008:
00000000
00000000
00000000
00000000
,
00000000
00000000
00000000
00000000
,
00000000
00000000
00000000
00000000
,
00000000
00000000
00000000
00000000
,
00000000
00000000
00000000
00000000
,
00000000
00000000
00000000
00000000
,
00000000
00000000
00000000
00000000
,
00000000
00000000
00000000
00000000
,
00000100
00000100
00000001
00000001
,
00001000
00000000
00001000
00000000
00000010
00000000
00000010
00010000
,
00001000
00001000
00100000
00100000
,
01000000
00000000
00000000
00000000
01000000
00000000
00000000
00000000
10000000
00000000
00000000
10000000
00000000
00000000
10000000
00000000
,
00010000
01000000
00100000
10000000
00100000
00010000
00001000
00010000
,
00000100
00001000
00000010
00000000
00000100
00000001
00000010
00000000
,
00000110
00000000
00001000
00000100
00000000
00000100
00000001
00000000
,
00000100
00000110
00020000
00031000
,
00100000
00010000
00100000
00000000
00001000
01000000
00100000
00000000
,
10000000
00101000
00010100
00000000
,
00000010
00001000
00000010
00000000
00010000
00000100
00000010
00000000
,
00000001
00000200
00001000
00000310
,
00000100
00000001
00000100
00000000
00000010
00010000
00001000
00000000
,
00000010
00010100
00101000
00000000
,
01000000
00100000
00001000
00000000
00010000
00000010
00000100
00000000
,
00000002
00000010
00002003
00000100
,
00003010
00001000
00000010
00000000
00010000
00000100
00000010
00000000
,
00000001
00010010
01001000
00000000
,
00100000
00010000
00100000
00000000
00001000
01000000
00100000
00000000
,
10000000
02000000
00010000
03100000
,
01000000
10000000
01000000
00000000
00100000
00001000
00010000
00000000
,
00100000
01001000
00010010
00000000
,
00001010
00000011
00000110
00010100
,
00022000
00000000
00000000
00033000
,
01000000
00000000
00010000
00000000
00010000
10000000
00010000
00000000
,
00100000
00000000
00001000
00000000
00001000
00010000
00001000
00000000
,
00000100
00000000
00000001
00000000
00000001
00001000
00000001
00000010
,
00000000
00000100
00000000
00010000
00000000
00001000
00000000
00000010
,
00000001
00000000
00000100
00000000
00000100
00000001
00000100
00000000
,
00000010
00000000
00001000
00010000
00100000
00000000
00010000
00000000
,
10000000
00000000
00100000
01000000
00010000
01000000
00000000
00001000
,
00000000
00010000
00001000
00010000
00000000
00000000
00000000
00000000
,
00000100
00000000
00001000
00000000
00001000
00000001
00001000
00000000
,
00000010
00000000
00010000
00000000
00010000
00001000
00010000
00000000
,
01000000
00000000
10000000
00000000
10000000
00010000
10000000
00100000
,
00000000
01000000
00000000
00001000
00000000
00010000
00000000
00100000
,
10000000
00000000
01000000
00000000
01000000
10000000
01000000
00000000
,
00100000
00000000
00010000
00001000
00000010
00000000
00001000
00000000
,
00000001
00000000
00000010
00000100
00001000
00000100
00000000
00010000
,
00010100
00011000
00101000
00011000
,
01000000
00000000
01000000
00010000
00000000
00010000
00100000
00000000
,
00010000
10000000
00100000
00010000
,
00001000
00000010
00000001
00000000
00001000
00000010
00000100
00000000
,
00001000
00010000
00001000
00010000
00002000
00000000
00003000
00000000
,
00000100
00000000
00000100
00001000
00000000
00001000
00000010
00000000
,
00001000
00000001
00000010
00001000
,
00010000
00100000
10000000
00000000
00010000
00100000
01000000
00000000
,
00010000
00001000
00010000
00001000
00020000
00000000
00030000
00000000
,
00000010
00001000
00000010
00010000
00000100
00010000
00001000
00100000
,
00001000
01000000
00010000
01000000
00001000
00100000
01000000
00000000
,
10000000
00000000
10000000
00000000
01000000
00100000
01000000
00000000
,
00010000
00000000
00001000
00000000
00010000
00000100
00000010
00000000
,
00000001
00001000
00000001
00001000
00000001
00000000
00000100
00000100
,
00000100
00000000
00000010
00000100
00001000
00000000
00010000
00000000
,
00110000
10100000
01100000
01001000
,
00022000
00000000
00000000
00033000
,
00000010
00000001
00000010
00000000
00000100
00010000
00001000
00000000
,
00000100
00010010
01001000
00000000
,
00100000
10000000
00100000
00000000
01000000
00001000
00010000
00000000
,
01000000
20000000
00100000
30010000
,
00100000
00001000
00100000
00000000
00010000
01000000
00100000
00000000
,
00010000
01001000
00010010
00000000
,
00000001
00000010
00001000
00000000
00010000
01000000
10000000
00000000
,
00020000
00100000
20030000
01000000
,
30100000
10000000
00100000
00000000
01000000
00001000
00010000
00000000
,
01000000
00101000
00010100
00000000
,
00000010
00000001
00000010
00000000
00000100
00010000
00001000
00000000
,
00000100
00000002
00000010
00001003
,
00000010
00010000
00000010
00000000
00001000
00000100
00000010
00000000
,
00001000
00010100
00101000
00000000
,
00110000
10100000
01100000
01001000
,
00022000
00000000
00000000
00033000
,
00000020
00000000
00000000
00000000
,
00002000
00000000
00000030
00000000
,
00000002
00000000
00003000
00000000
,
00000200
00000003
00002000
00000300
,
00020000
00000000
00003000
00000000
,
02000000
00030000
00200000
03000000
,
00020000
00000000
00300000
00000000
,
20000000
00000000
00000000
30030000
,
01000000
01000000
10000000
10000000
,
00010000
00000000
00010000
00000000
00100000
00000000
00100000
00001000
,
00010000
00010000
00000010
00000010
,
00000100
00000000
00000000
00000000
00000100
00000000
00000000
00000000
00000001
00000000
00000000
00000001
00000000
00000000
00000001
00000000
,
00001000
00000100
00000010
00000001
00000010
00001000
00010000
00001000
,
01000000
00010000
00100000
00000000
01000000
10000000
00100000
00000000
,
01100000
00000000
00010000
01000000
00000000
01000000
10000000
00000000
,
01000000
01100000
00002000
00013000
,
00022000
00000000
00033000
00000000
;

//--------------- dance-double - DOLZARK ----------------
#NOTES:
     dance-double:
     DOLZARK:
     Hard:
     14:
     0.661,0.748,0.356,0.248,0.221:
00000000
00000000
00000000
00000000
,
00000000
00000000
00000000
00000000
,
00000000
00000000
00000000
00000000
,
00000000
00000000
00000000
00000000
,
00000000
00000000
00000000
00000000
,
00000000
00000000
00000000
00000000
,
00000000
00000000
00000000
00000000
,
00000000
00000000
00000000
00000000
,
00100000
00100000
10000000
10000000
,
01000000
00000000
01000000
00000000
00010000
00000000
00010000
00001000
,
00000010
00000010
00000001
00000001
,
00000100
00000000
00000000
00000000
00000100
00000000
00000000
00000000
00001000
00000000
00000000
00001000
00010000
00000000
00000100
00000000
,
00000010
00000001
00001000
00000001
00000100
00001000
00010000
00010000
,
00000010
00001000
00000100
00000000
00000010
00001000
00010000
00000000
,
00001000
00000000
00100000
00010000
00000000
00010000
01000000
00000000
00100000
10000000
00000000
10000000
00010000
00000000
00100000
00000000
,
01000000
10000000
01000000
00000000
00100000
00010000
00100000
00000000
00002000
00000000
00000000
00000000
00013000
00000000
00000000
00000000
,
00001000
00000000
00010000
00000010
00000000
00000000
00010000
00000000
00001000
01000000
00000000
00000000
00100000
00000000
00010000
00000000
,
00001000
00000000
00000011
00000000
00000100
00001000
00000010
00000000
,
00010000
00000000
00001000
00100000
00000000
00000000
00001000
00000000
00010000
00000100
00000000
00000000
00000010
00000000
00001000
00000000
,
00010000
00000000
10100000
20000000
00000000
31000000
00100000
00000000
,
00001000
00000000
00010000
00000100
00000000
00000000
00010000
00000000
00001000
00100000
00000000
00000000
00010000
00000000
01000000
00000000
,
00100000
00000000
00110000
00000000
00001000
00000010
00000001
00000000
,
00001000
00000000
00000100
00010000
00000000
00000000
00001000
00000000
00100000
00010000
00000000
00000000
00100000
00000000
01000000
00000000
,
12000000
00000000
23000000
00010000
30000000
01000000
00100000
00000000
,
00010000
00000000
00001000
00100000
00000000
00000000
00001000
00000000
00010000
00000100
00000000
00000000
00000010
00000000
00001000
00000000
,
00010000
00000000
10100000
00000000
01000000
00010000
00100000
00000000
,
00001000
00000000
00010000
00000010
00000000
00000000
00010000
00000000
00001000
01000000
00000000
00000000
00100000
00000000
00010000
00000000
,
00001000
00000000
00000011
00000002
00000000
00000103
00000010
00000000
,
00010000
00000000
00001000
01000000
00000000
00000000
00001000
00000000
00010000
00000010
00000000
00000000
00001000
00000000
00000100
00000000
,
00000010
00000000
00001010
00000000
00010000
00100000
10000000
00000000
,
10010000
00000000
00000000
00010000
00100000
00000000
00001000
00000000
00010000
00000100
00000000
00000100
00001000
00000000
00000010
00000000
,
00002002
00000000
00000000
00003003
,
00000110
00000000
00000001
00000000
00000100
00001000
00010000
00000000
,
00010100
00000000
00001000
00000000
00010000
00100000
10000000
00000000
,
01100000
00000000
00010000
00000000
10000000
01000000
00010000
00001000
,
00000000
00101000
00000000
00011000
00000000
00001100
00000000
00000010
,
00000100
00000000
00010000
00000000
00001000
00000100
00000001
00000000
,
00000110
00000000
00001000
00010000
00100000
00000000
10000000
00000000
,
01100000
00000000
00010000
00010000
10000000
01000000
00000000
01100000
,
00000000
00010000
01000000
20000000
00000000
30010000
10010000
00000000
,
01100000
00000000
10000000
00000000
01000000
00010000
00001000
00000000
,
01001000
00000000
00010000
00000000
00001000
00000010
00000001
00000000
,
00000110
00000000
00001000
00000000
00000001
00000100
00001000
00010000
,
00000000
00010010
00000000
00011000
00000000
01010000
00000000
00100000
,
01000000
00000000
00001000
00000000
00010000
01000000
10000000
00000000
,
01100000
00000000
00010000
00001000
00000010
00000000
00000001
00000000
,
00000110
00000000
00001000
00001000
00000001
00000100
00000000
00000010
,
00001010
00000000
00000000
00001000
00000100
00000000
00010000
00000000
00011000
00000000
00000000
00001000
00100000
00000000
00010000
00000000
,
01010000
00000000
01000000
00100000
00000000
00100000
10000000
00000000
,
10000000
01000000
00010000
00001000
00000000
00100000
00010000
00001000
,
00000010
00000100
00001000
01000000
00001000
00010000
00000100
00000010
,
00000001
00000100
00001000
00000100
00000002
00000000
00000003
00000000
,
00001100
00000000
00000100
00000010
00000000
00000010
00000001
00000000
,
00000001
00000100
00001000
00010000
00000000
00000010
00001000
00010000
,
00100000
01000000
00010000
00000100
00010000
00001000
01000000
00100000
,
10000000
01000000
00010000
01000000
20000000
00000000
30000000
00000000
,
00100000
00000000
10000000
01000000
10000000
00000000
00100000
00000000
01000000
00010000
01000000
00000000
00100000
00000000
00010000
00001000
,
00010000
00000000
00000010
00000000
00001000
00000000
00000100
00000000
00000010
00000000
00000001
00000000
00000100
00000001
00000100
00000000
,
00000010
00000000
00000001
00000000
00001000
00000000
00000100
00000000
00000010
00000000
00010000
00000000
00001000
00100000
00001000
00000000
,
01000000
00010000
00100000
10000000
00010000
01000000
00001000
00010000
,
00000010
00000000
00000010
00000000
00000001
00000000
00000001
00000000
00000100
00000000
00000010
00000000
00001000
00000001
00001000
00000001
,
00001000
00000100
00010000
00010000
00001000
00100000
00010000
01000000
,
01010000
11000000
10100000
00110000
,
00022000
00000000
00000000
00033000
,
00010000
00000000
00001000
00000010
00000000
00000000
00001000
00000000
00010000
01000000
00000000
00000000
00100000
00000000
00010000
00000000
,
01000000
00000000
10100000
00000000
10000000
00010000
00100000
00000000
,
00001000
00000000
00010000
00100000
00000000
00000000
00010000
00000000
00001000
00000100
00000000
00000000
00000001
00000000
00001000
00000000
,
00000100
00000000
00000011
00000002
00000000
00001003
00000100
00000000
,
00000010
00000000
00001000
00010000
00000000
00000000
01000000
00000000
00010000
00001000
00000000
00000000
00000010
00000000
00000001
00000000
,
00001000
00000000
00000101
00000000
00000100
00000010
00001000
00000000
,
00000001
00000000
00000100
00001000
00000000
00000000
00010000
00000000
00100000
10000000
00000000
00000000
00010000
00000000
00100000
00000000
,
01200000
00000000
02300000
10000000
03000000
00010000
01000000
00000000
,
00001000
00000000
00010000
00100000
00000000
00000000
00010000
00000000
00001000
00000100
00000000
00000000
00000010
00000000
00001000
00000000
,
00000100
00000000
00000011
00000000
00000001
00001000
00000010
00000000
,
00010000
00000000
00001000
00000010
00000000
00000000
00001000
00000000
00010000
01000000
00000000
00000000
10000000
00000000
00010000
00000000
,
01000000
00000000
10100000
20000000
00000000
30010000
01000000
00000000
,
00100000
00000000
00010000
00001000
00000000
00000000
00000100
00000000
00001000
00010000
00000000
00000000
00100000
00000000
10000000
00000000
,
00010000
00000000
11000000
00000000
01000000
00100000
00010000
00000000
,
10010000
00000000
00000000
10000000
01000000
00000000
00010000
00000000
00001000
00000010
00000000
00000010
00000001
00000000
00001000
00000000
,
00002002
00000000
00000000
00003003
,
00000020
00000000
00000100
00000000
,
00002030
00000000
00000010
00000100
,
00003002
00000000
00001000
00000000
,
00000203
00002300
00023000
00230000
,
20300000
00000000
00010000
00000000
,
32000000
00100000
00010000
00100000
,
03020000
00000000
00000000
00000000
,
00002000
00000000
00000000
00033000
,
00000010
00000010
00000001
00000001
,
00000100
00000000
00000100
00000000
00001000
00000000
00001000
00010000
,
00100000
00100000
10000000
10000000
,
01000000
00000000
00000000
00000000
01000000
00000000
00000000
00000000
00010000
00000000
00000000
00010000
00001000
00000000
01000000
00000000
,
00100000
10000000
00010000
10000000
01000000
00010000
00001000
00001000
,
00100000
00010000
01000000
00000000
00100000
00010000
00001000
00000000
,
00010000
00000000
00000010
00001000
00000000
00001000
00000100
00000000
00000010
00000001
00000000
00000001
00001000
00000000
00000010
00000000
,
00000100
00000001
00000100
00000000
00000010
00001000
00000010
00000000
00020000
00000000
00000000
00000000
00031000
00000000
00000000
00000000
,
00022000
00000000
00033000
00000000
;

//--------------- dance-double - DOLZARK ----------------
#NOTES:
     dance-double:
     DOLZARK:
     Challenge:
     17:
     0.838,0.897,1,0.372,0.372:
00000000
00000000
00000000
00000000
,
00000000
00000000
00000000
00000000
,
00000000
00000000
00000000
00000000
,
00000000
00000000
00000000
00000000
,
00000000
00000000
00000000
00000000
,
00000000
00000000
00000000
00000000
,
00000000
00000000
00000000
00000000
,
00000000
00000000
00000000
00000000
,
00100000
10100000
01000000
01010000
,
00001000
00000000
00011000
00000000
00000010
00000000
00000011
00000001
,
00000100
00010100
00001000
00001010
,
00000001
00000000
00000000
00000000
00001001
00000000
00000000
00000000
00000110
00000000
00000000
00001100
00000000
00000000
00011000
00000000
,
00010000
00000000
00100000
00000000
01000000
00000000
00001000
00000000
00010000
00000000
01000000
00000000
10000000
00000000
00100000
00010000
,
00001000
00000000
00000000
00001010
00000000
00001000
00000100
00000000
00000010
00000001
00000010
00000001
00000000
00001000
00000010
00000100
,
00001000
00000000
00010000
00100000
00000000
10000000
00010000
00000000
00100000
01000000
00000000
00010000
10000000
00000000
00100000
00000000
,
00001000
00010000
00000010
00010000
00001000
01000000
00100000
00010000
00002000
00000000
00000000
00000000
00003010
00000000
00000000
00000000
,
00000011
00000000
00000001
00000100
00000000
00000000
00001010
00000000
00000010
00000100
00000000
00000000
00001000
00000000
00010000
00100000
,
10000000
00000000
21000000
00000000
30100000
01000000
00110000
00000000
,
10100000
00000000
00100000
01000000
00000000
00000000
00110000
00000000
00010000
01000000
00000000
00000000
00100000
00000000
00010000
00001000
,
00000010
00000000
00000012
00000100
00000103
00001010
00000001
00000000
,
00000101
00000000
00000100
00000010
00000000
00000000
00001100
00000000
00001000
00010000
00000000
00000000
00100000
00000000
10000000
01000000
,
00010000
00000000
00120000
00000000
10030000
01000000
10100000
00000000
,
01001000
00000000
00001000
00010000
00000000
00000000
00001010
00000000
00000010
00000100
00000000
00000000
00000001
00000000
00000010
00000100
,
00001000
00000000
00000000
00000000
00012000
00000000
00100000
00000000
00203000
00000000
00000000
00301000
00010000
00000000
01000000
00000000
,
10100000
00000000
10000000
01000000
00000000
00000000
00110000
00000000
00100000
01000000
00000000
00000000
00010000
00000000
00001000
00000010
,
00000001
00000000
00000102
00000000
00000013
00000100
00001010
00000000
,
00000011
00000000
00000010
00000100
00000000
00000000
00001010
00000000
00001000
00000100
00000000
00000000
00000010
00000000
00001000
00010000
,
00100000
00000000
20100000
01000000
31000000
00110000
10000000
00000000
,
11000000
00000000
01000000
00100000
00000000
00000000
01010000
00000000
00010000
00001000
00000000
00000000
00000010
00000000
00000001
00000100
,
00001000
00000000
00002010
00000000
00003001
00000100
00000011
00000000
,
00010100
00000000
00010000
00000010
00000000
00000010
00001000
00000000
00010000
00100000
00000000
00100000
00001000
00000000
01000000
00000000
,
00022000
00030000
00100000
00003010
,
00000011
00000000
00001100
00000000
00001000
00010000
01000000
00000000
,
11000000
00000000
00110000
00000000
00100000
00001000
00000010
00000000
,
00000011
00000000
00001100
00000000
00000001
00000100
00010000
00001000
,
00000000
00001010
00000000
00101000
00000000
00011000
00000000
01000000
,
01100000
00000000
10010000
00000000
10000000
01000000
00001000
00000000
,
00010000
00000000
00100000
00001000
00000010
00000000
00000011
00000000
,
00000102
00000000
00000013
00001000
00010000
00010100
00000000
00001010
,
00000000
00000000
00001000
00000000
00010000
00000000
01000000
00000000
01100000
00000000
00000000
00100000
01000000
00000000
10000000
00000000
,
10100000
00000000
01010000
00000000
00010000
00001000
00000100
00000000
,
00000101
00000000
00001010
00000000
00000010
00010000
00100000
00000000
,
10100000
00000000
01010000
00000000
10000000
01000000
00001000
00010000
,
00000000
00110000
00000000
00010010
00000000
00011000
00000000
00000100
,
00000110
00000000
00001001
00000000
00000001
00000100
00010000
00000000
,
00001000
00000000
00000010
00010000
00100000
00000000
10100000
00000000
,
21000000
00000000
30100000
00010000
00001000
01001000
00000000
00100000
,
01100000
00000000
10000000
02000000
00010000
00000000
03100000
00000000
00010000
00000000
00001000
00000020
00000001
00000000
00000130
00000000
,
00000110
00000001
00000100
00001000
00000000
00000001
00000100
00001000
,
00010000
00000010
00001000
00000100
00000000
00100000
00010000
01000000
,
10000000
00010000
00001000
00100000
00010000
00000010
00000100
00010000
,
00000010
00001000
00010000
10000000
00200000
01000000
01300000
00000000
,
01100000
10000000
01000000
00010000
00000000
10000000
01000000
00010000
,
00001000
00100000
00010000
01000000
00000000
00000010
00001000
00000100
,
00000001
00001000
00010000
00000010
00001000
00100000
01000000
00001000
,
00100000
00010000
00001000
00000001
00000020
00000100
00000130
00000000
,
00001000
00000000
00000100
00000001
00000100
00000000
00010000
00000000
00000010
00001000
00000010
00000000
00010000
00000000
00001000
00100000
,
00001000
00000000
00010000
00000000
01000000
00000000
10000000
00000000
01100000
00000000
00010000
00000000
00001000
00010000
00001000
00000000
,
00000110
00000000
00001000
00000000
00000100
00000000
00000001
00000000
00000110
00000000
00001000
00000000
00010000
00001000
00010000
00000000
,
01100000
00010000
01000000
10000000
00100000
10000000
01000000
00010000
,
00101000
00000000
00101000
00000000
00010010
00000000
00010010
00000000
00011000
00000000
00011000
00000000
00000010
00001000
00000100
00000010
,
00001000
00010000
00000100
00000100
00000001
00001000
00000010
00000001
,
00000110
00000000
00000001
00000200
00001000
00000000
00000310
00000000
00001000
00000000
00010000
00200000
10000000
00000000
01300000
00000000
,
02200000
00000000
00000000
03300000
,
10100000
00000000
01000000
00010000
00000000
00000000
00110000
00000000
01000000
00010000
00000000
00000000
00001000
00000000
00000010
00000001
,
00000100
00000000
00000012
00000000
00000103
00000010
00001100
00000000
,
00001010
00000000
00000100
00000010
00000000
00000000
00000101
00000000
00000010
00000100
00000000
00000000
00001000
00000000
00010000
00100000
,
10000000
00000000
21000000
00010000
30010000
10100000
01000000
00000000
,
01010000
00000000
10000000
01000000
00000000
00000000
01100000
00000000
00010000
00001000
00000000
00000000
00000010
00000000
00000001
00000100
,
00001000
00000000
00002010
00000000
00003001
00000100
00000011
00000000
,
00010100
00000000
00001000
00010000
00000000
00000000
00110000
00000000
01000000
00100000
00000000
00000000
00010000
00000000
01000000
00100000
,
10000000
00000000
00000000
00000000
02100000
00000000
00010000
00000000
03020000
00000000
00000000
00130000
00001000
00000000
00000100
00000000
,
00000011
00000000
00000100
00001000
00000000
00000000
00001010
00000000
00000100
00001000
00000000
00000000
00010000
00000000
00100000
10000000
,
01000000
00000000
20100000
00000000
31000000
00100000
01010000
00000000
,
00110000
00000000
01000000
00100000
00000000
00000000
11000000
00000000
00100000
01000000
00000000
00000000
00010000
00000000
00001000
00000010
,
00000001
00000000
00000102
00001000
00001003
00000011
00000100
00000000
,
00001100
00000000
00000001
00000100
00000000
00000000
00000110
00000000
00001000
00010000
00000000
00000000
00100000
00000000
10000000
01000000
,
00010000
00000000
00120000
00000000
10030000
01000000
10100000
00000000
,
01001000
00000000
00001000
00100000
00000000
00100000
00010000
00000000
00001000
00000010
00000000
00000010
00010000
00000000
00000100
00000000
,
00022000
00003000
00000010
00130000
,
20200000
30000000
02000000
00300000
,
00020000
03000000
00100000
00001000
,
02000000
00030000
00200000
03300000
,
01020000
00130000
00002100
00003010
,
00000202
00000003
00000020
00000300
,
00002030
00000100
00010000
00003010
,
00020000
00000000
00000000
00000000
,
00002000
00000000
00000000
00033000
,
00000010
00000011
00000100
00001100
,
00010000
00000000
00011000
00000000
00100000
00000000
10100000
10000000
,
01000000
01001000
00010000
00110000
,
10000000
00000000
00000000
00000000
10010000
00000000
00000000
00000000
01100000
00000000
00000000
01010000
00000000
00000000
00011000
00000000
,
00001000
00000000
00000010
00000000
00000100
00000000
00010000
00000000
00001000
00000000
00000100
00000000
00000001
00000000
00000010
00001000
,
00010000
00000000
00000000
00110000
00000000
00010000
01000000
00000000
00100000
10000000
00100000
10000000
00000000
00010000
00100000
01000000
,
00010000
00000000
00001000
00000010
00000000
00000001
00001000
00000000
00000010
00000100
00000000
00001000
00000001
00000000
00000010
00000000
,
00010000
00001000
00100000
00001000
00010000
00000100
00000010
00001000
00020000
00000000
00000000
00000000
00130000
00000000
00000000
00000000
,
20020000
00000000
30030000
00000000
;
