#TITLE:IPANEMA;
#SUBTITLE:;
#ARTIST:TOMOYUKI;
#TITLETRANSLIT:;
#SUBTITLETRANSLIT:;
#ARTISTTRANSLIT:;
#GENRE:;
#CREDIT:;
#MUSIC:IPANEMA.ogg;
#BANNER:ipanema-bn.png;
#BACKGROUND:ipanema-bg.png;
#CDTITLE:NAOKI_cdtitle.png;
#SAMPLESTART:89.458;
#SAMPLELENGTH:12.000;
#SELECTABLE:YES;
#OFFSET:-0.361;
#BPMS:0.000=177.000;
#STOPS:;
#BGCHANGES:;
#FGCHANGES:;

//--------------- dance-single - NAOKI ----------------
#NOTES:
     dance-single:
     NAOKI:
     Beginner:
     4:
     0.287,0.319,0,0.086,0:
0000
0000
0000
0000
,
0010
0000
1000
0000
,
0001
0000
0010
0000
,
0100
0000
1000
0000
,
0001
0000
0100
0010
,
0100
0000
0001
0000
,
1000
0000
0100
0000
,
0010
0000
0001
0000
,
1000
0000
0001
0000
,
0010
0000
0001
0000
,
1000
0000
0010
0000
,
0100
0000
0001
0000
,
1000
0000
0100
0010
,
0100
0000
1000
0000
,
0001
0000
0100
0000
,
0010
0000
1000
0000
,
0001
0000
0010
0000
,
0100
1000
0001
0000
,
0100
0001
0010
0000
,
0100
1000
0010
0100
,
0001
1000
0100
0000
,
0010
0001
1000
0000
,
0100
1000
0010
0000
,
0100
0001
0010
0100
,
1000
0001
0100
0000
,
0010
1000
0001
0000
,
0010
0001
0100
0000
,
0010
1000
0100
0010
,
0001
1000
0010
0000
,
0100
0001
1000
0000
,
0010
1000
0100
0000
,
0010
0001
0100
0010
,
1000
0001
0010
0000
,
0100
0000
0100
0000
,
1000
0000
1000
0000
,
0001
0000
0001
0000
,
0100
0000
0100
0000
,
0010
0000
0010
0000
,
1000
0000
1000
0000
,
0001
0000
0001
0000
,
0010
0000
0010
0000
,
0100
0100
1000
1000
,
0001
0001
0100
0100
,
0010
0010
1000
1000
,
0001
0001
0010
0100
,
0010
0010
0001
0001
,
1000
1000
0010
0010
,
0100
0100
0001
0001
,
1000
1000
0100
0010
,
0200
0000
0300
0000
,
2000
0000
3000
0000
,
0002
0000
0003
0000
,
0200
0000
0300
0000
,
0020
0000
0030
0000
,
2000
0000
3000
0000
,
0002
0000
0003
0000
,
0020
0000
0030
0000
,
0100
1000
0000
1000
,
0010
0100
0000
0100
,
0001
0010
0000
0010
,
0001
1000
0010
0000
,
0100
0001
0000
0001
,
0010
0100
0000
0100
,
1000
0010
0000
0010
,
1000
0001
0010
0100
,
1000
0000
0000
0000
,
0010
0010
1000
0100
,
0010
0010
0001
0100
,
0010
0000
1000
0000
,
0100
0010
0001
0000
,
0100
0100
0001
0010
,
0100
0100
1000
0010
,
0100
0000
0001
0000
,
0010
0100
1000
0001
,
0010
0010
0001
0100
,
0010
0010
1000
0100
,
0010
0000
0001
0000
,
0100
0010
1000
0000
,
0100
0100
1000
0010
,
0100
0100
0001
0010
,
0100
0000
1000
0000
,
0010
0100
0002
2000
,
3003
0000
0000
0000
;

//--------------- dance-single - NAOKI ----------------
#NOTES:
     dance-single:
     NAOKI:
     Easy:
     8:
     0.432,0.461,0.173,0.432,0:
0000
0000
0000
0000
,
0010
0001
0100
0100
,
0010
1000
0100
0010
,
1001
0010
0100
0001
,
0010
0010
0100
1000
,
0010
1000
0100
0100
,
0010
0001
0100
0010
,
1001
0010
0100
1000
,
0002
0000
2003
0000
,
3100
1000
0010
0010
,
0100
0001
0010
0100
,
1001
0100
0001
0010
,
0100
0100
1000
0010
,
0100
0001
0010
0010
,
0100
1000
0010
0100
,
1001
0100
1000
0010
,
0110
1001
0100
0010
,
1002
0013
0100
1000
,
0001
0100
0010
1000
,
2001
3010
0100
0001
,
0010
0010
0100
1000
,
0020
0100
2030
0001
,
3100
0010
0001
1000
,
0010
0010
0100
0100
,
0001
0010
0100
0000
,
2001
3100
0010
0001
,
1000
0010
0100
0001
,
1002
0103
0010
1000
,
0100
0100
0010
0001
,
0200
0010
0302
1000
,
0013
0100
1000
0001
,
0100
0100
0010
0010
,
1000
0100
0010
0000
,
0001
0100
0000
0100
,
0010
1000
0000
1000
,
0100
0010
0000
0010
,
0001
1000
0010
0000
,
1000
0100
0000
0100
,
0010
0001
0000
0001
,
0100
0010
0000
0010
,
1000
0001
0100
0000
,
0020
1030
2000
3100
,
0020
0031
0002
0103
,
0010
1000
0001
0010
,
0100
1000
0001
0000
,
0020
0031
0002
0103
,
0020
1030
2000
3100
,
0010
0001
1000
0010
,
0100
0001
1000
0100
,
0020
0000
0130
0000
,
2000
0000
3100
0000
,
0002
0000
0103
0000
,
0010
1000
0100
0000
,
0200
0310
2000
3010
,
0002
0013
0100
0100
,
1000
0001
0100
0100
,
0010
0000
0100
0000
,
0020
0000
0130
0000
,
0002
0000
0103
0000
,
2000
0000
3100
0000
,
0010
0001
0100
0000
,
0200
0310
0002
0013
,
2000
3010
0100
0100
,
0001
1000
0100
0100
,
0010
0001
1000
0220
,
0330
0000
0000
0000
,
2010
0001
3100
0000
,
0012
1000
0103
0000
,
2000
3100
0002
0103
,
0010
1000
0100
0000
,
2100
0001
3010
0000
,
0102
1000
0013
0000
,
2000
3010
0002
0013
,
0100
1000
0010
0000
,
0102
1000
0013
0000
,
2100
0001
3010
0000
,
0002
0013
2000
3010
,
0100
0001
0010
0000
,
0012
1000
0103
0000
,
2010
0001
3100
0000
,
0002
0103
2000
3100
,
0010
0001
0100
2002
,
3003
0000
0000
0000
;

//--------------- dance-single - NAOKI ----------------
#NOTES:
     dance-single:
     NAOKI:
     Medium:
     12:
     0.639,0.674,0.156,0.363,0.017:
0000
0000
0000
0000
,
0010
0000
1000
0000
0100
0010
0001
0000
,
0100
0000
0010
1000
0000
1001
0000
0001
,
0010
0100
1000
0001
,
0100
0010
1000
0000
0100
0010
0001
0010
,
0100
0000
1000
0000
0010
0100
0001
0000
,
0010
0000
0100
1000
0000
1001
0000
0001
,
0100
0010
1000
0001
,
2000
0010
3002
0010
,
0103
0000
0001
0000
0010
0100
1000
0000
,
0010
0000
0100
0001
0000
1001
0000
1000
,
0100
0010
0001
1000
,
0010
0100
0001
0000
0010
0100
1000
0100
,
0010
0000
0001
0000
0100
0010
1000
0000
,
0100
0000
0010
0001
0000
1001
0000
1000
,
0010
0100
0001
1000
,
0110
0000
1001
0000
0010
0100
0010
0000
,
2001
0000
3100
0010
0002
0000
0103
0010
,
1000
0100
0010
0001
0100
0000
0110
0000
,
2001
0000
3010
0100
0002
0000
0013
0100
,
1000
0010
0000
0100
0000
0001
0010
0100
,
1000
0000
0001
0100
0010
0000
1000
0100
,
0010
0001
0000
1000
0000
0010
0000
0100
,
0020
0000
0100
0000
0130
0001
1000
0200
,
0000
0010
0000
0310
0000
0100
1000
0001
,
1002
0000
0103
0010
2000
0000
3100
0010
,
0001
0100
0010
1000
0100
0000
0110
0000
,
1002
0000
0013
0100
2000
0000
3010
0100
,
0001
0010
0000
0100
0000
1000
0010
0100
,
0001
0000
0010
0100
1000
0000
0001
1000
,
0010
0100
0000
0001
0000
1000
0000
0100
,
0020
0000
0100
0000
0130
1000
0001
0200
,
0010
0000
0000
0010
0000
0000
0310
0000
0000
0000
0100
0000
0001
0000
1000
0000
,
0100
0000
0100
0010
0000
0010
0001
0000
,
0001
0100
0010
1000
0100
0010
0001
0000
,
0100
0001
1000
0100
0000
0100
0010
0001
,
1000
0010
0000
0100
0001
1000
0000
0001
,
0100
0000
0100
0010
0000
0010
1000
0000
,
1000
0100
0010
0001
0100
0010
1000
0000
,
0100
1000
0001
0100
0000
0100
0010
1000
,
0001
0000
0010
0000
0000
0000
0010
0000
0100
0000
0000
1000
0000
0000
0001
0000
,
0200
0000
0310
2000
0000
3001
0020
0000
,
0130
2000
0000
3010
0100
0001
0010
0000
,
0100
1000
0010
0100
0000
0100
0010
1000
,
0001
1000
0100
0010
0001
1000
0001
1000
,
0020
0000
0130
0002
0000
0013
0200
0000
,
1300
0002
0000
0103
0010
1000
0100
0000
,
0010
0001
0100
0010
0000
0100
0001
0010
,
0100
1000
0010
0100
0001
1000
0001
1000
,
0200
0001
1300
0010
,
0200
1000
0301
0010
,
0100
1000
0001
0000
0100
0010
1000
0000
,
0100
0010
0001
0000
1000
0001
0100
0000
,
0020
0001
2030
0100
,
3002
0100
0023
1000
,
0031
1001
1000
0010
,
0100
0000
0001
0000
0010
0100
1000
0001
,
0200
1000
0301
0010
,
0200
0001
1300
0010
,
0100
0001
1000
0000
0100
0010
0001
0000
,
0100
0010
1000
0000
0001
1000
0100
0000
,
0020
1000
0032
0100
,
2003
0100
3020
0001
,
1030
1001
0001
0010
,
0100
1000
0001
0100
0010
1000
0001
2002
,
3003
0000
0000
1001
,
0010
1000
0100
0000
0010
0001
0100
0000
,
0010
1000
0001
1000
0100
0010
0001
0000
,
0100
0001
0010
0000
0100
1000
0010
0000
,
0100
0001
1000
0001
0010
0100
1000
0100
,
0010
0001
0100
0000
0010
1000
0100
0000
,
0010
0001
1000
0001
0100
0010
1000
0000
,
0100
1000
0010
0000
0100
0001
0010
0000
,
0100
1000
0001
0100
0010
0000
0110
0000
,
0100
0001
0010
0000
0100
1000
0010
0000
,
0100
0001
1000
0001
0010
0100
1000
0000
,
0010
1000
0100
0000
0010
0001
0100
0000
,
0010
1000
0001
1000
0100
0010
0001
0010
,
0100
1000
0010
0000
0100
0001
0010
0000
,
0100
1000
0001
1000
0010
0100
0001
0000
,
0010
0001
0100
0000
0010
1000
0100
0000
,
0020
0000
0000
0032
0000
0000
2003
0000
0000
3020
0000
0000
0130
0000
2002
0000
,
3003
0000
0000
0000
;

//--------------- dance-single - NAOKI ----------------
#NOTES:
     dance-single:
     NAOKI:
     Hard:
     15:
     0.988,1,0.294,0.432,0.515:
0000
0000
0000
0000
,
0010
1000
0001
0010
0100
1000
0001
0100
,
0010
0100
0001
2000
3100
0002
0103
0010
,
0110
0001
1000
0010
0100
0010
1000
0100
,
0010
0001
0100
0010
1000
0100
0010
0010
,
0010
0001
1000
0010
0100
0001
1000
0100
,
0010
0100
1000
0002
0103
2000
3100
0010
,
0110
1000
0001
0010
0100
0010
0001
1000
,
0010
0000
0100
0000
0000
0000
0100
0000
0000
0000
0001
1000
0001
0000
0010
0000
,
0100
1000
0001
0100
0010
1000
0001
0010
,
0100
0010
0001
2000
3010
0002
0013
0100
,
0110
0001
1000
0100
0010
0001
1000
0010
,
0100
0001
0010
0100
1000
0010
0010
0010
,
0100
0001
1000
0100
0010
0001
1000
0010
,
0100
0000
0010
0000
1000
0000
0001
0010
0100
0000
1000
0001
0100
0000
0010
0000
,
0110
1000
0001
0100
0010
1000
0001
0010
,
0110
0000
0100
0000
1000
0000
0001
0000
0100
0000
0010
0100
0010
0000
0000
0000
,
1000
0000
0001
0000
1000
0010
0100
0010
1000
0000
0001
0000
1000
0100
0010
0100
,
1000
0001
0100
0010
1010
0000
0101
0000
,
0001
0000
1000
0000
0001
0010
0100
0010
0001
0000
1000
0000
0001
0100
0010
0100
,
0001
1000
0010
0100
0001
1000
0100
0100
,
0010
0001
1000
0001
0100
0000
0010
0000
0100
0001
1000
0001
0010
0000
0100
0000
,
1000
0000
0001
0100
0010
0000
1000
0000
0001
0010
0100
1000
0001
0000
0100
0000
,
0002
0010
0013
0100
2000
0001
3010
0200
,
0001
0000
0301
0000
1000
0000
0100
0000
0010
0000
0000
0010
0001
0000
0100
0000
,
0010
0000
1000
0000
0001
0010
0100
0010
0001
0000
1000
0000
0001
0100
0010
0100
,
0001
1000
0100
0010
0011
0000
1100
0000
,
1000
0000
0001
0000
1000
0010
0100
0010
1000
0000
0001
0000
1000
0100
0010
0100
,
1000
0001
0010
0100
1000
0001
0100
0100
,
0010
1000
0001
1000
0100
0000
0010
0000
0100
1000
0001
1000
0010
0000
0100
0000
,
0001
0000
1000
0100
0010
0000
0001
0000
1000
0010
0100
0001
1000
0000
0010
0000
,
2000
0100
3100
0010
0002
1000
0103
0010
,
1000
0100
0000
0010
0001
0000
1000
0010
0000
0100
0001
0000
0010
0000
0100
0000
,
2001
0000
0000
0000
3010
0000
0100
0001
0100
0000
0010
0000
1002
0000
0000
0000
,
0013
0000
0100
1000
0100
0000
0010
0000
0001
1000
0001
0000
0100
0000
0000
0000
,
0010
0000
1000
0001
1000
0000
0200
0000
0010
0000
0310
0000
0001
0000
1000
0000
,
0010
0100
0000
0010
1000
0100
0000
0100
,
1002
0000
0000
0000
0013
0000
0100
1000
0100
0000
0010
0000
2001
0000
0000
0000
,
3010
0000
0100
0001
0100
0000
0010
0000
1000
0001
1000
0000
0100
0000
0000
0000
,
0010
0000
0001
1000
0001
0000
0200
0000
0010
0000
0310
0000
1000
0000
0001
0000
,
0010
0000
0100
1000
0001
0000
0100
0000
0010
0000
0000
0101
0000
0000
1100
0000
,
0010
0002
0100
0103
0020
1000
1030
0001
,
0010
0000
0100
0010
0001
0000
1000
0000
0010
0000
0100
0000
0101
0000
0000
0000
,
1010
0010
1000
1100
0000
0011
0001
0100
,
0010
1000
0001
0010
0110
0100
1001
0100
,
0010
2000
0100
3100
0020
0001
0031
1000
,
0010
0000
0100
0010
1000
0000
0001
0000
0010
0000
0100
0000
1100
0000
0000
0000
,
0011
0010
0001
0101
0000
1010
1000
0001
,
0012
0000
0013
0100
1000
0000
0001
0100
0010
0000
1000
0001
0010
0000
0100
0000
,
2000
0000
0010
0000
0001
0000
3100
0010
,
0002
0000
0100
0000
1000
0000
0013
0100
,
1000
0020
0100
0030
1000
0200
0010
0300
,
1000
0001
0100
0100
0010
1000
0100
0010
,
0001
0100
1000
0100
0001
0010
1000
0010
,
0001
0100
0010
1000
0001
0010
0100
1000
,
0010
0000
0110
0000
0100
0001
1000
0100
,
0010
0000
0010
0000
0100
0000
1000
0000
0001
0100
0010
0100
0001
1000
0100
0010
,
0002
0000
0100
0103
0000
0010
0110
0000
,
2001
0000
0100
3100
0000
0010
0110
0000
,
0001
0020
0100
0030
0001
0200
0010
0300
,
0001
1000
0100
0100
0010
0001
0100
0010
,
1000
0100
0001
0100
1000
0010
0001
0010
,
1000
0100
0010
0001
1000
0010
0100
0001
,
0010
0000
0110
0000
0100
1000
0001
0100
,
0010
0000
1000
0010
0100
0000
0001
0010
0100
0000
1000
0001
0100
0000
0220
0000
,
0330
0000
0010
0100
0000
0000
1001
0000
,
0010
0000
1000
0001
0010
0000
0200
0000
1300
0000
0001
0100
0010
0100
0001
0000
,
1000
0000
0100
0010
0001
0000
1000
0000
0010
0100
0001
1000
0100
0000
0010
0000
,
0001
0000
1000
0010
0100
0000
0002
0000
1003
0100
0010
0001
1000
0000
0010
0000
,
0100
0001
1000
0001
0010
0000
0100
0000
0010
0001
1000
0001
0100
0000
0010
0000
,
0100
0000
0001
1000
0100
0000
0020
0000
0031
0000
1000
0010
0100
0010
1000
0000
,
0001
0000
0010
0100
1000
0000
0001
0000
0100
0010
1000
0001
0010
0000
0100
0000
,
1000
0000
0001
0100
0010
0000
2000
0000
3001
0010
0100
1000
0001
0000
0100
0000
,
0010
1000
0001
1000
0100
0000
0010
0000
0100
1000
0001
0100
0010
1000
0001
0010
,
0100
0000
1000
0001
0100
0000
0020
0000
1030
0001
0010
0100
1000
0001
0100
0000
,
0010
0000
1000
0001
0010
0000
0100
0000
1000
0001
0100
0010
1000
0001
0010
0000
,
0100
0000
1000
0100
0010
0000
0002
0000
1003
0010
0100
0001
1000
0000
0100
0000
,
0010
0001
1000
0001
0100
0000
0010
0000
0100
0001
1000
0001
0010
0000
0100
0000
,
0010
0000
0001
1000
0010
0000
0200
0000
0301
1000
0100
0010
0001
1000
0010
0000
,
0100
0000
0001
1000
0100
0000
0010
0000
0001
1000
0010
0100
0001
1000
0100
0000
,
0010
0000
0001
0010
0100
0000
2000
0000
3010
0100
0001
1000
0100
0000
0010
0000
,
0002
0200
0003
0320
2000
0030
3002
0020
0003
0230
2000
0300
3001
0000
0220
0000
,
0330
0000
0000
0000
;

//--------------- dance-single - NAOKI ----------------
#NOTES:
     dance-single:
     NAOKI:
     Challenge:
     17:
     0,0,0,0,0:
0000
0000
0000
0000
,
1000
0100
0010
0001
1000
0000
0010
0200
0300
0010
1000
0000
0001
0010
0000
0100
,
1000
0001
0100
0010
0100
0001
2000
3000
0100
0010
0002
0003
1000
0010
0100
0010
,
2000
0000
3001
0010
0100
0000
1000
0200
0300
0010
0001
0000
1000
0010
0000
0100
,
0010
1000
0001
0010
0100
0000
0010
0001
0000
1000
0020
0000
0100
0000
0130
0000
,
0001
0100
0010
1000
0001
0000
0010
0200
0300
0010
0001
0000
1000
0010
0000
0100
,
0010
1000
0001
0010
0100
1000
0002
0003
1000
0010
2000
3000
0001
0010
0100
0010
,
0002
0000
0103
0010
1000
0000
0010
0200
0300
0010
1000
0000
0001
0010
0000
0100
,
1000
0001
1000
0001
0100
0000
0020
0130
0000
0010
0200
0310
0000
0100
0020
0030
,
1000
0010
0100
0001
1000
0000
0100
0020
0030
0100
1000
0000
0001
0100
0000
0010
,
0100
0001
1000
0100
0010
0100
2000
3000
0001
0100
0002
0003
1000
0100
0010
0001
,
2000
0000
3010
0100
0001
0000
0100
0020
0030
0100
0001
0000
1000
0100
0000
0010
,
0100
1000
0001
0100
0010
0000
0100
0000
0001
0000
1000
0000
0001
0000
1000
0000
,
0001
0010
0100
1000
0001
0000
0100
0020
0030
0100
0001
0000
1000
0100
0000
0010
,
0100
1000
0001
0100
0010
0100
0002
0003
1000
0100
2000
3000
0001
0100
0010
1000
,
0002
0000
0013
0100
1000
0000
0001
0200
0300
0010
1000
0000
0001
0010
0000
0100
,
1000
0000
0000
0000
1000
0000
0000
0000
0001
0000
0000
0000
0001
0000
0000
0000
0200
0000
0300
0000
0010
0000
0100
0000
0010
0000
0000
0000
4000
0000
0000
3000
,
0001
0010
0100
0010
0001
1000
0001
0100
0010
0100
0001
1000
0100
1000
0001
0100
,
0010
1000
0001
0010
0100
1000
0010
1000
0002
0003
0010
0100
0002
0003
0100
0010
,
0001
1000
0001
0100
0010
0000
1000
0001
0010
0000
0100
0010
0002
0000
1003
0000
,
0010
0100
0010
0000
0100
0010
0100
0000
0001
1000
0010
0100
0010
1000
0001
0010
,
0200
0300
0010
0001
1000
0010
1000
0001
0020
0030
0100
1000
0001
0100
0020
0030
,
1000
0001
0020
0030
0001
1000
0010
0100
0010
1000
0001
0010
0100
0010
0001
1000
,
0001
0100
0010
0100
0001
0000
0010
0000
1000
0000
0010
0000
0100
0000
2000
0000
,
3001
0000
0100
0000
0010
0000
1000
0000
0100
0000
0000
0100
0010
0000
0001
0000
,
1000
0010
0100
0010
1000
0001
1000
0100
0010
0100
1000
0001
0100
0001
1000
0100
,
0010
0001
1000
0100
1000
0001
0010
0001
2000
3000
0010
0100
2000
3000
0100
0010
,
1000
0001
1000
0001
0010
0000
0100
1000
0001
0000
0100
0010
2000
0000
3001
0000
,
0010
0100
0010
0000
0100
0010
0100
0000
1000
0001
0010
0100
0010
0001
1000
0010
,
0200
0300
0010
1000
0001
0010
0001
1000
0020
0030
0100
0001
1000
0100
0020
0030
,
0001
1000
0020
0030
0100
0001
1000
0100
0010
0100
1000
0001
0100
0010
1000
0001
,
0010
0100
0010
0100
1000
0000
0001
0000
0100
0010
1000
0001
0010
0100
1000
0000
,
0001
0100
0010
0100
0001
1000
0001
0010
0100
0001
0100
0010
0001
1000
0010
0000
,
0220
0330
0100
0001
1000
0100
0020
0030
,
0001
0100
1000
0100
0001
0010
1000
0000
,
0010
0100
0010
0000
0001
0000
1000
0000
0010
0000
0100
0000
1000
0000
0100
0000
,
0001
0100
0000
0110
0000
0010
1000
0001
,
0020
0030
0100
1000
0001
0100
0020
0030
,
1000
0100
0001
0100
1000
0010
0001
0000
,
0010
0100
0010
0000
1000
0000
0100
0000
0010
0000
0001
0000
0200
0000
0000
0000
,
0300
0000
0010
0000
0010
0000
0000
0000
0000
0000
0000
0100
0000
0000
0100
0000
,
0001
1000
0100
0010
0001
0100
0100
1000
0010
0100
0001
0010
0010
1000
0001
0010
,
0100
1000
0010
0010
0001
0100
0010
1000
0100
0100
0001
0010
0200
0000
0300
0000
,
1000
0010
0100
0002
0003
0010
2000
3000
,
0010
0100
1000
0001
0100
0100
0010
0010
,
1000
0001
0100
0010
1000
0100
0100
0001
0010
0100
1000
0010
0010
0001
1000
0010
,
0100
0001
0010
0010
1000
0100
0010
0001
0100
0100
1000
0010
0200
0000
0300
0000
,
0001
0010
0100
2000
3000
0010
0002
0003
,
0010
0000
0000
0000
0100
0000
0000
0000
0001
0000
0000
0000
1000
0000
0000
0000
0100
0000
0000
0000
0010
0000
0100
0000
0010
0000
0000
0000
0004
0000
0000
0003
,
2000
0000
0010
0000
0001
0000
3100
0010
,
0002
0000
0100
0000
1000
0000
0013
0100
,
1000
0020
0100
0030
1000
0200
0010
0300
,
1000
0001
0100
0100
0010
1000
0100
0010
,
0001
0100
1000
0100
0001
0010
1000
0010
,
0001
0100
0010
1000
0001
0010
0100
1000
,
0010
0000
0110
0000
0100
0001
1000
0100
,
0010
0000
0010
0000
0100
0000
1000
0000
0001
0100
0010
0100
0001
1000
0100
0010
,
0002
0000
0100
0103
0000
0010
0110
0000
,
2001
0000
0100
3100
0000
0010
0110
0000
,
0001
0020
0100
0030
0001
0200
0010
0300
,
0001
1000
0100
0100
0010
0001
0100
0010
,
1000
0100
0001
0100
1000
0010
0001
0010
,
1000
0100
0010
0001
1000
0010
0100
0001
,
0010
0000
0110
0000
0100
1000
0001
0100
,
0010
0000
1000
0010
0100
0000
0001
0100
0010
0000
1000
0001
0100
0000
0220
0000
,
0330
0000
0000
0000
0010
0000
0100
0000
0000
0000
0000
0000
2002
3003
0000
0000
,
0001
0010
0100
1000
0001
0100
0020
0030
1000
0001
0010
0100
0010
0001
2000
3000
,
0001
0100
0010
0100
0001
1000
0100
0020
0030
0001
1000
0010
0100
0010
1000
0001
,
0010
0001
1000
0010
0200
0000
0310
0000
1000
0001
0010
0100
1000
0001
0100
0020
,
0030
0100
0001
1000
0100
0000
0010
0000
0100
1000
0001
0100
0010
0000
0100
0000
,
0001
0000
1000
0100
1000
0000
0001
0000
1000
0001
0100
0010
0100
0001
2000
3000
,
0100
0010
0001
1000
0001
1000
0010
0200
0300
0010
1000
0010
0100
0001
0100
0010
,
1000
0001
0010
0100
2000
3000
0002
0003
0100
0010
1000
0001
0010
0001
1000
0020
,
0030
1000
0010
0100
0002
0003
2000
3000
0001
0100
0001
1000
0100
0010
0001
1000
,
0020
0030
0100
0001
1000
0100
0020
0030
0001
1000
0010
0100
0010
1000
0002
0003
,
0010
0100
1000
0001
0010
0001
1000
0020
0030
0100
0001
1000
0100
1000
0001
0100
,
0010
0100
0001
1000
0200
0000
0310
0000
0001
1000
0010
0100
0010
1000
0001
0020
,
0030
0100
1000
0001
0100
0000
0010
0000
1000
0001
1000
0001
0010
0000
0100
0000
,
1000
0000
0001
0010
0001
0000
1000
0000
0010
0100
0001
1000
0001
0010
0200
0300
,
0010
0001
1000
0010
0100
0001
1000
0200
0300
0010
0001
1000
0001
0100
0010
0100
,
0001
1000
0100
0010
0002
0003
2000
3000
0001
0010
0100
1000
0001
0010
0001
1000
,
0020
0230
0302
0023
0230
2300
3002
0203
0320
2030
3200
0320
0031
0000
2002
0000
,
3003
0000
0000
0000
;
