#TITLE:I'm Not Crazy;
#SUBTITLE:;
#ARTIST:Ata;
#TITLETRANSLIT:;
#SUBTITLETRANSLIT:;
#ARTISTTRANSLIT:;
#GENRE:;
#CREDIT:NAOKI;
#MUSIC:I'm Not Crazy.ogg;
#BANNER:I'm-Not-Crazy-bn.png;
#BACKGROUND:I'm-Not-Crazy-bg.png;
#CDTITLE:naokicdtitle.png;
#SAMPLESTART:343.811;
#SAMPLELENGTH:21.333;
#SELECTABLE:YES;
#OFFSET:-1.144;
#BPMS:0.000=180.000;
#STOPS:;
#BGCHANGES:;
#FGCHANGES:;

//--------------- dance-single - NAOKI 92*|32/74* ----------------
#NOTES:
     dance-single:
     NAOKI 92*|32/74*:
     Challenge:
     16:
     0,0,0,0,0:
0000
0000
0000
0000
,
0000
0000
0000
0000
,
0000
0000
0000
0000
,
0000
0000
0000
0000
,
1000
0000
0001
0100
0000
0010
1000
0001
0010
0100
0000
0010
,
0001
0000
1000
0010
0000
0100
0001
1000
0100
0010
0001
1000
,
0010
0000
0100
0001
0000
1000
0100
1000
0001
0100
0001
1000
,
0200
0000
0300
0000
0010
0000
0001
0000
0000
0000
0100
0000
0010
0000
1000
0000
0001
0000
0020
0000
0000
0030
0000
0000
,
0100
0000
0010
0001
1000
0010
0100
0000
0001
1000
0000
0100
,
0010
0000
0000
0001
0000
1000
0010
0000
0100
0001
1000
0100
,
0010
0000
0001
0100
0010
1000
0001
0010
0100
1000
0000
0001
,
0100
0000
0010
1000
0000
0001
0010
0001
1000
0010
1000
0001
,
0010
0000
0100
1000
0000
0010
0100
0001
1000
0100
0000
0010
,
0001
0000
0000
0100
0010
1000
0001
0010
0001
1000
0010
1000
,
0100
0000
0000
0010
0000
0100
1000
0001
0100
0010
0000
1000
,
0001
0000
0000
0010
0000
0100
0010
0001
1000
0010
0100
0001
,
0010
0000
0100
1000
0000
0001
0100
0010
1000
0001
0010
0001
,
0100
0000
0010
1000
0000
0001
0010
0100
0010
0001
0000
1000
,
0010
0000
0000
0100
0001
1000
0100
0010
0001
0100
0000
0010
,
2000
0000
3000
0200
0000
0300
0020
0000
0030
0002
0000
0003
,
2000
0000
3010
0200
0000
0301
2000
0000
3100
0020
0000
0031
,
1000
0010
1000
0001
1000
0100
0010
0001
1000
0001
0100
0001
,
0010
0100
1000
0001
0100
0010
1000
0100
0010
0001
1000
0010
,
0100
0001
0010
0100
1000
0010
0100
0001
0010
0100
2000
0002
,
0000
0000
0000
0000
,
0000
0000
0000
0000
,
3003
0000
0000
0000
,
0000
0000
0000
0000
,
0M00
0000
0000
0000
0000
00M0
0000
0000
0000
0000
0M00
0000
0000
0000
00M0
0000
0000
0000
0M00
0000
0000
0000
0000
00M0
,
0000
0000
0000
0000
0000
0000
0000
0000
0000
0000
0000
0000
0000
0000
0000
0000
0000
0000
0000
0000
0000
0000
0000
0000
0000
0000
0000
0000
0000
0000
0000
0000
0000
0000
0000
0000
0M00
0000
0000
0000
0000
0000
0000
0000
0000
0000
0000
0000
0000
0000
0000
0000
0000
0000
0000
0000
0000
0000
0000
0000
0000
0000
0000
0000
0000
0000
0000
0000
0000
0000
0000
0000
0000
0000
0000
0000
00M0
0000
0000
0000
0000
0000
0000
0000
0000
0000
0000
0000
0000
0000
0000
0000
0000
0000
0000
0000
0000
0000
0000
0000
0000
0000
0000
0000
0000
0000
0000
0000
0000
0000
0000
0000
0000
0000
0000
0M00
0000
0000
0000
0000
0000
0000
0000
0000
0000
0000
0000
0000
0000
0000
0000
0000
0000
0000
0000
0000
0000
0000
0000
0000
0000
0000
0000
0000
0000
0000
0000
0000
0000
00M0
0000
0000
0000
0000
0000
0000
0000
0000
0000
0000
0000
0000
0000
0000
0000
0000
0000
0000
0000
0000
0000
0000
0000
0000
0000
0000
0000
0000
0000
0000
0000
0000
0000
0000
0M00
0000
0000
0000
0000
0000
0000
0000
,
0000
0000
0000
0000
0000
0000
0000
0000
0000
0000
0000
0000
0000
0000
0000
0000
0000
0000
0000
0000
0000
0000
0000
0000
0000
0000
0000
0000
0000
00M0
0000
0000
0000
0000
0000
0000
0000
0000
0000
0000
0000
0000
0000
0000
0000
0000
0000
0000
0000
0000
0000
0000
0000
0000
0000
0000
0000
0000
0000
0000
0000
0000
0000
0000
0M00
0000
0000
0000
0000
0000
0000
0000
0000
0000
0000
0000
0000
0000
0000
0000
0000
0000
0000
0000
0000
0000
0000
0000
0000
0000
0000
0000
0000
0000
0000
0000
0000
0000
0000
0000
0000
0000
00M0
0000
0000
0000
0000
0000
0000
0000
0000
0000
0000
0000
0000
0000
0000
0000
0000
0000
0000
0000
0000
0000
0000
0000
0000
0000
0000
0000
0000
0000
0000
0000
0000
0000
0000
0000
0000
0000
0000
0000
0000
0000
0000
0000
0000
0000
0000
0000
0000
0000
0000
0000
0000
0000
0000
0000
0000
0000
0000
0000
0000
0000
0000
0000
0000
0000
0000
0000
0000
0000
0000
0000
0000
0000
0000
0000
0000
0000
0000
0000
0000
0000
0000
0000
0000
0000
0000
0000
0000
0000
,
0000
0000
0000
0000
,
1000
0001
1000
0001
,
1000
0001
1000
0001
,
1000
0010
1000
0001
0100
0001
1000
0100
1000
0001
0010
0001
,
1000
0010
1000
0001
0100
0001
1000
0100
1000
0001
0010
0001
,
0100
0010
1000
0100
1000
0001
0010
0001
1000
0100
1000
0001
,
0100
0001
1000
0010
1000
0001
0010
0001
1000
0100
1000
0001
,
0100
0010
1000
0001
0010
0001
1000
0010
1000
0001
0100
0001
,
1000
0100
0010
0001
0100
0010
2000
0000
0000
3001
0000
0000
,
0010
0001
1000
0001
0010
0001
1000
0010
0100
0001
1000
0001
0100
0001
1000
0100
,
0010
0001
1000
0001
0010
0001
1000
0010
0100
0001
1000
0001
0100
0001
1000
0100
,
0010
0001
1000
0001
0010
0001
1000
0010
0100
0001
1000
0001
0100
0001
1000
0100
,
0010
0000
0000
0000
0001
0000
0000
0000
1000
0000
0000
0000
0001
0000
0000
0000
0010
0000
0000
0000
0001
0000
0000
0000
1000
0000
0000
0000
0010
0000
0000
0000
0100
0000
0000
0000
0001
0000
0000
0000
1000
0000
0000
0000
0100
0000
0000
0000
0020
0030
0000
0000
0000
0000
0000
0000
0000
0000
0000
0000
0000
0000
0000
0000
,
0001
0010
0100
1000
0010
1000
0001
0100
0001
1000
0100
1000
0010
1000
0001
0100
,
0001
1000
0100
1000
0010
1000
0001
0010
0001
1000
0010
1000
0100
0000
0000
0000
,
0010
0100
1000
0010
0100
0001
0010
0100
1000
0010
0100
0001
0010
0100
1000
0010
,
0100
0001
1000
0001
0100
0001
1000
0100
1000
0001
1000
0100
0010
0001
0010
0001
,
1000
0010
0100
0001
1000
0010
1000
0001
0010
0100
1000
0001
0010
0001
1000
0010
,
1000
0100
0010
0001
1000
0100
1000
0001
0100
0010
1000
0001
0100
0001
1000
0100
,
1000
0010
0100
0001
1000
0010
1000
0001
0010
0100
1000
0001
0010
0001
1000
0010
,
1000
0100
0010
0001
1000
0100
1000
0001
0100
0010
1000
0001
0100
0001
1000
0100
,
1000
0001
0010
0100
1000
0001
1000
0010
0100
0001
0100
0010
1000
0100
1000
0001
,
1000
0010
0100
0001
1000
0100
1000
0001
0010
0100
1000
0100
0010
0001
1000
0001
,
0100
0010
1000
0010
0100
0001
1000
0001
0010
0100
0010
0100
1000
0001
1000
0010
,
0100
0000
0000
0000
0001
0000
0000
0000
0100
0000
0000
0000
0010
0000
0000
0000
1000
0000
0000
0000
0001
0000
0000
0000
1000
0000
0000
0000
0100
0000
0000
0000
0010
0000
0000
0000
0001
0000
0000
0000
1000
0000
0000
0000
0001
0000
0000
0000
0200
0300
0000
0000
0000
0000
0000
0000
0020
0030
0000
0000
1000
0000
0000
0000
,
0001
0010
0001
1000
0100
1000
0010
1000
0001
0010
0001
1000
0100
1000
0010
1000
,
0001
0010
0100
1000
0001
0010
0001
0010
0100
1000
0001
0100
0010
0100
0001
1000
,
0100
0010
0001
0010
0100
1000
0001
0100
0010
1000
0010
0100
0001
1000
0001
0010
,
0100
1000
0100
0010
0001
1000
0001
0100
0010
0100
0001
1000
0100
0010
0100
1000
,
0001
0100
0010
1000
0001
0010
0001
1000
0001
0100
0010
1000
0100
1000
0001
1000
,
0010
0100
0010
1000
0001
0010
0100
0010
0001
1000
0100
0010
0001
1000
0010
0100
,
0001
1000
0001
0010
0100
1000
0100
1000
0001
0100
0010
1000
0001
0010
0001
1000
,
0010
0100
0010
1000
0001
0010
0001
1000
0001
0100
0010
1000
0002
0000
0000
0003
,
2000
0000
0000
0000
3000
0000
0100
0000
0010
0000
0001
0000
1000
0010
1000
0010
,
0100
0001
1000
0100
0010
0001
1000
0001
0100
0010
1000
0001
0010
0100
0010
0001
,
1000
0100
0010
0001
1000
0010
1000
0001
0010
0100
1000
0001
0100
0010
1000
0001
,
0010
0100
1000
0001
0100
0010
1000
0001
1000
0100
0010
0001
1000
0010
0100
0001
,
1000
0100
0010
0001
1000
0010
0100
0001
0010
0001
0100
0010
1000
0100
1000
0001
,
0100
0001
1000
0100
1000
0001
0100
0001
1000
0100
0010
0001
0100
0001
1000
0100
,
1000
0010
0100
0001
1000
0100
0010
0001
1000
0010
0100
0001
1000
0100
0010
0001
,
0100
0010
1000
0010
0100
0001
0100
0001
1000
0100
0010
0001
1000
0010
0100
0001
,
0010
0000
0000
0000
0001
0000
0000
0000
1000
0000
0000
0000
0100
0000
0000
0000
0010
0000
0000
0000
0001
0000
0000
0000
0010
0000
0000
0000
0001
0000
0000
0000
2000
3000
0000
0000
0100
0000
0000
0000
2000
3000
0000
0000
0010
0000
0000
0000
2000
0000
0000
0000
0000
0000
0000
0000
3000
0000
0000
0000
0000
0000
0000
0000
,
0001
0010
0001
0100
0010
1000
0001
1000
0100
0010
0001
0100
0001
1000
0100
1000
,
0001
0100
0010
1000
0001
0010
0001
1000
0010
0100
0001
1000
0100
0010
0001
1000
,
0010
0100
0001
1000
0100
0010
0001
1000
0001
0100
0010
1000
0001
0010
0100
1000
,
0001
0100
0001
1000
0001
0010
0100
1000
0010
1000
0001
0010
0001
0100
0001
1000
,
0100
1000
0001
0100
0001
1000
0100
1000
0001
0100
0010
1000
0100
1000
0001
0100
,
0001
0010
0100
1000
0001
0100
0010
1000
0001
0010
0100
1000
0001
0010
0001
1000
,
0010
0100
0001
1000
0100
0010
0001
1000
0010
0100
0001
1000
0010
1000
0001
0010
,
0100
0000
0000
0000
1000
0000
0000
0000
0100
0000
0000
0000
1000
0000
0000
0000
0010
0000
0000
0000
0100
0000
0000
0000
0010
0000
0000
0000
1000
0000
0000
0000
0002
0003
0000
0000
0100
0000
0000
0000
0002
0003
0000
0000
0010
0000
0000
0000
0002
0003
0000
0000
1000
0000
0000
0000
0100
0000
0000
0000
1000
0000
0000
0000
,
0001
0010
0001
1000
0001
0100
0010
1000
0100
1000
0001
1000
0010
0100
0010
1000
,
0001
0100
0001
1000
0001
0010
0100
1000
0010
1000
0001
1000
0100
0010
0001
1000
,
0100
1000
0010
0100
0001
0100
0010
1000
0001
0100
0010
1000
0001
0100
0001
0010
,
0100
1000
0010
1000
0001
0010
0001
1000
0010
0100
0001
0010
0100
1000
0010
1000
,
0001
0010
0100
1000
0001
0010
0001
1000
0010
0100
0010
1000
0001
0010
0001
1000
,
0010
1000
0001
1000
0100
0010
0100
0010
0001
1000
0001
0100
0010
1000
0010
0100
,
0001
1000
0001
0010
0100
1000
0010
1000
0001
0010
0001
1000
0001
0010
0100
1000
,
0010
1000
0001
1000
0100
0010
0001
1000
0010
0100
0001
1000
0100
1000
0010
1000
,
0001
0010
0100
1000
0001
0010
0001
1000
0010
0100
0001
1000
0010
1000
0001
0010
,
0001
0100
0010
1000
0100
1000
0001
0100
0001
0010
0100
1000
0001
0010
0001
0010
,
0100
1000
0001
0100
0010
0100
0001
1000
0010
0100
0001
1000
0100
1000
0010
1000
,
0001
0000
0000
0000
0010
0000
0000
0000
0100
0000
0000
0000
1000
0000
0000
0000
0001
0000
0000
0000
0100
0000
0000
0000
0001
0000
0000
0000
1000
0000
0000
0000
0200
0300
0000
0000
0010
0000
0000
0000
0001
0000
0000
0000
0200
0300
0000
0000
0010
0000
0000
0000
1000
0000
0000
0000
0200
0300
0000
0000
0000
0000
0000
0000
,
0010
0001
1000
0010
0100
0010
1000
0001
0010
0100
1000
0001
0100
0010
1000
0001
,
0010
0001
1000
0001
0100
0010
1000
0010
0100
0001
1000
0001
0010
0100
1000
0001
,
0100
0010
0100
0001
1000
0100
0010
0001
0100
0001
1000
0001
0100
0010
1000
0001
,
0010
0001
0100
0010
1000
0100
1000
0010
0100
0001
0010
0001
1000
0100
0010
0001
,
0100
0001
1000
0001
0010
0100
1000
0100
1000
0001
1000
0010
0100
0001
0010
0001
,
1000
0100
0010
0001
0010
0100
1000
0001
1000
0010
0100
0001
0100
0010
1000
0001
,
0010
0100
1000
0100
0010
0001
1000
0001
0100
0010
1000
0010
0100
0001
0010
0001
,
1000
0000
0000
0000
0010
0000
0000
0000
1000
0000
0000
0000
0100
0000
0000
0000
0010
0000
0000
0000
0001
0000
0000
0000
0010
0000
0000
0000
0001
0000
0000
0000
0100
0000
0000
0000
0010
0000
0000
0000
1000
0000
0000
0000
0100
0000
0000
0000
0010
0000
0000
0000
0001
0000
0000
0000
0200
0300
0000
0000
0000
0000
0000
0000
,
0020
0030
0000
0000
1000
0000
0000
0000
0001
0000
0000
0000
0010
0000
0000
0000
0100
0000
0000
0000
0010
0000
0000
0000
0001
0000
0000
0000
1000
0000
0000
0000
0010
0000
0000
0000
0100
0000
0000
0000
0001
0000
0000
0000
0100
0000
0000
0000
0010
0000
0000
0000
1000
0000
0000
0000
0001
0000
0000
0000
1000
0000
0000
0000
,
0100
0010
0001
0010
0100
1000
0001
0100
0010
1000
0010
0100
0001
1000
0001
0010
,
0100
0000
1000
0100
0010
0000
0001
0100
0001
0000
1000
0100
1000
0000
0001
0100
,
0010
1000
0010
1000
0001
1000
0001
0010
0001
0010
0100
1000
0001
0100
0001
0100
,
0010
1000
0001
1000
0100
0010
0100
1000
0001
0100
0010
0100
0001
1000
0001
0010
,
0100
1000
0001
0100
0010
1000
0001
0010
0100
1000
0010
0100
0010
1000
0001
0010
,
0100
1000
0001
1000
0010
0100
0001
1000
0100
0010
0100
1000
0001
0010
0001
1000
,
0010
0100
0001
0100
0010
0100
0001
1000
0100
0010
0001
1000
0010
0100
0010
0100
,
0001
1000
0100
1000
0010
1000
0001
0010
0100
0010
0001
1000
0010
0100
0010
1000
,
0001
0010
0001
0100
0001
1000
0100
1000
0010
1000
0001
0100
0001
0010
0001
1000
,
0010
1000
0100
1000
0001
0010
0001
0100
0001
1000
0100
1000
0010
1000
0001
0010
,
0001
0000
0100
0000
0010
1000
0010
1000
0001
0000
0010
0000
0200
0000
0300
0000
,
1000
0001
0100
0001
1000
0100
0010
0001
0100
0010
1000
0010
0100
0001
0010
0001
,
1000
0010
1000
0100
1000
0001
0100
0010
0100
0001
1000
0100
0010
0001
1000
0001
,
0100
0001
1000
0100
1000
0001
0100
0010
1000
0001
0010
0001
1000
0010
1000
0001
,
1000
0100
0010
0001
0100
0001
1000
0010
0100
0001
1000
0100
1000
0001
0100
0001
,
1000
0000
0000
0000
0100
0000
0000
0000
1000
0000
0000
0000
0100
0000
0000
0000
0020
0030
0000
0000
0000
0000
0000
0000
0100
0000
0000
0000
1000
0000
0000
0000
0001
0000
0000
0000
0100
0000
0000
0000
0001
0000
0000
0000
1000
0000
0000
0000
0100
0000
0000
0000
1000
0000
0000
0000
0010
0000
0000
0000
1000
0000
0000
0000
,
0001
0010
0001
1000
0010
1000
0001
0010
0001
1000
0010
1000
0100
0010
0001
1000
,
0010
0100
0001
0010
0100
1000
0010
0100
0010
1000
0001
0010
0100
1000
0010
0100
,
0001
0000
0000
0000
1000
0000
0000
0000
0001
0000
0000
0000
0010
0000
0000
0000
0100
0000
0000
0000
1000
0000
0000
0000
0001
0000
0000
0000
1000
0000
0000
0000
0010
0000
0000
0000
0100
0000
0000
0000
0001
0000
0000
0000
1000
0000
0000
0000
0200
0300
0000
0000
0000
0000
0000
0000
0020
0030
0000
0000
0000
0000
0000
0000
,
0001
0100
0001
1000
0100
1000
0001
0010
0001
1000
0010
1000
0100
0010
0001
0010
,
0100
1000
0001
0100
0010
1000
0001
0010
0100
1000
0001
0100
0010
0100
0001
1000
,
0100
1000
0001
0100
0001
1000
0010
1000
0001
0010
0001
1000
0010
0100
0001
1000
,
0001
0010
0100
1000
0001
0100
0001
1000
0100
0010
0001
1000
0010
0100
0010
1000
,
0001
0010
0001
1000
0001
0100
0010
1000
0001
0100
0001
1000
0001
0010
0100
1000
,
0010
1000
0001
1000
0100
0010
0001
1000
0100
1000
0001
1000
0010
0100
0010
1000
,
0001
0010
0001
1000
0100
1000
0001
0100
0001
1000
0010
1000
0001
0010
0100
1000
,
0001
0100
0010
1000
0001
0010
0001
1000
0010
0100
0010
1000
0010
0100
0001
1000
,
0200
0300
0000
0000
1000
0000
0000
0000
0001
0000
0000
0000
0200
0300
0000
0000
0001
0000
0000
0000
1000
0000
0000
0000
0010
0000
0000
0000
1000
0000
0000
0000
0001
0000
0000
0000
0010
0000
0000
0000
0100
0000
0000
0000
0010
0000
0000
0000
0001
0000
0000
0000
0010
0000
0000
0000
0100
0000
0000
0000
1000
0000
0000
0000
,
0001
0100
0010
1000
0010
0100
0001
1000
0100
0010
0100
1000
0100
0010
0001
1000
,
0020
0030
0000
0000
1000
0000
0000
0000
0001
0000
0000
0000
0020
0030
0000
0000
0001
0000
0000
0000
1000
0000
0000
0000
0100
0000
0000
0000
1000
0000
0000
0000
0001
0000
0000
0000
0100
0000
0000
0000
0010
0000
0000
0000
0100
0000
0000
0000
0001
0000
0000
0000
0100
0000
0000
0000
0010
0000
0000
0000
1000
0000
0000
0000
,
0002
0003
0010
0100
1000
0010
2000
3000
0001
0010
0100
0010
0001
0010
0100
1000
,
0001
0100
0001
1000
0100
1000
0001
1000
0010
0100
0010
1000
0010
0100
0001
1000
,
0100
0010
0001
1000
0001
0100
0010
1000
0001
0100
0010
0100
0001
0100
0010
1000
,
0001
0010
0001
1000
0010
1000
0001
1000
0100
0010
0100
1000
0100
0010
0001
1000
,
0010
1000
0001
0010
0001
0100
0010
1000
0001
0010
0100
0010
0001
0010
0100
1000
,
0001
0100
0001
1000
0100
1000
0001
0100
0010
1000
0010
0100
0010
1000
0001
0010
,
0100
0000
0000
0000
1000
0000
0001
0000
0010
0100
0010
0001
0010
0100
1000
0001
,
0100
0000
0000
0000
0001
0000
1000
0000
0100
1000
0100
0010
0100
1000
0001
0100
,
0010
0000
0000
0000
1000
0000
0001
0000
0100
0010
0100
0001
0100
0010
1000
0001
,
0010
0000
0000
0000
0001
0000
1000
0000
0100
0010
0001
0010
0100
0010
0001
1000
,
0010
0000
0000
0000
1000
0000
0001
0000
0100
0010
1000
0010
0100
0010
1000
0001
,
0010
0000
0000
0000
0001
0000
1000
0000
0010
0100
0001
0100
0010
0100
0001
1000
,
0100
0000
0000
0000
1000
0000
0001
0000
0010
0100
1000
0100
0010
0100
1000
0001
,
0100
0000
0000
0000
0010
0000
1000
0000
0001
0010
0001
1000
0001
0010
0100
1000
,
0001
0000
0000
0000
0010
0000
0001
0000
1000
0010
1000
0001
1000
0010
0100
0001
,
1000
0000
0100
1000
0001
0010
0001
0010
,
0100
0000
0010
0001
1000
0010
1000
0010
,
0100
0000
0010
1000
0001
0100
0001
0100
,
0010
0000
0100
0001
1000
0100
1000
0100
,
0010
0000
0000
0001
0100
0010
1000
0000
0000
0001
0000
0000
,
0010
0000
0100
0000
1000
0001
0100
0000
0000
0000
0000
0000
,
1001
0000
0000
0000
,
0001
0010
0100
1000
,
0001
0100
0010
1000
,
0100
0010
0001
1000
,
0010
0100
0001
0000
1000
0100
0010
0000
,
0001
0000
1000
0010
0100
0010
1000
0000
,
0001
0000
0010
0100
1000
0000
0001
0100
,
0020
0000
0000
0030
2000
0000
0000
3000
0002
0000
0000
0000
0010
0000
0000
0000
,
0013
0100
1000
0000
0001
0100
0010
0000
,
1000
0000
0001
0010
0100
0010
0001
0000
,
1000
0000
0010
0100
0001
0000
1000
0100
,
0020
0000
0000
0030
0002
0000
0000
0003
2000
0000
0000
3000
0020
0000
0000
0030
,
0100
0001
0100
0010
0100
0001
1000
0000
,
0100
0010
0001
0010
0100
0010
0001
1000
,
0010
0100
0010
1000
0010
0100
0001
0000
,
1000
0000
0100
0000
0010
0000
0100
0000
1000
0000
0100
0000
0010
0001
1000
0010
,
0100
0001
1000
0001
0010
0001
1000
0001
,
0010
0100
1000
0010
1000
0001
1000
0100
,
0010
0001
0100
0001
1000
0001
0010
0001
,
1000
0000
0010
0000
1000
0000
0001
0000
1000
0000
0100
0000
0010
0001
1000
0010
,
0100
0001
1000
0001
0010
0100
1000
0001
0100
0010
1000
0001
1000
0100
0010
0001
,
1000
0100
1000
0001
0100
0001
1000
0100
0010
0001
1000
0001
0100
0010
1000
0001
,
1000
0000
0000
0100
0000
0000
0010
0000
0000
0001
0000
0000
1000
0000
0000
0010
0000
0000
1000
0000
0000
0001
0000
0000
0010
0000
0000
0000
0100
0000
0000
0000
1000
0000
0000
0000
0010
0000
0000
0000
0100
0000
0000
0000
0001
0000
0000
0000
,
0010
0000
0000
0100
0000
0000
1000
0000
0000
0010
0000
0000
0100
0000
0000
0001
0000
0000
0010
0000
0000
0100
0000
0000
2000
3000
0000
0000
0002
0003
0000
0000
2000
3000
0000
0000
0002
0003
0000
0000
2000
3000
0000
0000
0002
0003
0000
0000
,
0100
0010
1000
0001
0010
0100
1000
0001
0100
0010
0100
0001
,
1000
0100
0010
0001
0100
0010
1000
0001
0010
0100
0010
0001
,
0100
0010
1000
0100
0010
0001
1000
0010
0100
0001
1000
0001
,
0010
0100
1000
0010
0100
0001
1000
0100
1000
0001
0100
0001
,
0010
0100
1000
0010
0100
0001
1000
0100
0010
0001
1000
0010
,
0100
0010
1000
0100
0010
0001
1000
0010
0100
0001
1000
0100
,
0010
0100
1000
0001
0100
0010
1000
0001
1000
0100
0010
0001
,
1000
0010
1000
0100
1000
0001
0200
0300
0010
1000
0001
1000
,
0001
0010
0100
1000
0010
0100
0001
1000
0100
0010
0100
1000
,
0001
0100
0010
1000
0100
0010
0001
1000
0010
0100
0010
1000
,
0100
0010
0001
0100
0010
1000
0001
0010
0100
1000
0001
1000
,
0010
0100
0001
0010
0100
1000
0001
0100
0001
1000
0100
1000
,
0010
0100
0001
0010
0100
1000
0001
0100
0001
1000
0001
0010
,
0100
0010
0001
0100
0010
1000
0001
0010
0100
1000
0001
0100
,
0010
0100
0001
1000
0100
0010
0001
1000
0001
0100
0010
1000
,
0002
0003
0000
0000
0020
0030
0000
0000
0002
0003
0000
0000
2000
3000
0000
0000
0020
0030
0000
0000
2000
3000
0000
0000
0200
0300
0000
0000
0020
0030
0000
0000
0002
0003
0000
0000
2000
0000
0000
0000
3000
0000
0000
0000
0010
0000
0000
0000
,
0100
0010
1000
0001
0010
0100
1000
0010
1000
0001
1000
0100
,
0010
0001
1000
0001
0100
0010
1000
0001
1000
0100
0010
0001
,
0100
0001
1000
0001
0010
0100
1000
0010
0100
0001
0010
0100
,
1000
0001
1000
0010
0100
0001
0010
0001
0100
0010
1000
0010
,
0100
0001
1000
0100
0010
0001
0100
0010
1000
0001
0010
0001
,
1000
0100
1000
0010
0100
0010
1000
0100
1000
0001
0100
0001
,
0010
0100
1000
0010
0100
0001
0010
0100
1000
0001
0100
0001
,
1000
0100
1000
0010
0100
0001
0010
0001
1000
0100
0010
0001
,
0100
0010
1000
0100
1000
0001
1000
0010
0100
0001
0010
0001
,
0100
0010
0100
0001
0010
0001
1000
0010
1000
0100
0010
0001
,
1000
0100
1000
0100
0010
0001
0100
0001
0100
0010
1000
0100
,
0010
0001
1000
0010
0100
0001
0020
0030
0100
1000
0001
0100
,
0020
0000
0000
0030
0000
0000
0100
0000
0001
0000
1000
0000
0100
0000
0010
0000
0001
0000
1000
0000
0100
0000
1000
0000
,
0001
0100
0001
0010
0100
1000
0010
0100
0001
0100
0010
1000
,
0001
0010
0100
1000
0010
0100
0001
0010
0001
0100
0010
1000
,
0001
0000
0000
0000
0010
0000
0000
0000
0100
0000
0000
0000
1000
0000
0000
0000
0010
0000
0000
0000
0100
0000
0000
0000
0002
0003
0000
0000
2000
3000
0000
0000
0002
0003
0000
0000
2000
3000
0000
0000
0100
0000
0000
0000
0010
0000
0000
0000
,
0001
1000
0010
0100
0010
1000
0001
0010
0100
1000
0001
0100
,
0001
1000
0100
1000
0001
0100
0010
1000
0001
0010
0001
1000
,
0010
0100
0001
0010
0100
1000
0010
0100
0001
0010
0100
1000
,
0001
0100
0001
1000
0001
0010
0001
1000
0001
0100
0001
1000
,
0100
1000
0001
1000
0010
1000
0001
1000
0100
1000
0010
0100
,
0001
0010
0001
1000
0001
0100
0010
1000
0001
1000
0100
1000
,
0001
0100
0010
1000
0010
0100
0001
0010
0100
1000
0001
0100
,
0010
0000
0000
0000
0100
0001
0100
0001
1000
0100
0010
0001
1000
0100
1000
0100
,
0010
0001
1000
0010
0100
0010
1000
0001
0100
0010
1000
0001
0010
0001
1000
0010
,
0100
0001
1000
0100
0010
0100
1000
0001
0010
0100
1000
0001
0100
0010
0100
0001
,
1000
0100
0010
0001
1000
0010
1000
0001
0100
0010
1000
0001
0010
0001
1000
0100
,
0010
0001
1000
0010
1000
0001
1000
0100
0010
0001
1000
0001
0100
0010
0100
0010
,
1000
0001
1000
0100
1000
0001
0010
0001
1000
0010
0100
0010
1000
0001
0010
0001
,
1000
0001
0100
0010
0100
0001
1000
0100
1000
0001
1000
0010
0100
0001
1000
0001
,
0010
0001
1000
0010
1000
0001
0010
0001
0100
0010
1000
0001
1000
0100
0010
0001
,
1000
0000
0000
0000
0001
0000
0100
0010
1000
0010
1000
0001
0010
0001
1000
0001
,
0100
0010
1000
0010
0100
0010
1000
0001
0010
0100
1000
0001
0010
0001
1000
0001
,
0100
0010
0100
0001
1000
0100
0010
0001
1000
0010
1000
0100
0010
0001
0100
0001
,
1000
0100
1000
0001
0100
0010
1000
0010
0100
0001
1000
0100
0010
0100
1000
0001
,
0100
0001
0010
0001
1000
0100
0010
0001
1000
0100
1000
0010
1000
0001
0010
0001
,
1000
0010
1000
0001
0100
0001
0010
0001
1000
0100
1000
0001
0010
0001
0100
0001
,
1000
0100
0010
0001
1000
0010
0100
0001
1000
0100
1000
0010
0100
0001
0010
0001
,
1000
0100
1000
0001
0010
0001
0100
0001
1000
0010
1000
0001
0100
0001
0010
0001
,
2000
3000
0000
0000
0010
0000
0000
0000
2000
3000
0000
0000
0001
0000
0000
0000
2000
3000
0000
0000
0100
0000
0000
0000
2000
3000
0000
0000
0001
0000
0000
0000
0100
0000
0000
0000
0010
0000
0000
0000
0100
0000
0000
0000
0001
0000
0000
0000
1000
0000
0000
0000
0100
0000
0000
0000
1000
0000
0000
0000
0100
0000
0000
0000
,
0010
0001
0010
0100
0010
0001
1000
0010
0100
0001
1000
0010
1000
0001
1000
0100
,
0010
0100
1000
0001
0100
0010
1000
0001
0010
0001
0100
0010
1000
0100
1000
0001
,
0100
0001
1000
0100
0010
0001
0010
0100
1000
0001
0100
0010
0100
0001
1000
0100
,
1000
0010
1000
0001
0100
0010
1000
0001
0100
0001
0010
0001
1000
0100
0010
0001
,
0100
0001
1000
0100
1000
0010
1000
0001
0010
0001
1000
0010
1000
0100
1000
0001
,
0100
0010
1000
0001
0010
0100
1000
0001
0100
0001
0010
0100
1000
0010
1000
0001
,
0010
0001
1000
0010
1000
0100
1000
0001
0100
0001
1000
0100
1000
0010
1000
0001
,
0010
0001
1000
0001
0100
0010
0100
0001
0010
0001
1000
0001
0100
0010
1000
0001
,
0010
0100
1000
0100
0010
0100
1000
0001
0100
0010
1000
0001
0100
0001
1000
0001
,
0010
0100
0010
0001
1000
0010
0100
0010
1000
0100
1000
0010
0100
0001
0010
0001
,
1000
0010
1000
0001
0010
0100
1000
0100
0010
0001
1000
0010
0100
0010
1000
0001
,
0010
0001
0100
0001
1000
0100
1000
0001
0100
0001
0010
0100
1000
0010
1000
0001
,
0010
0001
1000
0010
1000
0001
0010
0001
0100
0001
1000
0010
1000
0100
1000
0001
,
0100
0010
1000
0001
1000
0100
0010
0001
1000
0010
1000
0100
0010
0001
0100
0001
,
1000
0100
1000
0010
1000
0001
0100
0001
0010
0001
1000
0100
0010
0001
1000
0010
,
0100
0000
0000
0000
0000
0000
0001
0000
0000
0000
0000
0000
1000
0000
0000
0000
0000
0000
0100
0000
0000
0000
0000
0000
0040
0000
0000
0030
0000
0000
0000
0000
,
0200
0000
0300
2000
0000
3000
0002
0000
0003
0200
0000
0300
0010
0000
0000
0000
,
M000
0000
0000
000M
0000
0000
M000
0000
0000
000M
0000
0000
0000
0000
0000
0000
,
1000
0100
0010
0001
,
1000
0010
0100
0001
,
0010
0100
1000
0001
,
0100
0010
1000
0100
,
0010
0000
0001
0000
1000
0000
0010
0000
0100
0000
0001
0000
1000
0100
1000
0100
,
0010
0001
1000
0001
0100
0001
0100
0010
1000
0100
1000
0010
0100
0001
0010
0001
,
1000
0010
0100
0001
1000
0100
0010
0001
1000
0010
1000
0001
1000
0100
0010
0001
,
1000
0001
0100
0001
1000
0100
1000
0001
0100
0001
1000
0001
0010
0100
1000
0001
,
0100
0010
1000
0010
0100
0001
1000
0100
0010
0001
1000
0001
0100
0010
1000
0001
,
1000
0100
1000
0001
0100
0001
0010
0001
1000
0010
1000
0001
1000
0100
0010
0001
,
0100
0001
1000
0010
1000
0001
0010
0001
0100
0010
1000
0001
0010
0100
1000
0001
,
0100
0001
0010
0001
1000
0010
1000
0001
0010
0001
0100
0001
1000
0100
1000
0010
,
1000
0001
0100
0010
1000
0001
0010
0100
,
0010
0001
1000
0010
0100
0001
1000
0100
0010
0001
1000
0001
0100
0001
1000
0100
,
1000
0001
0100
0001
1000
0100
1000
0001
0100
0010
1000
0001
0010
0100
1000
0001
,
0100
0010
0100
0001
1000
0100
0010
0001
1000
0100
0010
0100
1000
0001
0100
0010
,
1000
0001
1000
0100
1000
0010
0100
0001
0100
0010
1000
0001
1000
0100
1000
0001
,
0100
0010
1000
0001
0010
0100
1000
0001
0010
0100
0010
0001
1000
0010
0100
0010
,
1000
0100
0010
0001
1000
0010
0100
0001
1000
0001
0010
0001
1000
0010
1000
0001
,
0010
0100
1000
0001
0100
0010
1000
0010
0100
0001
1000
0100
0010
0100
1000
0001
,
0100
0001
1000
0100
1000
0001
0100
0010
1000
0010
0100
0001
1000
0100
0010
0001
,
1000
0100
1000
0001
0100
0001
1000
0100
0010
0001
0010
0001
1000
0001
0100
0010
,
0100
0001
1000
0100
1000
0001
0100
0001
1000
0100
1000
0001
1000
0010
0100
0001
,
1000
0010
1000
0001
0010
0001
1000
0100
1000
0001
0100
0001
1000
0100
0010
0001
,
0100
0001
1000
0100
1000
0010
0100
0001
0100
0010
1000
0001
1000
0100
0010
0001
,
1000
0100
1000
0001
0100
0001
1000
0010
1000
0001
0010
0001
1000
0010
0100
0001
,
0010
0001
1000
0010
1000
0100
1000
0001
0100
0001
1000
0001
0010
0100
1000
0001
,
1000
0010
1000
0001
0010
0001
0100
0001
1000
0100
1000
0001
0100
0010
1000
0001
,
0100
0001
1000
0100
1000
0010
0100
0001
0100
0010
1000
0001
0010
0100
1000
0001
,
1000
0100
1000
0001
0100
0001
0010
0001
1000
0010
1000
0001
0100
0010
1000
0001
,
0010
0001
1000
0010
1000
0001
0010
0001
1000
0010
1000
0001
1000
0100
0010
0001
,
1000
0010
1000
0001
0010
0001
1000
0100
1000
0001
0100
0001
1000
0010
0100
0001
,
1000
0010
1000
0001
0010
0001
0100
0010
1000
0010
0100
0001
1000
0100
0010
0001
,
1000
0100
1000
0001
0100
0001
1000
0010
1000
0001
0010
0001
1000
0010
0100
0001
,
0010
0001
1000
0010
1000
0100
1000
0001
0100
0001
1000
0001
0010
0100
1000
0001
,
1000
0010
1000
0001
0010
0001
0100
0001
1000
0100
1000
0001
0100
0010
1000
0001
,
0010
0001
1000
0001
0100
0010
1000
0010
0100
0001
1000
0001
0010
0100
1000
0100
,
0010
0001
0010
0001
1000
0001
0100
0010
1000
0010
1000
0001
1000
0100
0010
0001
,
1000
0100
1000
0001
0010
0001
1000
0010
0100
0010
1000
0001
0100
0001
1000
0100
,
1000
0001
0100
0010
1000
0001
0010
0001
1000
0010
1000
0100
0010
0001
0100
0001
,
1000
0100
1000
0001
0010
0100
1000
0100
0010
0001
1000
0010
0100
0010
1000
0001
,
0010
0100
1000
0001
0100
0010
1000
0001
0010
0001
0100
0010
1000
0100
1000
0001
,
0100
0001
1000
0100
0010
0001
1000
0001
0100
0010
0100
0001
1000
0010
1000
0100
,
0010
0001
1000
0010
0100
0001
0010
0001
1000
0100
1000
0010
0100
0001
0010
0001
,
1000
0010
1000
0001
1000
0100
0010
0001
0010
0100
1000
0001
1000
0010
0100
0001
,
0010
0001
1000
0010
1000
0001
0010
0001
0100
0001
0010
0100
1000
0010
1000
0001
,
0010
0001
1000
0010
0100
0001
1000
0100
1000
0001
1000
0010
0100
0001
1000
0001
,
0010
0001
1000
0100
1000
0001
0100
0001
1000
0010
1000
0100
0010
0001
0100
0001
,
1000
0100
1000
0001
0010
0001
1000
0001
0100
0010
0100
0001
0010
0001
1000
0010
,
1000
0001
1000
0100
0010
0100
1000
0001
0010
0001
0100
0010
1000
0100
1000
0001
,
0010
0001
1000
0010
0100
0010
1000
0001
0010
0001
1000
0100
0010
0001
1000
0010
,
0100
0001
1000
0100
0010
0001
0100
0001
1000
0010
1000
0100
0010
0001
0100
0001
,
1000
0100
1000
0001
1000
0010
0100
0001
0100
0010
1000
0001
1000
0100
0010
0001
,
0100
0001
1000
0100
1000
0001
0100
0001
0010
0001
0100
0010
1000
0100
1000
0001
,
0100
0010
1000
0100
0010
0001
0100
0010
1000
0001
0010
0100
1000
0010
0100
0001
,
0010
0100
1000
0010
1000
0001
0010
0001
1000
0100
1000
0010
0100
0001
0010
0001
,
1000
0010
1000
0001
0010
0100
1000
0100
0010
0001
1000
0010
0100
0001
1000
0100
,
1000
0001
1000
0010
0100
0010
1000
0001
0100
0001
0010
0100
1000
0010
1000
0001
,
0010
0001
1000
0001
0100
0010
1000
0001
0010
0100
0010
0001
1000
0010
1000
0001
,
0100
0010
1000
0001
0010
0100
1000
0001
0100
0001
0010
0100
1000
0010
1000
0001
,
0010
0100
1000
0001
0100
0010
1000
0010
0100
0001
1000
0100
1000
0001
0010
0100
,
1000
0010
1000
0001
0010
0001
1000
0010
1000
0100
1000
0010
0100
0001
0010
0001
,
1000
0010
1000
0001
0010
0100
1000
0001
0100
0001
1000
0001
0010
0100
1000
0001
,
0100
0001
1000
0100
1000
0010
1000
0001
0010
0001
0100
0010
1000
0100
1000
0001
,
0010
0100
0010
0001
1000
0010
0100
0001
0100
0010
1000
0001
0010
0100
1000
0001
,
0100
0001
1000
0100
1000
0001
0010
0001
1000
0010
1000
0100
0010
0001
0100
0001
,
1000
0010
1000
0001
0010
0100
1000
0001
1000
0010
1000
0001
0010
0001
1000
0010
,
0100
0001
1000
0100
0010
0100
1000
0001
0100
0001
0010
0100
1000
0010
1000
0001
,
0100
0010
1000
0001
0010
0100
1000
0100
0010
0001
1000
0100
1000
0001
0100
0010
,
1000
0100
1000
0001
0100
0001
1000
0100
1000
0010
1000
0100
0010
0001
0100
0001
,
1000
0010
0100
0001
1000
0100
0010
0001
1000
0010
0100
0001
1000
0100
1000
0001
,
0100
0010
1000
0001
0010
0100
1000
0001
0100
0001
0010
0100
1000
0010
1000
0001
,
1000
0100
0010
0001
1000
0010
0100
0001
1000
0100
0010
0001
1000
0010
1000
0001
,
0010
0100
1000
0001
1000
0010
0100
0001
1000
0100
1000
0010
0100
0001
0010
0001
,
1000
0010
1000
0001
0010
0100
1000
0001
0100
0001
1000
0100
0010
0001
1000
0010
,
0100
0001
1000
0100
0010
0001
1000
0010
1000
0001
0010
0001
0100
0010
1000
0100
,
1000
0001
0100
0001
1000
0100
0010
0001
1000
0001
0100
0001
1000
0100
0010
0001
,
1000
0010
1000
0001
0010
0001
1000
0100
1000
0001
0100
0001
1000
0010
1000
0001
,
0010
0001
1000
0001
0100
0010
1000
0001
1000
0100
1000
0001
0010
0001
1000
0010
,
1000
0001
1000
0100
0010
0001
0100
0001
1000
0001
0010
0100
1000
0000
0000
0000
,
0001
0100
0010
1000
,
0100
0010
0002
0003
,
0M00
0000
0000
0000
,
0M00
0000
0000
0000
;
