#TITLE:Heaven's Gate;
#SUBTITLE:;
#ARTIST:TOMOYUKI;
#TITLETRANSLIT:;
#SUBTITLETRANSLIT:;
#ARTISTTRANSLIT:Tachibana Tomoyuki;
#GENRE:;
#CREDIT:;
#BANNER:Heavens_Gate-bn.png;
#BACKGROUND:Heavens_Gate-bg.png;
#LYRICSPATH:Heaven's Gate.lrc;
#CDTITLE:NAOKI_cdtitle.png;
#MUSIC:Heaven's Gate.ogg;
#OFFSET:-0.055;
#SAMPLESTART:65.013;
#SAMPLELENGTH:12.000;
#SELECTABLE:YES;
#DISPLAYBPM:180.000;
#BPMS:0.000=180.000;
#STOPS:;
#BGCHANGES:;
#KEYSOUNDS:;

//---------------dance-single - ----------------
#NOTES:
     dance-single:
     NAOKI:
     Beginner:
     2:
     0.184,0.149,0.000,0.074,0.000:
0000
0000
0000
0000
,
0010
0000
0010
0000
,
1000
0000
1000
0000
,
0001
0000
0001
0000
,
0010
0000
0010
0000
,
0100
0000
0100
0000
,
1000
0000
1000
0000
,
0001
0000
0001
0000
,
0100
0000
0010
0000
,
0100
0000
0100
0000
,
0001
0000
0001
0000
,
1000
0000
1000
0000
,
0100
0000
0100
0000
,
0010
0000
0010
0000
,
0001
0000
0001
0000
,
1000
0000
1000
0000
,
0010
0000
0010
0000
,
0100
0000
0000
0000
,
0001
0000
0000
0000
,
0010
0000
0000
0000
,
0100
0000
0000
0000
,
1000
0000
0000
0000
,
0010
0000
0000
0000
,
0100
0000
0000
0000
,
0001
0000
1000
0000
,
0100
0000
0000
0000
,
1000
0000
0000
0000
,
0010
0000
0000
0000
,
0100
0000
0000
0000
,
0001
0000
0000
0000
,
0010
0000
0000
0000
,
0100
0000
0000
0000
,
1000
0000
0001
0000
,
0020
0000
0030
0000
,
0002
0000
0003
0000
,
2000
0000
3000
0000
,
0020
0000
0030
0000
,
0200
0000
0300
0000
,
0002
0000
0003
0000
,
2000
0000
3000
0000
,
0200
0000
0300
0000
,
0010
0000
0000
0000
,
0001
0000
0000
0000
,
0100
0000
0000
0000
,
0010
0000
0000
0000
,
1000
0000
0000
0000
,
0100
0000
0000
0000
,
0010
0000
0000
0000
,
0001
0000
1000
0000
,
0010
0000
0010
0000
,
1000
0000
1000
0000
,
0001
0000
0001
0000
,
0010
0000
0010
0000
,
0100
0000
0100
0000
,
1000
0000
1000
0000
,
0001
0000
0001
0000
,
0100
0000
0010
0000
,
0100
0000
0100
0000
,
0001
0000
0001
0000
,
1000
0000
1000
0000
,
0100
0000
0100
0000
,
0010
0000
0010
0000
,
0001
0000
0001
0000
,
1000
0000
1000
0000
,
0010
0000
0100
0000
,
0010
0000
0010
0000
,
1000
0000
0100
0000
,
0010
0000
0010
0000
,
0001
0000
1000
0000
,
0100
0000
0100
0000
,
1000
0000
0010
0000
,
0100
0000
0100
0000
,
0001
0000
0001
0000
,
0010
0000
0010
0000
,
0001
0000
0100
0000
,
0010
0000
0010
0000
,
1000
0000
0001
0000
,
0100
0000
0100
0000
,
0001
0000
0010
0000
,
0100
0000
0100
0000
,
1000
0000
0001
0000
,
0100
0000
0000
0000
;

//---------------dance-single - Copied from----------------
#NOTES:
     dance-single:
     NAOKI:
     Easy:
     6:
     0.329,0.300,0.018,0.092,0.000:
0000
0000
0000
0000
,
0010
0010
1000
0100
,
0010
0010
0001
0100
,
0010
1000
0100
0010
,
0001
1000
0001
0000
,
0100
0100
0001
0010
,
0100
0100
1000
0010
,
0100
0001
0010
0100
,
1000
0001
1000
0000
,
0100
0100
1000
0010
,
0100
0100
0001
0010
,
0100
1000
0010
0100
,
0001
1000
0001
0000
,
0010
0010
0001
0100
,
0010
0010
1000
0100
,
0010
0001
0100
0010
,
1000
0001
1000
0000
,
0010
0000
0100
0000
,
0001
0000
1000
0000
,
0100
0000
0010
0000
,
0001
1000
0001
0000
,
0100
0000
0010
0000
,
1000
0000
0001
0000
,
0010
0000
0100
0000
,
1000
0001
1000
0000
,
0100
0000
0010
0000
,
0001
0000
1000
0000
,
0010
0000
0100
0000
,
0001
1000
0001
0000
,
0010
0000
0100
0000
,
1000
0000
0001
0000
,
0100
0000
0010
0000
,
1000
0001
1000
0000
,
0020
0000
0030
0000
,
0200
0000
0300
0000
,
0002
0000
0003
0000
,
2000
0000
3000
0000
,
0200
0000
0300
0000
,
0020
0000
0030
0000
,
0002
0000
0003
0000
,
0200
0000
0300
0000
,
0010
0000
0000
0000
,
1000
0000
0000
0000
,
0001
0000
0000
0000
,
0010
0000
0010
0000
,
0100
0000
0000
0000
,
1000
0000
0000
0000
,
0001
0000
0000
0000
,
0100
0000
0100
0000
,
0010
0010
1000
0100
,
0010
0010
0001
0100
,
0010
1000
0100
0010
,
0001
1000
0001
0000
,
0100
0100
0001
0010
,
0100
0100
1000
0010
,
0100
0001
0010
0100
,
1000
0001
1000
0000
,
0100
0100
1000
0010
,
0100
0100
0001
0010
,
0100
1000
0010
0100
,
0001
1000
0001
0000
,
0010
0010
0001
0100
,
0010
0010
1000
0100
,
0010
0001
0100
0010
,
1000
0001
1000
0000
,
0010
0010
0100
0001
,
1000
1000
0100
0010
,
0001
0001
1000
0010
,
0100
0001
0010
0010
,
0100
0100
0010
0001
,
1000
1000
0010
0100
,
0001
0001
1000
0100
,
0010
0001
1000
0001
,
0100
0100
0010
1000
,
0001
0001
0010
0100
,
1000
1000
0001
0100
,
0010
1000
0100
0100
,
0010
0010
0100
1000
,
0001
0001
0100
0010
,
1000
0001
1000
0100
,
0110
0000
0010
0100
,
2002
0000
0000
3003
0000
0000
0000
0000
;

//---------------dance-single - ----------------
#NOTES:
     dance-single:
     NAOKI:
     Medium:
     11:
     0.540,0.600,0.276,0.276,0.000:
0000
0000
0000
0000
,
0010
0010
1000
0100
,
0010
0000
0010
0000
0001
0000
0100
0010
,
0100
0000
0001
0000
0010
0000
0100
1000
,
0000
0010
0000
0100
0000
0001
0000
0010
,
0100
0100
1000
0010
,
0100
0000
0100
0000
0001
0000
0010
0100
,
0010
0000
0001
0000
0100
0000
0010
1000
,
0000
0100
0000
0010
0000
0001
1000
0010
,
0100
0100
0001
0010
,
0100
0000
0100
0000
1000
0000
0010
0100
,
0010
0000
1000
0000
0100
0000
0010
0001
,
0000
0100
0000
0010
0000
1000
0000
0100
,
0010
0010
0001
0100
,
0010
0000
0010
0000
1000
0000
0100
0010
,
0100
0000
1000
0000
0010
0000
0100
0001
,
0000
0010
0000
0100
0000
1000
0000
0010
,
0100
0100
0001
0001
,
0010
0010
1000
1000
,
0001
0001
0100
0100
,
1000
0010
0100
0001
,
0010
0010
0001
0001
,
0100
0100
1000
1000
,
0001
0001
0010
0010
,
2000
3100
0002
0103
,
0010
0010
1000
1000
,
0100
0100
0001
0001
,
1000
1000
0010
0010
,
0001
0100
0010
1000
,
0100
0100
1000
1000
,
0010
0010
0001
0001
,
1000
1000
0100
0100
,
0002
0013
2000
3010
,
0200
0000
0301
0000
,
0002
0000
0013
0000
,
0020
0000
1030
0000
,
2000
0000
3100
0000
,
0020
0000
1030
0000
,
2000
0000
3100
0000
,
0200
0000
0301
0000
,
0002
0000
0013
0000
,
0010
0100
0000
0100
0000
1000
0000
1000
,
0000
0001
0000
0001
0000
0100
0000
0100
,
0000
0010
0000
0010
0000
1000
0000
1000
,
0000
0001
0000
0001
0000
0010
0000
0100
,
0000
1000
0000
1000
0000
0010
0000
0100
,
0000
0001
0000
0001
0000
0100
0000
0010
,
0000
1000
0000
1000
0000
0100
0000
0010
,
0000
0001
0000
0100
0001
1000
0100
0000
,
1001
0000
0100
0001
0000
0012
0000
0103
,
0000
1200
0000
0301
0000
0100
0010
1000
,
0100
0000
0100
0010
0000
0010
0001
1000
,
0000
2010
0000
3100
0000
0201
0000
1300
,
0010
0000
0010
1000
0000
2100
0000
3010
,
0000
0021
0000
1030
0000
0010
0100
0001
,
0010
0000
0010
0100
0000
0100
1000
0001
,
0000
0102
0000
0013
0000
1020
0000
0031
,
0100
0000
0100
0001
0000
0012
0000
0103
,
0000
1020
0000
0031
0000
0010
1000
0001
,
0100
0000
0100
0010
0000
0010
1000
0100
,
0000
2100
0000
3010
0000
0201
0000
1300
,
0100
0001
0010
0100
0000
2010
0000
3100
,
0000
0021
0000
1030
0000
0010
0001
1000
,
0100
0000
0100
0010
0000
0010
0001
0100
,
0002
0013
2000
3010
,
0100
0000
0001
0010
0001
0000
1000
0000
,
0010
0100
0011
1010
,
0100
0000
0001
0100
0000
0100
0010
1000
,
0000
1100
0000
0101
0001
0010
0100
1000
,
0010
0000
1000
0100
1000
0000
0001
0000
,
0100
0010
1100
0101
,
0010
0000
1000
0010
0000
0010
0100
0001
,
0000
0011
0000
1010
1000
0100
0010
0001
,
0010
0000
0001
0100
0001
0000
1000
0000
,
0100
0010
0101
1100
,
0010
0000
0001
0010
0000
0010
0100
1000
,
0000
1010
0000
0011
0001
0100
0010
1000
,
0100
0000
1000
0010
1000
0000
0001
0000
,
0010
0100
1010
0011
,
0100
0000
1000
0100
0000
0100
0010
0001
,
0100
0000
0010
0100
,
2002
0000
0000
3003
0000
0000
0000
0000
;

//---------------dance-single - ----------------
#NOTES:
     dance-single:
     NAOKI:
     Hard:
     14:
     0.809,0.825,0.313,0.387,0.041:
0000
0000
0000
0000
,
0010
1000
0001
0010
0100
1000
0001
0100
,
0010
1000
0100
0010
0001
1000
0010
0100
,
0001
0010
0100
0010
0001
0100
1000
0100
,
0001
0010
0100
1000
0001
0100
0010
0000
,
0100
0001
1000
0100
0010
0001
1000
0010
,
0100
0001
0010
0100
1000
0001
0100
0010
,
1000
0100
0010
0100
1000
0010
0001
0010
,
1000
0000
0100
0000
0010
0000
0001
0100
0010
0000
0000
0010
1000
0000
0100
0000
,
0010
0001
1000
0010
0100
0001
1000
0100
,
0010
0001
0100
0010
1000
0001
0010
0100
,
1000
0010
0100
0010
1000
0100
0001
0100
,
1000
0010
0100
0001
1000
0100
0010
0000
,
0100
1000
0001
0100
0010
1000
0001
0010
,
0100
1000
0010
0100
0001
1000
0100
0010
,
0001
0000
0100
0000
0010
0000
1000
0000
0001
0010
0000
0100
1000
0000
0001
0000
,
0100
0000
0000
0000
,
0010
1000
0001
0010
0100
1000
0001
0100
,
0010
1000
0100
0001
0100
1000
0010
0100
,
0001
0010
0100
1000
0001
0100
1000
0100
,
0001
1000
0100
0010
0001
1000
1010
0000
,
0011
0001
1000
0010
0100
0001
1000
0100
,
0010
0001
0100
1000
0100
0001
0010
0100
,
1000
0010
0100
0001
1000
0100
0001
0100
,
0020
0032
2003
3020
0230
0302
0013
0000
,
0100
1000
0010
1000
0100
0010
1000
0010
,
0100
1000
0010
0100
1000
0100
0010
1000
,
0001
0010
0100
0010
0001
1000
0010
0100
,
0001
0001
0010
0010
0100
0100
1000
0010
,
0100
0001
0010
0001
0100
0010
0001
0010
,
0100
0001
0010
0100
0001
0100
0010
0001
,
1000
0010
0000
0100
0000
0001
0010
0100
,
1000
1000
0010
0010
0100
0100
0001
0010
,
0022
0030
0010
1000
,
0200
0003
1000
0001
,
2000
0000
0300
0000
3100
0000
0010
0200
,
0000
0302
0000
0023
0000
0130
0000
1000
,
2020
0030
0010
0001
,
0200
3000
0001
1000
,
0002
0000
0300
0000
0103
0000
0010
0200
,
0000
2300
0000
3020
0000
0130
0000
0000
,
1001
0000
0000
0000
,
0010
0000
0000
0000
,
0100
0000
0000
0000
,
0001
0000
0000
0000
,
0010
0000
0100
0000
,
1000
0000
0001
0000
,
0100
0000
0010
0000
,
2000
0000
0002
3003
,
1000
0100
0010
0001
0100
1000
0100
0001
,
1000
0100
0001
0100
1000
0001
0100
0010
,
1001
0010
0100
1000
0001
0100
0010
2000
,
3100
0012
1003
2010
3001
1002
0013
0100
,
1000
0010
0100
0001
0010
1000
0010
0001
,
1000
0010
0001
0010
1000
0001
0010
0100
,
1001
0100
0010
1000
0001
0010
0100
2000
,
3010
0000
0102
0000
1003
0000
0100
0000
0110
0000
0000
1001
0000
0000
0010
0000
,
0110
0100
0010
1000
0100
0001
0100
1000
,
0001
0100
1000
0100
0001
1000
0100
0010
,
1001
0010
0100
0001
1000
0100
0010
0002
,
0103
2010
3001
0012
1003
2001
3010
0100
,
0001
0010
0100
1000
0010
0001
0010
1000
,
0001
0010
1000
0010
0001
1000
0010
0100
,
1001
0100
0010
0001
0100
0010
1001
0010
,
0200
2300
3002
0203
0320
2030
3100
0000
,
0011
0100
1000
0010
0001
0100
0001
0010
,
1000
0100
0010
0001
0101
1000
1100
0100
,
0010
0001
0100
1000
0010
1000
0100
0001
,
1000
0100
0010
0001
1000
0010
0100
0001
,
1010
0100
0001
0010
1000
0100
1000
0010
,
0001
0100
0010
1000
1100
0001
0101
0100
,
0010
1000
0100
0001
0010
0001
0100
1000
,
0001
0000
0010
0000
0100
0000
1000
0010
0100
0000
0000
0100
0001
0000
0010
0000
,
1100
0010
0001
0100
1000
0010
1000
0100
,
0001
0010
0100
1000
1010
0001
0011
0010
,
0100
1000
0001
0010
1000
0100
1000
0010
,
0001
1000
0100
0010
0001
0100
0010
1000
,
0101
0010
1000
0100
0001
0010
0001
0100
,
1000
0010
0100
0001
0011
1000
1010
0010
,
0100
0000
0001
0000
0010
0000
0100
0000
1000
0010
0000
0100
0001
0000
0010
0000
,
0220
0000
0330
0100
1000
0001
0100
0010
,
0220
0000
0000
0330
0000
0000
0000
0000
;

//---------------dance-single - Challenge----------------
#NOTES:
     dance-single:
     NAOKI:
     Challenge:
     17:
     1.000,1.000,0.322,0.765,0.815:
0000
0000
0000
0000
,
0010
0000
1000
0001
1000
0000
0100
0000
0010
0000
0002
0000
0103
0000
2000
0000
,
3100
0000
0010
0000
1000
0000
0001
0000
0010
0000
0100
1000
0001
0100
0010
1000
,
0100
0000
0010
0100
1000
0000
0001
0000
0100
0000
0010
0001
0010
0000
0100
0000
,
0002
0003
0010
0100
0002
0003
0100
0010
0002
0003
1000
0010
0100
0000
0001
0000
,
1000
0000
0100
0010
0001
0000
1000
0000
0010
0000
0200
0000
0301
0000
0020
0000
,
1030
0000
0010
0000
0001
0000
0100
0000
0010
0000
1000
0010
0100
0001
1000
0100
,
0010
0000
0001
0010
0100
0000
1000
0000
0001
0000
0100
0010
1000
0000
0100
0000
,
0020
0030
0001
1000
0020
0000
0030
0100
0020
0030
1000
0001
0020
0000
0130
0000
,
0010
0000
0001
1000
0001
0000
0100
0000
0010
0000
2000
0000
3100
0000
0002
0000
,
0103
0000
0010
0000
0001
0000
1000
0000
0010
0000
0100
0010
1000
0001
0010
0100
,
1000
0000
0010
0100
0001
0000
1000
0000
0100
0000
0010
1000
0010
0000
0100
0000
,
2000
3000
0010
0100
2000
3000
0100
0010
2000
3000
0001
0010
0100
0000
1000
0000
,
0001
0000
0100
0010
1000
0000
0001
0000
0010
0000
0200
0000
1300
0000
0020
0000
,
0031
0000
0010
0000
1000
0000
0100
0000
0010
0000
0001
0010
0100
1000
0001
0100
,
0010
0000
1000
0010
0100
0000
0001
0000
1000
0200
0000
0320
0001
0030
1000
0010
,
0200
0300
0000
0000
0000
0000
0000
0000
,
0010
0000
0100
0001
0100
0000
0010
0000
1000
0001
0010
0000
0100
0000
0001
1000
,
0010
0000
0100
0000
1000
0000
0001
0000
0100
0000
0010
0100
0001
1000
0100
0010
,
0001
0000
1000
0010
0100
0000
0001
0000
0010
0000
0100
0001
0100
0000
0010
0000
,
0001
0102
0013
0201
0310
0102
0013
0201
,
0310
0000
1000
0001
1000
0000
0100
0000
0010
0001
1000
0000
0010
0000
0100
1000
,
0001
0000
0010
0000
0100
0000
0001
0000
1000
0000
0100
0010
0100
1000
0001
0100
,
0010
0000
1000
0010
0100
0000
0001
0000
0010
0000
0100
0000
1001
0000
0100
0000
,
0020
0230
0302
0203
0320
0032
0023
0230
0302
2003
3200
0320
0031
0000
0000
0000
,
0010
0000
0100
1000
0100
0000
0010
0000
0001
1000
0010
0000
0100
0000
1000
0001
,
0010
0000
0100
0000
0001
0000
1000
0000
0100
0000
0010
0100
1000
0001
0100
0010
,
1000
0000
0001
0010
0100
0000
1000
0000
0001
0000
0100
1000
0100
0000
0010
0000
,
1000
2100
3010
1200
0310
2100
3010
1200
,
0310
0000
0001
1000
0001
0000
0100
0000
0010
1000
0001
0000
0010
0000
0100
0001
,
1000
0000
0010
0000
0100
0000
1000
0000
0001
0000
0100
0010
1000
0001
0010
0100
,
1000
0010
0000
0100
0000
0001
0010
0100
,
1000
0100
0010
0001
1000
0010
0100
1000
0100
0010
1000
0001
0100
0001
0010
0100
,
2000
0000
0000
0000
0020
0030
0002
0003
,
0200
3000
0000
0000
0010
0310
0001
0200
,
1000
0000
0010
0310
0000
0100
0001
2000
,
0000
3200
0000
0302
0000
0103
0000
0010
,
0002
0000
0000
0000
0020
0030
2000
3000
,
0200
0003
0000
0000
0010
0310
1000
0200
,
0001
0000
0010
0310
0000
0100
1000
0002
,
0000
0203
0000
2300
0000
3100
0000
0010
,
0110
0000
0000
0000
,
0100
0000
0000
0000
,
0001
0000
0000
0000
0000
0000
1000
0100
,
0000
0010
0000
0001
0000
1000
0000
0010
,
0200
0001
0000
0310
1000
0001
0000
0010
,
0200
1000
0000
0310
0001
1000
0000
0010
,
0100
1000
0100
0010
1000
0001
0010
0100
,
0001
0100
0010
0001
0100
0000
0220
0330
,
0010
0000
1000
0001
0010
0000
0100
0000
1000
0000
0010
0000
0001
0000
0010
0000
,
1000
0000
0001
0000
0010
0000
1000
0000
0010
0000
0001
1000
0010
0100
0010
1000
,
0001
0000
0010
0000
0100
0000
1000
0000
0010
0000
0100
0001
0100
0000
0010
0000
,
1010
1000
1100
1000
1010
1000
1100
0100
,
0010
0000
0001
1000
0001
0000
0100
0000
1000
0000
0100
0000
0010
0000
1000
0000
,
0001
0000
0010
0000
0100
0000
0001
0000
0100
0000
0010
0001
0010
0100
1000
0001
,
0100
0010
1000
0100
0010
0001
0100
2010
,
3100
0000
0012
0000
0103
0000
0010
0000
1010
0000
0000
0101
0000
0000
1100
0000
,
0010
0000
0001
1000
0010
0000
0100
0000
0001
0000
0010
0000
1000
0000
0010
0000
,
0001
0000
1000
0000
0010
0000
0001
0000
0010
0000
1000
0001
0010
0100
0010
0001
,
1000
0000
0010
0000
0100
0000
0001
0000
0010
0000
0100
1000
0100
0000
0010
0000
,
0011
0001
0101
0001
0011
0001
0101
0100
,
0010
0000
1000
0001
0010
0000
0100
0000
0001
0000
0100
0000
0010
0000
0001
0000
,
1000
0000
0010
0000
0100
0000
1000
0000
0100
0000
0010
0100
0001
0010
0100
1000
,
0010
0100
0001
1000
0100
0010
1001
0010
,
0200
0320
2030
3020
0230
2300
3200
0320
2030
3002
0023
0230
1300
0000
0000
0000
,
0100
0010
0001
1000
0010
0100
0010
1000
0001
1000
0100
0010
0100
1000
0001
0100
,
0010
1000
0001
1000
0010
0100
0001
0000
0101
0000
1000
0000
1100
0000
0100
0000
,
0010
0001
1000
0010
0100
0010
1000
0001
0010
0100
1000
0001
1000
0010
0100
0001
,
1000
0100
0001
0100
1000
0010
0100
0001
,
1000
0010
0100
0010
1000
0001
0010
0100
1000
0001
0100
0010
1000
0001
0010
0100
,
0010
0001
1000
0001
0100
0010
1000
0000
1010
0000
0001
0000
0011
0000
0010
0000
,
0100
1000
0100
0010
0001
1000
0100
0010
0100
1000
0001
1000
0001
0100
0010
0000
,
0200
0300
0001
1000
0200
0000
0300
0010
0200
0300
1000
0001
0200
0000
0310
0000
,
0100
0001
1000
0001
0100
0001
1000
0100
0010
0001
1000
0010
0100
0001
1000
0001
,
0100
0010
1000
0001
0010
0100
1000
0000
1100
0000
0001
0000
0101
0000
0100
0000
,
0010
1000
0001
0010
0100
0010
0100
1000
0100
0010
0001
1000
0010
0100
0001
0100
,
0010
0100
1000
0100
0001
0010
0100
1000
,
0001
0100
0010
0100
0001
1000
0100
0010
0100
1000
0001
0100
0010
1000
0001
1000
,
0010
0100
0001
1000
0100
0010
0001
0000
0011
0000
1000
0000
1010
0000
0010
0000
,
0100
0001
1000
0100
0010
0000
0001
0000
1000
0010
0000
0100
0001
0000
0010
0000
,
0220
0000
0330
0100
1000
0001
0100
0010
,
0220
0000
0000
0330
0000
0000
0000
0000
;
