#TITLE:春よ、来い;
#SUBTITLE:(Grimoire UK bootleg);
#ARTIST:Team Grimoire;
#TITLETRANSLIT:Haruyo Koi;
#SUBTITLETRANSLIT:;
#ARTISTTRANSLIT:;
#GENRE:;
#CREDIT:;
#MUSIC:HaruyoKoi(Grimoire UK bootleg).ogg;
#BANNER:HaruyoKoi-bn.png;
#BACKGROUND:HaruyoKoi-bg.png;
#CDTITLE:naokicdtitle.png;
#SAMPLESTART:157.526;
#SAMPLELENGTH:22.500;
#SELECTABLE:YES;
#OFFSET:-0.025;
#BPMS:0.000=176.000;
#STOPS:;
#BGCHANGES:;
#FGCHANGES:;

//--------------- dance-single - NAOKI (19*12/2/19*12/12 31) ----------------
#NOTES:
     dance-single:
     NAOKI (19*12/2/19*12/12 31):
     Challenge:
     15:
     0,0,0,0,0:
0000
0000
0000
0000
,
0000
0000
0000
0000
,
0000
0000
0000
0000
,
0000
0000
0000
0000
,
1000
0001
0100
0001
1000
0100
0010
0100
,
1000
1000
0001
0001
0100
0010
1000
0001
,
0010
0000
0100
0000
1000
0000
0001
0000
0100
0000
0010
0000
0100
0001
0000
1000
,
0100
0010
0100
1000
0001
0100
0010
1000
,
0001
0010
0100
1000
0001
0100
0010
0100
,
0001
0000
0001
0000
1000
0000
1000
0100
0010
0001
1000
0000
0010
0000
0100
0001
,
0000
1000
0100
0000
0010
0000
0001
0000
1000
0000
0010
0000
0100
0000
0100
0000
,
0010
1000
0000
0001
0010
0000
0100
0000
1000
0000
0001
0000
0100
0000
0010
0000
,
1000
0001
0010
0001
1000
0010
0100
0010
,
1000
1000
0001
0001
0010
0100
1000
0001
,
0100
0000
0010
0000
1000
0000
0001
0000
0010
0000
0100
0000
0010
0001
0000
1000
,
0010
0100
0010
1000
0001
0010
0100
1000
,
0001
0100
0010
1000
0001
0010
0100
0010
,
0001
0000
0001
0000
1000
0000
1000
0010
0100
0001
1000
0000
0100
0000
0010
0001
,
0000
1000
0010
0000
0100
0000
0001
0000
1000
0000
0100
0000
0010
0000
0010
0000
,
0100
1000
0000
0001
0100
0000
0010
0000
1000
0000
0001
0000
0010
0100
0010
0100
,
1000
0001
0100
0010
1000
0001
0010
0001
1000
0001
0100
0010
1000
0001
0010
0001
,
1000
0001
0100
0010
1000
0001
0010
0001
1000
0001
0100
0010
1000
0000
0000
0000
,
0001
1000
0100
0010
0001
1000
0010
1000
0001
1000
0100
0010
0001
1000
0010
1000
,
0001
1000
0100
0010
0001
1000
0010
1000
0001
1000
0100
0010
0001
0000
0000
0000
,
1000
0001
0010
0100
1000
0001
0100
0001
1000
0001
0010
0100
1000
0001
0100
0001
,
1000
0001
0010
0100
1000
0001
0100
0001
1000
0001
0010
0100
1000
0000
0000
0000
,
0001
1000
0010
0100
0001
1000
0100
1000
0001
1000
0010
0100
0001
1000
0100
1000
,
0001
1000
0010
0100
0001
1000
0100
1000
0001
0100
0010
0100
0001
1000
0001
1000
,
0010
0000
0100
0000
0010
0000
1000
0000
0010
0000
0100
0000
0010
0000
1000
0001
,
0010
0000
0100
0000
0010
0000
0001
0000
0010
0000
0100
0000
0010
0000
0001
1000
,
0010
0000
0100
0000
0001
0000
0100
0000
0010
0000
0100
0000
0001
0000
1000
0100
,
0010
0000
0100
0000
1000
0000
0100
0000
0010
0000
0100
0000
1000
0000
0001
0100
,
0010
0100
0001
0000
1000
0000
0100
0000
0010
0000
0001
0000
0100
0000
0010
1000
,
0001
0010
0100
0000
1000
0001
0100
0000
0010
1000
0001
0000
0010
0100
1000
0001
,
0400
0300
0000
0000
0010
0000
0000
0000
1000
0000
0000
0000
0001
0000
0000
0000
1000
0000
0000
0000
0100
0000
0000
0000
0010
0000
0000
0000
0000
0000
0000
0000
0001
0000
0000
0000
0000
0000
0000
0000
1000
0000
0000
0000
0000
0000
0000
0000
0001
0000
0000
0000
0000
0000
0000
0000
0100
0000
0000
0000
0000
0000
0000
0000
,
0020
0000
0130
0000
1001
0000
0001
0010
0000
0100
1000
0001
0100
0010
1000
0100
,
0020
0030
0002
0000
,
0203
0000
0000
0000
0310
1000
0001
0010
,
0200
0000
2300
3002
,
0203
0000
0310
0000
,
2000
0000
3002
0000
,
0023
0000
0000
0030
0100
1000
0001
0100
,
0020
0000
0000
0000
0230
0000
0301
1000
,
0200
0000
0310
0000
,
0001
1000
0010
1000
0001
0010
0100
1000
0001
0100
0001
0010
0001
1000
0010
1000
,
0001
0010
0001
0100
0001
1000
0100
1000
0001
0100
0010
1000
0001
0010
0100
1000
,
0001
0100
0001
0010
0001
1000
0010
0100
0010
1000
0001
0010
0100
0010
0001
1000
,
0010
1000
0100
1000
0001
0100
0001
1000
0100
1000
0001
0100
0010
1000
0001
0010
,
0001
0100
0001
1000
0100
0010
0001
0100
0010
1000
0001
1000
0100
1000
0001
0100
,
0001
0010
0001
1000
0010
0100
0010
1000
0001
0010
0100
1000
0001
0100
0001
1000
,
0100
1000
0010
1000
0001
0010
0100
1000
0001
0100
0001
1000
0100
1000
0001
0010
,
0001
0100
0001
1000
0010
1000
0100
1000
0001
0100
0010
0100
0001
1000
0001
1000
,
0100
0010
0001
0010
0100
1000
0001
0100
0010
0100
0001
1000
0100
1000
0001
0100
,
0010
1000
0010
0100
0001
1000
0100
0010
0100
1000
0001
0100
0010
0100
0001
1000
,
0100
1000
0010
1000
0001
0010
0100
0010
0001
1000
0010
1000
0100
1000
0001
0100
,
0001
0010
0100
1000
0100
0010
0001
1000
0100
1000
0010
1000
0001
0010
0001
1000
,
0010
0100
0001
0100
0010
1000
0001
0010
0100
0010
0001
1000
0010
1000
0001
0010
,
0100
1000
0100
0010
0001
1000
0010
0100
0010
1000
0001
0010
0100
0010
0001
1000
,
0010
1000
0100
1000
0001
0100
0010
0100
0001
1000
0100
1000
0010
1000
0001
0010
,
0001
0100
0010
1000
0010
0100
0001
1000
0001
0010
0100
0000
0010
0000
0001
0000
,
1000
0010
1000
0100
1000
0001
0100
0001
1000
0100
1000
0010
1000
0001
0010
0100
,
1000
0001
0100
0001
0010
0001
1000
0010
1000
0100
0010
0001
1000
0010
0100
0001
,
0010
0001
1000
0010
1000
0001
0010
0100
1000
0010
1000
0001
0010
0100
1000
0001
,
0100
0001
1000
0100
1000
0001
0100
0010
0100
0001
1000
0001
0010
0100
0010
0001
,
0100
0010
1000
0000
0001
0000
0010
0000
0100
0000
0010
0000
0001
0000
1000
0010
,
0100
0000
0000
0000
0000
0000
0000
0000
0000
0000
0000
0000
0010
0000
0000
0000
0000
0000
0000
0000
0000
0000
0000
0000
1000
0000
0000
0000
0000
0000
0000
0000
0000
0000
0000
0000
0000
0000
0000
0000
0000
0000
0000
0000
0000
0000
0000
0000
0001
0000
0000
0000
0000
0000
0000
0000
0000
0000
0000
0000
0010
0000
0000
0000
0000
0000
0000
0000
0000
0000
0000
0000
0100
0000
0000
0000
0000
0000
0000
0000
0000
0000
0000
0000
0000
0000
0000
0000
0000
0000
0000
0000
0000
0000
0000
0000
1000
0000
0000
0000
0000
0000
0000
0000
0000
0000
0000
0000
0001
0000
0000
0000
0000
0000
0000
0000
0000
0000
0000
0000
0100
0000
0000
0000
0000
0000
0000
0000
0000
0000
0000
0000
0000
0000
0000
0000
0000
0000
0000
0000
0000
0000
0000
0000
0010
0000
0000
0000
0000
0000
0000
0000
0000
0000
1000
0000
0000
0000
0000
0000
0000
0000
0000
0001
0000
0000
0000
0000
0000
0000
0000
0000
0000
0010
0000
0000
0000
0000
0000
0000
0000
0000
0100
0000
0000
0000
0000
0000
0000
0000
0000
0000
,
1000
0001
0100
0010
1000
0001
0010
0100
,
2000
0000
3001
0000
,
1000
0010
1000
0001
1000
0100
1000
0001
1000
0010
1000
0001
1000
0100
0010
0001
,
1000
0010
0100
0001
1000
0100
0010
0100
1000
0001
1000
0010
0100
0010
1000
0001
,
0010
0001
0100
0001
1000
0100
1000
0001
0100
0001
0010
0001
1000
0010
0100
0001
,
1000
0100
0010
0100
1000
0001
0100
0010
0100
0001
1000
0100
0010
0001
1000
0010
,
0100
0010
1000
0010
0100
0001
1000
0100
0010
0001
0010
0001
1000
0010
0100
0001
,
0100
0001
1000
0100
0010
0100
1000
0001
0100
0010
0100
0001
1000
0001
0010
0100
,
1000
0001
0100
0001
1000
0001
0010
0100
1000
0001
1000
0010
1000
0001
1000
0100
,
0010
0001
0100
0010
1000
0001
0010
0100
1000
0010
1000
0001
0100
0010
0100
0001
,
1000
0001
0010
0001
1000
0001
0100
0001
1000
0001
0010
0001
1000
0001
0100
0010
,
1000
0001
0010
0100
1000
0001
0100
0010
0100
0001
1000
0001
0010
0100
0010
0001
,
1000
0010
1000
0100
1000
0001
0100
0001
1000
0100
1000
0010
1000
0001
0010
0100
,
1000
0001
0100
0010
1000
0001
0010
0100
0010
0001
1000
0010
0100
0000
0010
0000
,
1000
0001
0010
0000
0100
0000
1000
0000
0001
0000
0100
0000
0010
0000
1000
0000
,
0001
0010
0100
0000
1000
0000
0001
0000
0100
0000
0010
0000
0100
0000
0001
0000
,
1000
0100
0010
0001
0100
0010
1000
0001
0010
0100
1000
0010
0100
0001
1000
0100
,
0010
0000
0000
0000
0000
0000
0000
0000
0000
0000
0001
0000
0000
0000
0000
0000
0000
0000
0000
1000
0000
0000
0000
0000
0000
0000
0000
0000
0000
0010
0000
0000
0000
0000
0000
0000
0000
0000
0100
0000
0000
0000
0000
0000
0000
0000
0000
0000
0010
0000
0000
0000
0000
0000
0000
0000
0000
0000
1000
0000
0000
0000
0000
0000
0000
0000
0000
0001
0000
0000
0000
0000
0000
0000
0000
0000
0000
0010
0000
0000
0000
0000
0000
0000
0000
0000
0100
0000
0000
0000
0000
0000
0000
0000
0000
0000
1000
0000
0000
0000
0000
0000
0000
0000
0000
0000
0001
0000
0000
0000
0000
0000
0000
0000
0000
0100
0000
0000
0000
0000
0000
0000
0000
0000
0000
0010
0000
0000
0000
0000
0000
0000
0000
0000
1000
0000
0000
0000
0000
0000
0000
0000
0000
0000
0001
0000
0000
0000
0000
0000
0000
0000
0000
0000
0010
0000
0000
0000
0000
0000
0000
0000
0000
0001
0000
0000
0000
0000
0000
0000
0000
0000
0000
1000
0000
0000
0000
0000
0000
0000
0000
0000
0010
0000
0000
0000
0000
0000
0000
0000
0000
0000
,
0100
0000
0001
0000
,
1000
0000
0000
0100
0010
0001
1000
0010
,
0100
0000
0000
0000
0010
0000
1000
0001
,
0010
0000
0100
0000
,
1000
0000
0001
0000
,
0200
0000
0300
0010
1000
0001
0010
0100
,
1000
0000
0000
0000
0001
0000
0100
0010
,
2000
0000
0000
0000
0000
3000
0000
0000
0001
0000
0000
0000
0000
0000
0000
0000
,
1000
0001
0010
0001
1000
0010
0100
0001
1000
0100
1000
0010
1000
0001
0010
0001
,
1000
0010
1000
0100
1000
0001
0100
0001
1000
0100
0010
0001
1000
0010
0100
0001
,
1000
0100
1000
0010
1000
0001
0010
0001
0100
0010
1000
0001
0010
0100
1000
0001
,
0010
0001
0100
0001
1000
0100
1000
0001
0100
0001
1000
0100
0010
0001
1000
0010
,
1000
0100
1000
0001
0100
0010
1000
0100
0010
0001
1000
0001
0100
0001
1000
0100
,
1000
0010
1000
0001
0010
0100
0010
0001
1000
0010
0100
0001
1000
0100
1000
0001
,
0100
0001
0010
0001
1000
0010
0100
0001
1000
0100
1000
0001
0100
0001
1000
0010
,
1000
0100
1000
0001
0010
0001
0100
0001
1000
0100
0010
0100
1000
0001
1000
0001
,
0100
0010
1000
0010
0100
0001
1000
0100
0010
0100
1000
0001
0100
0001
1000
0100
,
0010
0001
0010
0100
1000
0001
0100
0010
0100
0001
1000
0100
0010
0100
1000
0001
,
0100
0001
0010
0001
1000
0010
0100
0010
1000
0001
0010
0001
0100
0001
1000
0100
,
1000
0010
0100
0001
0100
0010
1000
0001
0100
0001
0010
0001
1000
0010
1000
0001
,
0010
0100
1000
0100
0010
0001
1000
0010
0100
0010
1000
0001
0010
0001
1000
0010
,
0100
0001
0100
0010
1000
0001
0010
0100
0010
0001
1000
0010
0100
0010
1000
0001
,
0010
0001
0100
0001
1000
0100
0010
0100
1000
0001
0100
0001
0010
0001
1000
0010
,
1000
0100
0010
0001
0010
0100
1000
0001
1000
0010
0100
0000
0010
0000
1000
0000
,
0001
0010
0001
0100
0001
1000
0100
1000
0001
0100
0001
0010
0001
1000
0010
0100
,
0001
1000
0100
1000
0010
1000
0001
0010
0001
0100
0010
1000
0001
0010
0100
1000
,
0010
1000
0001
0010
0001
1000
0010
0100
0001
0010
0001
1000
0010
0100
0001
1000
,
0100
1000
0010
0100
0001
1000
0100
0010
0100
1000
0001
1000
0010
0100
0010
1000
,
0100
0010
0001
0000
1000
0000
0010
0000
0100
0000
0010
0000
1000
0000
0001
0010
,
0100
0000
0000
0000
0000
0000
0000
0000
0000
0000
0000
0000
0010
0000
0000
0000
0000
0000
0000
0000
0000
0000
0000
0000
0001
0000
0000
0000
0000
0000
0000
0000
0000
0000
0000
0000
0000
0000
0000
0000
0000
0000
0000
0000
0000
0000
0000
0000
1000
0000
0000
0000
0000
0000
0000
0000
0000
0000
0000
0000
0010
0000
0000
0000
0000
0000
0000
0000
0000
0000
0000
0000
0100
0000
0000
0000
0000
0000
0000
0000
0000
0000
0000
0000
0000
0000
0000
0000
0000
0000
0000
0000
0000
0000
0000
0000
0001
0000
0000
0000
0000
0000
0000
0000
0000
0000
0000
0000
1000
0000
0000
0000
0000
0000
0000
0000
0000
0000
0000
0000
0100
0000
0000
0000
0000
0000
0000
0000
0000
0000
0000
0000
0000
0000
0000
0000
0000
0000
0000
0000
0000
0000
0000
0000
0010
0000
0000
0000
0000
0000
0000
0000
0000
0000
0001
0000
0000
0000
0000
0000
0000
0000
0000
1000
0000
0000
0000
0000
0000
0000
0000
0000
0000
0010
0000
0000
0000
0000
0000
0000
0000
0000
0100
0000
0000
0000
0000
0000
0000
0000
0000
0000
,
0001
1000
0100
0010
0001
1000
0010
0100
,
0002
0000
1003
0000
,
0001
0010
0001
1000
0001
0100
0001
1000
0001
0010
0001
1000
0001
0100
0010
1000
,
0001
0010
0100
1000
0001
0100
0010
0100
0001
1000
0001
0010
0100
0010
0001
1000
,
0010
1000
0100
1000
0001
0100
0001
1000
0100
1000
0010
1000
0001
0010
0100
1000
,
0001
0100
0010
0100
0001
1000
0100
0010
0100
1000
0001
0100
0010
1000
0001
0010
,
0100
0010
0001
0010
0100
1000
0001
0100
0010
1000
0010
1000
0001
0010
0100
1000
,
0100
1000
0001
0100
0010
0100
0001
1000
0100
0010
0100
1000
0001
1000
0010
0100
,
0001
1000
0100
1000
0001
1000
0010
0100
0001
1000
0001
0010
0001
1000
0001
0100
,
0010
1000
0100
0010
0001
1000
0010
0100
0001
0010
0001
1000
0100
0010
0100
1000
,
0001
1000
0010
1000
0001
1000
0100
1000
0001
1000
0010
1000
0001
1000
0100
0010
,
0001
1000
0010
0100
0001
1000
0100
0010
0100
1000
0001
1000
0010
0100
0010
1000
,
0001
0010
0001
0100
0001
1000
0100
1000
0001
0100
0001
0010
0001
1000
0010
0100
,
0001
1000
0100
0010
0001
1000
0010
0100
0010
1000
0001
0010
0100
0000
0010
0000
,
0001
1000
0010
0000
0100
0000
0001
0000
1000
0000
0100
0000
0010
0000
0001
0000
,
1000
0010
0100
0000
0001
0000
1000
0000
0100
0000
0010
0000
0100
0000
1000
0000
,
0001
0100
0010
1000
0100
0010
0001
0100
0010
1000
0100
0010
0001
0100
0010
1000
,
0100
0000
0010
0000
0001
1000
0000
0010
0100
0000
0001
0000
1000
0000
0100
0000
,
0020
0000
0000
0000
0030
0000
0000
0000
0000
0000
0000
0000
0000
0000
0000
0000
0002
0000
0000
0000
0003
0000
0000
0000
0000
0000
0000
0000
0000
0000
0000
0000
2000
0000
0000
0000
3000
0000
0000
0000
0040
0030
0000
0000
0000
0000
0000
0000
0100
0000
0000
0000
0000
0000
0000
0000
0040
0030
0000
0000
0000
0000
0000
0000
,
1000
0000
0000
0000
0000
0000
0000
0000
0001
0000
0000
0000
0010
0000
0000
0000
0100
0000
0000
0000
0000
0000
0000
0000
0040
0030
0000
0000
0000
0000
0000
0000
0001
0000
0000
0000
0000
0000
0000
0000
1000
0000
0000
0000
0000
0000
0000
0000
0010
0000
0000
0000
0000
0000
0000
0000
0100
0000
0000
0000
0000
0000
0000
0000
,
0010
0000
1000
0000
0001
0000
0010
0100
0010
0000
0001
0000
1000
0000
0001
0000
,
0200
0000
0300
0000
0000
0000
0000
0000
0020
0000
0000
0030
0000
0000
0000
0000
0200
0000
0000
0000
0300
0000
0000
0000
0020
0000
0000
0000
0000
0030
0000
0000
2000
0000
0000
0000
0000
3000
0000
0000
0002
0000
0000
0000
0003
0000
0000
0000
2000
0000
0000
3000
0000
0000
0000
0000
0002
0000
0003
0000
0000
0000
0000
0000
,
0010
0100
1000
0001
0100
0010
1000
0001
,
0010
0000
0000
0000
0000
0000
0000
0000
0100
0000
0000
0000
0010
0000
0000
0000
0001
0000
0000
0000
0000
0000
0000
0000
4000
3000
0000
0000
0000
0000
0000
0000
0010
0000
0000
0000
0000
0000
0000
0000
0100
0000
0000
0000
0010
0000
0000
0000
0100
0000
0000
0000
0000
0000
0000
0000
0001
0000
0000
0000
0000
0000
0000
0000
,
1000
0000
0000
0000
0000
0000
0000
0000
0400
0300
0000
0000
0000
0000
0000
0000
1000
0000
0000
0000
0000
0000
0000
0000
0004
0003
0000
0000
0000
0000
0000
0000
1000
0000
0000
0000
0000
0000
0000
0000
0010
0000
0000
0000
0000
0000
0000
0000
0100
0000
0000
0000
0000
0000
0000
0000
0010
0000
0000
0000
1000
0000
0000
0000
,
0002
0000
0003
0000
0000
0000
0000
0000
0020
0000
0000
0030
0000
0000
0000
0000
0200
0000
0000
0000
0300
0000
0000
0000
2000
0000
0000
0000
0000
3000
0000
0000
0002
0000
0000
0000
0000
0003
0000
0000
0200
0000
0000
0000
0300
0000
0000
0000
0020
0000
0000
0030
0000
0000
0000
0000
2000
0000
3000
0000
0000
0000
0000
0000
,
0001
0000
0000
0000
0000
0000
0000
0000
0020
0030
0000
0000
0000
0000
0000
0000
0001
0000
0000
0000
0000
0000
0000
0000
0200
0300
0000
0000
0000
0000
0000
0000
0001
0000
0000
0000
0000
0000
0000
0000
0010
0000
0000
0000
0400
0300
0000
0000
1000
0000
0000
0000
0000
0000
0000
0000
0001
0000
0000
0000
0400
0300
0000
0000
,
0010
0000
0000
0000
0000
0000
0000
0000
2000
3000
0000
0000
0000
0000
0000
0000
0100
0000
0000
0000
0000
0000
0000
0000
2000
3000
0000
0000
0000
0000
0000
0000
0001
0000
0000
0000
0000
0000
0000
0000
0400
0300
0000
0000
0000
0000
0000
0000
0010
0000
0000
0000
0000
0000
0000
0000
4000
3000
0000
0000
0000
0000
0000
0000
,
0001
0000
0000
0000
0000
0000
0000
0000
0020
0030
0000
0000
0000
0000
0000
0000
0001
0000
0000
0000
0000
0000
0000
0000
2000
3000
0000
0000
0000
0000
0000
0000
0010
0000
0000
0000
0000
0000
0000
0000
0400
0300
0000
0000
0000
0000
0000
0000
0001
0000
0000
0000
0000
0000
0000
0000
1000
0000
0000
0000
0000
0000
0000
0000
,
0200
0000
0300
0000
0000
0000
0000
0000
0020
0000
0000
0030
0000
0000
0000
0000
0200
0000
0000
0000
0300
0000
0000
0000
0020
0000
0000
0000
0000
0030
0000
0000
0002
0000
0000
0000
0000
0003
0000
0000
2000
0000
0000
0000
3000
0000
0000
0000
0002
0000
0000
0003
0000
0000
0000
0000
2000
0000
3000
0000
0000
0000
0000
0000
,
0010
0000
0000
0000
0000
0000
0000
0000
0200
0300
0000
0000
0000
0000
0000
0000
0001
0000
0000
0000
0000
0000
0000
0000
0020
0030
0000
0000
0000
0000
0000
0000
0001
0000
0000
0000
0000
0000
0000
0000
2000
3000
0000
0000
0000
0000
0000
0000
0010
0000
0000
0000
0000
0000
0000
0000
0100
0000
0000
0000
0001
0000
0000
0000
,
1000
0000
0000
0000
0100
0000
0000
0000
0020
0030
0000
0000
0000
0000
0000
0000
0001
0000
0000
0000
0000
0000
0000
0000
0200
0300
0000
0000
0000
0000
0000
0000
0001
0000
0000
0000
0000
0000
0000
0000
4000
3000
0000
0000
0000
0000
0000
0000
0100
0000
0000
0000
0000
0000
0000
0000
0010
0000
0000
0000
0001
0000
0000
0000
,
1000
0010
0000
0100
0010
1000
0000
0001
0010
0100
0000
1000
0001
0100
0010
2000
,
0002
0000
0000
0000
0000
3003
0000
0000
0110
0000
0000
0000
0000
0000
0000
0000
,
1002
0000
1000
0000
,
0000
0000
0103
0010
,
2000
0000
0001
0000
,
0000
0000
3100
0010
,
0002
0000
1000
0000
,
0000
0000
0013
0100
,
2000
0000
0001
0000
,
0000
0000
3001
0100
,
0020
0000
0100
0000
,
0000
0130
0001
1000
,
0100
0000
0010
0001
1000
0000
0000
0010
,
0100
0001
1000
0100
0010
0001
1000
0010
,
0100
0000
0000
0001
0000
0000
0010
0000
,
0100
0000
1000
0000
0001
0000
0100
0010
,
1000
0000
0001
0010
0100
0000
0000
1000
,
0010
0100
0001
0010
0100
1000
0001
0100
,
0010
0000
0000
1000
0000
0000
0100
0000
,
0010
0000
0001
0000
1000
0000
0010
0100
,
0001
0000
1000
0100
0000
0010
0000
0001
,
0100
0010
1000
0001
0010
0100
1000
0001
,
0200
0000
0300
0020
0000
0030
2000
3000
,
0002
0003
0020
0030
0200
0300
1000
0001
,
0200
0000
0310
1000
0000
0001
0000
0010
,
0100
1000
0010
0100
0001
0010
0100
0000
,
0000
0000
0000
0000
0000
0000
0000
0000
0000
0000
0000
0000
0000
0000
0000
0000
0000
0000
0000
0000
0000
0000
0000
0000
0000
0000
0000
0000
0000
0000
0000
0000
0000
0000
0000
0000
0000
0000
0000
0000
0000
0000
0000
0000
0000
0000
0000
0000
0000
0000
0000
0000
0000
0000
0000
0000
0000
0000
0000
0000
0000
0000
0000
0000
0000
0000
0000
0000
0000
0000
0000
0000
0000
0000
0000
0000
0000
0000
0000
0000
0000
0000
0000
0000
0000
0000
0000
0000
0000
0000
0000
0000
0000
0000
0000
0000
0000
0000
0000
0000
0000
0000
0000
0000
0000
0000
0000
0000
0000
0000
0000
0000
0000
0000
0000
0000
0000
0000
0000
0000
0000
0000
0000
0000
0000
0000
0000
0000
0000
0000
0000
0000
0000
0000
0000
0000
0000
0000
0000
0000
0000
0000
0000
0000
0000
0000
0000
0000
0000
0000
0000
0000
0000
0000
0000
0000
0000
0000
0000
000M
0000
0000
0000
0000
0000
0000
0000
0000
0000
0000
00M0
0000
0000
0000
0000
0000
0000
0000
0000
0000
0000
0M00
0000
0000
0000
0000
0000
0000
0000
0000
0000
0000
,
2000
3000
0002
0003
,
1000
0100
1000
0001
1000
0010
1000
0001
1000
0100
1000
0001
1000
0010
1000
0001
,
0010
0100
1000
0001
0100
0010
0100
0001
1000
0100
0010
0001
0100
0001
1000
0100
,
1000
0010
0100
0010
1000
0001
0010
0001
1000
0010
1000
0100
1000
0001
0100
0010
,
1000
0001
0010
0001
1000
0010
0100
0001
0010
0001
1000
0010
0100
0001
1000
0100
,
0010
0100
1000
0100
0010
0001
1000
0010
0100
0010
1000
0001
0010
0001
0100
0001
,
1000
0100
1000
0001
0100
0010
1000
0001
0010
0001
1000
0010
1000
0001
0010
0100
,
1000
0001
1000
0010
1000
0001
0010
0001
1000
0010
0100
0001
0010
0100
1000
0001
,
0100
0010
1000
0001
0010
0100
1000
0001
0100
0010
0100
0001
1000
0100
0010
0001
,
1000
0001
0100
0001
1000
0001
0010
0001
1000
0001
0100
0001
1000
0001
0010
0100
,
1000
0001
0100
0010
0100
0001
1000
0100
0010
0001
1000
0010
0100
0001
1000
0100
,
1000
0001
0100
0001
1000
0100
0010
0001
1000
0010
1000
0001
1000
0100
0010
0001
,
1000
0010
1000
0001
0010
0100
1000
0001
0100
0010
1000
0001
0010
0000
0100
0000
,
0010
0001
0000
1000
0010
0000
0100
0000
0001
0000
0010
0100
1000
0000
0010
0000
,
0100
0001
0000
1000
0100
0000
0010
0000
0100
1000
0000
0001
0100
0000
0010
0000
,
0100
0001
1000
0100
0010
0001
0100
0010
1000
0100
0010
0001
0100
0010
0100
0001
,
1000
0100
0010
0001
0400
0000
0000
0300
,
0010
1000
0001
1000
0100
1000
0001
1000
0010
1000
0001
1000
0100
1000
0001
0100
,
0010
1000
0001
0010
0100
0010
0001
1000
0010
0100
0010
1000
0001
0010
0100
1000
,
0010
1000
0001
1000
0100
0010
0001
1000
0001
0100
0001
1000
0100
1000
0001
0100
,
0010
1000
0001
0010
0100
0010
0001
1000
0010
1000
0100
1000
0001
0100
0001
1000
,
0100
1000
0010
1000
0001
0010
0100
0010
0001
1000
0001
0100
0010
0100
0001
1000
,
0100
1000
0010
1000
0001
0010
0001
1000
0010
1000
0100
1000
0001
0010
0100
1000
,
0001
0100
0010
0100
0001
0100
0010
1000
0001
0010
0001
1000
0010
0100
0001
1000
,
0100
0010
0100
1000
0001
0100
0010
1000
0100
1000
0001
0100
0001
0010
0100
1000
,
0001
0100
0001
1000
0001
0010
0001
1000
0001
0100
0001
1000
0001
0010
0100
1000
,
0001
0100
0001
1000
0100
1000
0010
1000
0001
0010
0001
0100
0001
1000
0100
0010
,
0100
1000
0001
0100
0010
1000
0001
0010
0001
0100
0001
1000
0100
1000
0001
0100
,
0010
1000
0001
0010
0001
1000
0010
1000
0001
0010
0001
1000
0100
0010
0001
1000
,
0010
0100
0010
1000
0001
0010
0100
0010
0001
0100
0001
1000
0100
1000
0001
0100
,
0001
0010
0100
1000
0001
0100
0010
1000
0100
1000
0001
0100
0001
1000
0100
1000
,
0001
0100
0010
1000
0100
0010
0001
0100
0010
1000
0100
0010
0001
1000
0010
0100
,
0010
0000
0000
0000
0000
0000
0000
0000
0000
0000
0000
0000
1000
0000
0000
0000
0000
0000
0000
0000
0000
0000
0000
0000
0001
0000
0000
0000
0000
0000
0000
0000
0000
0000
0000
0000
0010
0000
0000
0000
0000
0000
0000
0000
0000
0000
0000
0000
0001
0000
0000
0000
0000
0000
0000
0000
0000
0000
0000
0000
1000
0000
0000
0000
0000
0000
0000
0000
0000
0000
0000
0000
0010
0000
0000
0000
0000
0000
0000
0000
0000
0000
0000
0000
1000
0000
0000
0000
0000
0000
0000
0000
0000
0000
0000
0000
0001
0000
0000
0000
0000
0000
0000
0000
0000
0000
0000
0010
0000
0000
0000
0000
0000
0000
0000
0000
0000
0000
0100
0000
0000
0000
0000
0000
0000
0000
0000
0000
1000
0000
0000
0000
0000
0000
0000
0000
0000
0000
0000
0001
0000
0000
0000
0000
0000
0000
0000
0000
0000
0000
0100
0000
0000
0000
0000
0000
0000
0000
0000
0000
0010
0000
0000
0000
0000
0000
0000
0000
0000
0000
0000
1000
0000
0000
0000
0000
0000
0000
0000
0000
0000
0000
0100
0000
0000
0000
0000
0000
0000
0000
0000
0000
,
0010
0001
1000
0001
0100
0001
1000
0001
0010
0001
1000
0001
0100
0001
1000
0100
,
0010
0001
1000
0010
0100
0010
1000
0001
0010
0100
0010
0001
1000
0010
0100
0001
,
0010
0001
1000
0001
0100
0010
1000
0001
1000
0100
1000
0001
0100
0001
1000
0100
,
0010
0001
1000
0010
0100
0010
1000
0001
0010
0001
0100
0001
1000
0100
1000
0001
,
0100
0001
0010
0001
1000
0010
0100
0010
1000
0001
1000
0100
0010
0100
1000
0001
,
0100
0001
0010
0001
1000
0010
1000
0001
0010
0001
0100
0001
1000
0010
0100
0001
,
1000
0100
0010
0100
1000
0100
0010
0001
1000
0010
1000
0001
0010
0100
1000
0001
,
0100
0010
0100
0001
1000
0100
0010
0001
0100
0001
1000
0100
1000
0010
0100
0001
,
1000
0100
1000
0001
1000
0010
1000
0001
1000
0100
1000
0001
1000
0010
0100
0001
,
1000
0100
1000
0001
0100
0001
0010
0001
1000
0010
1000
0100
1000
0001
0100
0010
,
0100
0001
1000
0100
0010
0001
1000
0010
1000
0100
1000
0001
0100
0001
1000
0100
,
0010
0001
1000
0010
1000
0001
0010
0001
1000
0010
1000
0001
0100
0010
1000
0001
,
0010
0100
0010
0001
1000
0010
0100
0010
1000
0100
1000
0001
0100
0001
1000
0100
,
1000
0010
0100
0001
1000
0100
0010
0001
0100
0001
1000
0100
1000
0001
0100
0001
,
1000
0100
0010
0001
0100
0001
1000
0010
1000
0100
0010
0001
0100
0010
1000
0001
,
0010
0000
0100
0000
1000
0000
0001
0000
0100
0010
1000
0001
0010
0100
1000
0010
,
0100
0001
1000
0100
0010
0001
1000
0001
,
0100
0010
0010
1000
0001
0010
0100
0010
,
0001
0000
1000
0000
0010
0000
1000
0000
0001
0000
0020
0030
0000
0100
1000
0000
,
0001
0100
0010
1000
0100
0010
0001
0100
,
0010
1000
0001
0010
0100
1000
0001
1000
,
0010
0000
0100
0000
0100
0000
0001
1000
0100
1000
0001
0000
0100
0000
0010
1000
,
0000
0001
0010
0000
0100
0000
0010
0000
0001
0000
1000
0000
0010
0000
0010
0000
,
0100
0001
0000
1000
0100
0000
0010
0000
0100
0000
1000
0000
0001
0000
0100
0000
,
0010
1000
0001
0010
0100
1000
0001
1000
,
0010
0100
0100
0001
1000
0100
0010
0100
,
1000
0000
0001
0000
0100
0000
0001
0000
1000
0000
0200
0300
0000
0010
0001
0000
,
1000
0010
0100
0001
0010
0100
1000
0010
,
0100
0001
1000
0100
0010
0001
1000
0001
,
0100
0000
0010
0000
0010
0000
1000
0001
0010
0001
1000
0000
0010
0000
0100
0001
,
0000
1000
0100
0000
0010
0000
0100
0000
1000
0000
0001
0000
1000
0000
0010
0000
,
0200
0000
0310
0000
,
2002
0000
0000
0000
,
0000
0000
0000
0000
,
3003
0000
0000
0000
;
