#TITLE:GAIN;
#SUBTITLE:;
#ARTIST:TOMOYUKi;
#TITLETRANSLIT:;
#SUBTITLETRANSLIT:;
#ARTISTTRANSLIT:;
#CREDIT:;
#BANNER:GAIN-bn.png;
#BACKGROUND:GAIN-bg.png;
#LYRICSPATH:GAIN.lrc;
#CDTITLE:NAOKI_cdtitle.png;
#MUSIC:GAIN.mp3;
#OFFSET:-0.150;
#SAMPLESTART:94.012;
#SAMPLELENGTH:12.000;
#SELECTABLE:YES;
#BPMS:0.000=129.000;
#STOPS:;
#BGCHANGES:;

//---------------dance-single - ----------------
#NOTES:
     dance-single:
     :
     Beginner:
     1:
     0.138,0.176,0.037,0.090,0.000:
0000
0000
0000
0000
,
0000
0000
0000
0000
,
0000
0000
0000
0000
,
0000
0000
0000
0000
,
0000
0000
0000
0000
,
0000
0000
0000
0000
,
0000
0000
0000
0000
,
0000
0000
0000
0000
,
0000
0000
0000
0000
,
1000
0000
1000
0000
,
0010
0000
0010
0000
,
0100
0000
0100
0000
,
0001
0000
0001
0000
,
1000
0000
1000
0000
,
0100
0000
0100
0000
,
0010
0000
0010
0000
,
1001
0000
0000
0000
,
0000
0000
0000
0000
,
0001
0000
0100
0000
,
0010
0000
1000
0001
,
1000
0000
0100
0000
,
0010
0000
0001
0000
,
1000
0000
0010
0000
,
0100
0000
0001
1000
,
0001
0000
0010
0000
,
0100
0000
1000
0000
,
0001
0100
0000
0100
,
0000
0010
0000
0010
,
1000
0100
0000
0100
,
0000
0010
0000
0010
,
0001
1000
0000
1000
,
0000
0010
0000
0010
,
0100
0001
0000
0001
,
1001
0000
0000
0000
,
2000
0000
3000
0000
,
0002
0000
0003
0000
,
0020
0000
0030
0000
,
0200
0000
0300
0000
,
2000
0000
3000
0000
,
0020
0000
0030
0000
,
0200
0000
0300
0000
,
0002
0000
0003
0000
,
0010
0000
0010
0000
,
0100
0000
0100
0000
,
1000
0000
1000
0000
,
0001
0000
0001
0000
,
0100
0000
0100
0000
,
0010
0000
0010
0000
,
1000
0000
1000
0000
,
2002
0000
0000
0000
,
3003
0000
0000
0000
,
0001
0000
0010
0000
,
0100
0000
1000
0001
,
0100
0000
0010
0000
,
1000
0000
0001
0010
,
0100
0000
1000
0000
,
0001
0000
0100
0010
,
1000
0000
0001
0000
,
0010
0010
0010
0010
,
0100
0000
1000
0000
,
0001
0000
0100
0000
,
0010
0000
1000
0000
,
0100
0000
0010
0000
,
0001
0000
0100
0000
,
0010
0000
1000
0000
,
0100
0000
0010
0000
,
0110
0000
0000
0000
,
2002
0000
3003
0000
;

//---------------dance-single - ----------------
#NOTES:
     dance-single:
     :
     Easy:
     5:
     0.224,0.252,0.030,0.134,0.000:
0000
0000
0000
0000
,
0000
0000
0000
0000
,
0000
0000
0000
0000
,
0000
0000
0000
0000
,
0000
0000
0000
0000
,
0000
0000
0000
0000
,
0000
0000
0000
0000
,
0000
0000
0000
0000
,
0000
0000
0000
0000
,
1000
0010
0010
0010
,
0100
0001
0001
0001
,
0010
0100
0100
0100
,
1000
0010
0100
0100
,
0001
0010
0010
0010
,
0100
1000
1000
1000
,
0010
0100
0100
0001
,
2002
0000
0000
0000
0000
0000
0000
3003
,
0000
0000
0000
0000
,
1000
1000
1000
1000
,
0001
0001
0001
0001
,
0010
0010
0100
0100
,
1000
0001
0100
0100
,
0001
0001
0001
0001
,
1000
1000
1000
1000
,
0100
0100
0010
0010
,
0001
0000
1000
0000
,
0010
1000
0001
1000
,
0100
1000
0001
0100
,
0100
0001
1000
0001
,
0010
0001
1000
0010
,
0010
0100
0001
0100
,
0010
0100
0001
0010
,
0010
0100
1000
0100
,
0010
0000
0001
0100
,
0020
0030
2000
3000
,
0200
0300
0020
0030
,
0002
0003
2000
3000
,
0010
0010
1000
0100
,
0020
0030
0002
0003
,
0200
0300
0020
0030
,
2000
3000
0002
0003
,
0010
0010
0001
0100
,
0010
0000
0010
0000
,
1000
0000
1000
0000
,
0001
0000
0001
0000
,
0010
0000
0010
0100
,
1000
0000
1000
0000
,
0001
0000
0001
0000
,
0100
0000
0100
0000
,
0220
0000
0000
0000
,
0330
0000
0000
0000
,
1000
0010
1000
0100
,
0010
0001
0100
0001
,
1000
0100
1000
0010
,
0100
0001
0010
0001
,
0100
0010
1000
0001
,
0010
0100
1000
0001
,
0001
0100
0010
1000
,
0001
0001
0001
0001
,
0010
0100
1000
0001
,
0100
0010
1000
1000
,
0001
0010
0100
1000
,
0001
0100
0010
1000
,
0001
0010
0001
0010
,
0100
1000
0100
1000
,
0001
0100
0001
0100
,
0110
0000
0000
0000
,
2002
0000
3003
0000
;

//---------------dance-single - Copied from----------------
#NOTES:
     dance-single:
     Copied from:
     Challenge:
     13:
     0.522,0.627,0.157,0.246,0.146: // measure 1
0000
0000
0000
0000
,  // measure 2
0000
0000
0000
0000
,  // measure 3
0000
0000
0000
0000
,  // measure 4
0000
0000
0000
0000
,  // measure 5
0000
0000
0000
0000
,  // measure 6
0000
0000
0000
0000
,  // measure 7
0000
0000
0000
0000
,  // measure 8
0000
0000
0000
0000
,  // measure 9
0000
0000
0000
0000
,  // measure 10
0010
0001
0100
1000
0100
0010
1000
0001
,  // measure 11
0010
0000
0100
0000
0001
0000
0100
0000
1000
0000
0010
0000
0100
0000
0001
1000
,  // measure 12
0100
0010
0001
1000
0010
0100
0001
0010
,  // measure 13
1000
0000
0010
0000
0100
0000
1000
0000
0001
0000
0100
0000
0010
0000
1000
0100
,  // measure 14
0010
0001
1000
0010
0100
0001
1000
0100
,  // measure 15
0001
0100
0010
0001
0100
0010
1000
0100
,  // measure 16
0010
0001
0010
0001
1000
0010
0100
0010
1000
0001
0010
0100
0010
0001
1000
0010
,  // measure 17
0200
0301
0000
0010
0000
0100
0000
1001
,  // measure 18
0000
0000
0000
0000
,  // measure 19
1000
0200
1300
0002
1003
0020
1030
0002
,  // measure 20
1003
0200
1300
0002
1003
0020
0130
0100
,  // measure 21
0001
0020
0031
2000
3001
0200
0301
0020
,  // measure 22
0031
2000
3001
0200
0310
2000
3001
0020
,  // measure 23
0130
1000
0100
0010
0100
1000
0100
0010
,  // measure 24
0001
0100
0010
0100
0001
0100
0010
0010
,  // measure 25
1000
0100
0010
0100
1000
0001
0100
0010
,  // measure 26
0220
0000
0330
0000
0000
0000
0000
0000
0100
0000
0000
0100
0000
0000
0100
0000
,  // measure 27
0010
1000
1001
0001
0010
0100
1100
0010
,  // measure 28
0001
0100
0101
0010
1000
0100
0010
0010
,  // measure 29
0100
1000
1001
0001
0100
0010
1010
0200
,  // measure 30
0301
0010
0011
0100
1000
0001
0100
0020
,  // measure 31
0130
0001
1001
1000
0100
0010
0011
0100
,  // measure 32
1000
0010
1010
0100
0001
0010
0100
0100
,  // measure 33
0010
0001
1001
1000
0010
0100
0101
0010
,  // measure 34
1010
0000
0000
0000
M000
0M00
00M0
000M
,  // measure 35
2000
0100
0000
3100
0020
0001
0000
0031
,  // measure 36
0100
0000
0000
0000
0001
1000
0001
1000
0000
0000
0000
0000
0010
0000
1000
0000
,  // measure 37
0100
0000
0000
0000
0010
0000
0001
0000
0000
0000
1000
0000
0010
0100
0010
0100
,  // measure 38
0001
1000
0000
1000
0001
0010
0100
1000
,  // measure 39
0001
0000
0100
0000
0010
0100
0010
0000
1000
0000
0100
0000
0010
0100
0010
0000
,  // measure 40
0001
0100
0010
1000
0100
0000
0010
0001
,  // measure 41
0100
0000
0010
1000
0000
0001
0010
0100
,  // measure 42
1000
0001
0000
0001
1000
0010
0100
0001
,  // measure 43
1001
0010
0100
1000
,  // measure 44
0001
0000
0100
0000
0010
0000
1000
0001
,  // measure 45
1000
0100
0010
0001
,  // measure 46
1000
0000
0010
0000
0100
0001
0010
0100
,  // measure 47
1000
0010
1000
0010
0100
0001
0100
0001
,  // measure 48
1000
0100
1000
0100
0010
0001
0010
0001
,  // measure 49
1000
0010
0100
0010
1000
0001
1000
0001
0010
0100
0010
0100
1000
0001
0100
0001
,  // measure 50
2000
0200
0000
0000
0000
0000
0000
3300
,  // measure 51
0011
0000
0000
0000
000M
00M0
0M00
M000
,  // measure 52
0001
0000
0100
0000
0010
0000
1000
0100
0020
0000
0031
0000
0100
0000
0010
0000
,  // measure 53
1000
0000
0100
0000
0010
0000
0001
0100
0020
0000
1030
0000
0100
0000
0100
0000
,  // measure 54
0010
0001
1000
0020
0130
0001
0010
1000
,  // measure 55
0010
0001
0100
0010
100M
01M0
0M10
M001
,  // measure 56
1000
0000
0010
0000
0100
0000
0001
0010
0200
0000
1300
0000
0010
0000
0100
0000
,  // measure 57
0001
0000
0010
0000
0100
0000
1000
0010
0200
0000
0301
0000
0010
0000
0010
0000
,  // measure 58
0100
1000
0001
0200
0310
1000
0100
0010
,  // measure 59
1001
0000
0000
0000
0110
0000
0000
0000
1001
0000
0000
0110
0000
0000
0001
1000
,  // measure 60
0001
1000
0100
0010
0001
0100
1000
0001
,  // measure 61
1000
0100
0001
0010
0100
1000
0010
0100
,  // measure 62
0001
0010
1000
0001
1000
0010
0001
0100
,  // measure 63
0010
0010
1000
1000
0001
0001
0010
0010
,  // measure 64
0100
1000
0001
0100
0100
0010
1000
0100
,  // measure 65
0100
0010
0001
1000
0010
0100
0001
1000
,  // measure 66
0100
0010
0001
1000
0001
1000
0100
0010
0100
1000
0001
1000
0001
0100
0010
0100
,  // measure 67
0002
1003
0000
0100
0000
0010
0000
0001
,  // measure 68
2002
3003
0000
0000
;

//---------------dance-single - ----------------
#NOTES:
     dance-single:
     :
     Medium:
     7:
     0.264,0.376,0.075,0.134,0.000: // measure 1
0000
0000
0000
0000
,  // measure 2
0000
0000
0000
0000
,  // measure 3
0000
0000
0000
0000
,  // measure 4
0000
0000
0000
0000
,  // measure 5
0000
0000
0000
0000
,  // measure 6
0000
0000
0000
0000
,  // measure 7
0000
0000
0000
0000
,  // measure 8
0000
0000
0000
0000
,  // measure 9
0000
0000
0000
0000
,  // measure 10
0010
0001
0100
0100
,  // measure 11
0010
1000
0001
0100
,  // measure 12
0010
1000
0100
0100
,  // measure 13
0010
0001
1000
0010
,  // measure 14
0100
0001
0010
0010
,  // measure 15
0100
1000
0001
0010
,  // measure 16
0100
1000
0010
0010
,  // measure 17
0220
0000
0000
0000
0000
0000
0000
0330
,  // measure 18
0000
0000
0000
0000
,  // measure 19
1000
0010
0100
0001
,  // measure 20
1000
0000
0100
0000
0010
0000
0001
1000
,  // measure 21
0001
0100
0010
1000
,  // measure 22
0001
0000
0010
0000
0100
0000
1000
0001
,  // measure 23
1000
0000
0010
0000
0100
0001
1000
0000
,  // measure 24
0100
0000
0010
0000
0001
1000
0010
0100
,  // measure 25
0001
0000
0010
0000
0100
1000
0001
0000
,  // measure 26
0100
0000
0000
0000
,  // measure 27
1001
0000
0010
0000
0100
0001
1000
0000
,  // measure 28
0100
0000
0010
0000
0001
0100
0010
1000
,  // measure 29
0001
0000
0010
0000
0100
1000
0001
0000
,  // measure 30
0100
0000
0010
0000
1000
0100
0010
0001
,  // measure 31
1000
0000
0100
0000
0010
0001
1000
0000
,  // measure 32
0010
0000
0100
0000
0001
0010
0100
1000
,  // measure 33
0001
0000
0100
0000
0010
1000
0001
0000
,  // measure 34
1001
0000
0000
0000
1000
0010
0100
0001
,  // measure 35
2000
3000
0100
0010
,  // measure 36
0002
0003
0100
0010
,  // measure 37
2000
3000
0002
0003
,  // measure 38
1000
0000
0100
0010
,  // measure 39
0002
0003
0100
0010
,  // measure 40
2000
3000
0100
0010
,  // measure 41
0002
0003
2000
3000
,  // measure 42
0001
0000
1000
0010
,  // measure 43
0110
0000
0100
0000
,  // measure 44
0001
0000
1000
0100
,  // measure 45
0010
0000
0001
0000
,  // measure 46
1000
0000
0010
0100
,  // measure 47
0001
0000
1000
0000
,  // measure 48
0100
0000
0010
0001
,  // measure 49
1000
0000
0020
0000
,  // measure 50
0200
0000
0000
0000
,  // measure 51
0330
0000
0000
0000
,  // measure 52
0010
1000
0100
0010
,  // measure 53
0001
0000
0100
0000
0010
0000
1000
0001
,  // measure 54
0010
0100
1000
0001
,  // measure 55
0100
0000
0010
0000
1000
0100
0010
0001
,  // measure 56
0100
0001
0010
0100
,  // measure 57
1000
0000
0010
0000
0100
0000
0001
1000
,  // measure 58
0100
0010
0001
0100
,  // measure 59
1010
0011
1100
0101
,  // measure 60
0010
1000
0001
0000
0010
0100
1000
0001
,  // measure 61
0000
0001
0000
1000
0010
0000
0100
0000
,  // measure 62
0001
0010
0100
1000
0000
1000
0001
0000
,  // measure 63
0200
2300
3020
0032
,  // measure 64
0103
0000
0010
0000
1000
0100
0010
0001
,  // measure 65
1000
0010
0100
0100
,  // measure 66
0001
0010
0100
1000
,  // measure 67
1001
0000
0000
0000
,  // measure 68
2002
3003
0000
0000
;

//---------------dance-single - ----------------
#NOTES:
     dance-single:
     :
     Hard:
     11:
     0.448,0.477,0.067,0.149,0.011: // measure 1
0000
0000
0000
0000
,  // measure 2
0000
0000
0000
0000
,  // measure 3
0000
0000
0000
0000
,  // measure 4
0000
0000
0000
0000
,  // measure 5
0000
0000
0000
0000
,  // measure 6
0000
0000
0000
0000
,  // measure 7
0000
0000
0000
0000
,  // measure 8
0000
0000
0000
0000
,  // measure 9
0000
0000
0000
0000
,  // measure 10
1000
0001
0100
0010
1000
0100
0001
0100
,  // measure 11
0010
0001
1000
0010
0100
1000
0100
0001
,  // measure 12
0001
1000
0100
0010
0001
0100
1000
0100
,  // measure 13
0010
1000
0001
0010
0100
0001
0100
1000
,  // measure 14
0001
1000
0010
0100
0001
0010
1000
0010
,  // measure 15
0100
1000
0001
0100
0010
1000
0100
0010
,  // measure 16
0002
0000
0000
0003
0200
0000
0000
0300
0020
0000
0000
0030
2000
0000
0000
3000
,  // measure 17
0001
1000
0000
0100
0000
0010
0000
0001
,  // measure 18
0000
0000
0000
0000
,  // measure 19
1000
0010
1000
0001
1000
0100
1000
0001
,  // measure 20
1000
0010
1000
0001
1000
0100
0010
0010
,  // measure 21
0001
0100
0001
1000
0001
0010
0001
2000
,  // measure 22
3001
0100
0001
1000
0001
0010
0100
0100
,  // measure 23
1000
0001
0100
0010
1000
0001
0100
0010
,  // measure 24
1000
0001
0010
0100
1000
0001
0010
0010
,  // measure 25
0100
1000
0001
0100
0010
1000
0001
0100
,  // measure 26
0010
0000
0000
0000
0000
0000
0000
0000
0100
0000
0000
0100
0000
0000
0100
0000
,  // measure 27
0001
1000
0100
0100
0010
0001
1000
1000
,  // measure 28
0010
0100
0001
0001
1000
0100
0010
0010
,  // measure 29
0001
1000
0010
0010
0100
0001
1000
1000
,  // measure 30
0100
0010
0001
0001
1000
0010
0100
0002
,  // measure 31
1003
0001
0010
0010
0100
1000
0001
0001
,  // measure 32
0100
0010
1000
1000
0001
0010
0100
0100
,  // measure 33
1000
0001
0100
0100
0010
1000
0001
0100
,  // measure 34
0110
0000
0000
0000
0001
0010
0100
1000
,  // measure 35
0002
0103
0020
1030
,  // measure 36
0100
0000
0010
0001
2000
0000
3010
0010
,  // measure 37
0200
0000
0000
0300
0001
0000
0010
0000
0000
0000
0100
0000
1000
0000
0000
0000
,  // measure 38
0001
0100
0000
0100
0010
1000
0100
0010
,  // measure 39
0002
0000
0000
0003
0100
0000
0010
0000
2000
0000
0000
3000
0100
0000
0010
0000
,  // measure 40
0001
0000
1000
0010
0100
0000
0001
1000
,  // measure 41
0001
0000
0010
0100
0000
0100
1000
0001
,  // measure 42
0100
0010
0000
0010
1000
0100
0010
0001
,  // measure 43
1001
1000
0010
0100
,  // measure 44
0001
0000
0010
0000
0100
0000
1000
0001
,  // measure 45
1000
0010
0100
0001
,  // measure 46
0010
0000
0100
0000
1000
0100
0010
0001
,  // measure 47
1000
0010
1000
0010
0100
0001
0100
0001
,  // measure 48
1000
0100
1000
0100
0010
0001
0010
0001
,  // measure 49
1000
0010
0100
0001
0010
0100
1000
0001
,  // measure 50
0200
0020
0000
0000
0000
0000
0000
0330
,  // measure 51
1001
0000
0000
0000
,  // measure 52
1000
0001
0010
0100
2000
0001
3001
0100
,  // measure 53
0010
1000
0100
0010
0002
1000
1003
0010
,  // measure 54
0100
0001
0010
1000
0010
0100
1000
0001
,  // measure 55
0100
0010
0100
0010
1000
0100
0010
0001
,  // measure 56
1001
1000
0010
0100
0002
1000
1003
0100
,  // measure 57
0010
0001
0100
0010
2000
0001
3001
0010
,  // measure 58
0100
1000
0001
0100
0010
1000
0100
0010
,  // measure 59
1001
0000
0000
0000
0110
0000
0000
0000
1001
0000
0000
0110
0000
0000
0001
1000
,  // measure 60
0001
0010
0100
1000
0001
0100
0010
0001
,  // measure 61
0010
0100
0001
1000
0100
0010
0001
1000
,  // measure 62
0010
0010
0100
0001
0010
0100
1000
0001
,  // measure 63
0100
0100
0010
0010
1000
1000
0001
0001
,  // measure 64
0010
0100
0010
0100
1000
0010
0100
0001
,  // measure 65
0010
0100
1000
0001
0100
0010
1000
0100
,  // measure 66
0001
0100
0010
1000
0010
0100
1000
0001
,  // measure 67
0100
0000
0000
0000
,  // measure 68
2002
3003
0000
0000
;
