#TITLE:FREEDOM;
#SUBTITLE:;
#ARTIST:TOMOYUKI;
#TITLETRANSLIT:;
#SUBTITLETRANSLIT:;
#ARTISTTRANSLIT:;
#GENRE:;
#CREDIT:;
#MUSIC:FREEDOM.ogg;
#BANNER:freedom-bn.png;
#BACKGROUND:freedom-bg2.png;
#CDTITLE:NAOKI_cdtitle.png;
#SAMPLESTART:85.547;
#SAMPLELENGTH:12.000;
#SELECTABLE:YES;
#OFFSET:-0.457;
#BPMS:0.000=144.000;
#STOPS:;
#BGCHANGES:200.000=black.JPG=1.000=1=0=0=StretchNoLoop==CrossFade==,
204.000=white.JPG=1.000=1=0=0=StretchNoLoop==CrossFade==,
208.000=freedom-bg.png=1.000=1=0=0=StretchNoLoop==CrossFade==,
99999.000=-nosongbg-=1.000=0=0=0=StretchNoLoop====
;
#FGCHANGES:;

//--------------- dance-single - NAOKI ----------------
#NOTES:
     dance-single:
     NAOKI:
     Beginner:
     1:
     0.134,0.168,0.008,0.082,0:
0000
0000
0000
0000
,
0010
0000
0000
0000
,
0010
0000
0000
0000
,
0100
0000
0000
0000
,
0100
0000
0000
0000
,
0001
0000
0000
0000
,
0001
0000
0000
0000
,
1000
0000
0000
0000
,
1000
0000
0000
0000
,
0100
0000
0100
0000
,
0010
0000
0010
0000
,
0001
0000
0001
0000
,
1000
0000
1000
0000
,
0010
0000
0010
0000
,
0100
0000
0100
0000
,
0001
0000
0001
0000
,
0010
0000
0000
0000
,
0100
0000
0100
0000
,
1000
0000
1000
0000
,
0010
0000
0010
0000
,
0100
0000
0100
0000
,
0001
0000
0001
0000
,
0010
0000
0010
0000
,
0001
0000
1000
0000
,
0001
0000
0000
0000
,
0000
0000
0000
0000
,
0020
0000
0030
0000
,
0002
0000
0003
0000
,
0200
0000
0300
0000
,
2000
0000
3000
0000
,
0020
0000
0030
0000
,
2000
0000
3000
0000
,
0200
0000
0300
0000
,
0002
0000
0003
0000
,
0010
0000
0000
0000
,
0010
0000
0000
0000
,
0100
0000
0000
0000
,
0100
0000
0000
0000
,
1000
0000
0000
0000
,
1000
0000
0000
0000
,
0001
0000
0000
0000
,
0001
0000
0000
0000
,
0100
0000
0100
0000
,
0010
0000
0010
0000
,
1000
0000
1000
0000
,
0001
0000
0001
0000
,
0010
0000
0010
0000
,
0100
0000
0100
0000
,
1000
0001
1000
0001
,
0100
0000
0000
0000
,
0010
0000
0000
0000
,
0000
0000
0000
0000
,
0100
0000
0100
0000
,
0001
0000
0001
0000
,
0010
0000
0010
0000
,
0100
0000
0100
0000
,
1000
0000
1000
0000
,
0010
0000
0010
0000
,
0100
0000
0100
0000
,
0001
0000
0001
0000
,
1000
0000
1000
0000
,
0010
0000
0010
0000
,
0100
0000
0100
0000
,
0001
0000
0001
0000
,
0010
0000
0010
0000
,
0100
0000
0100
0000
,
1000
0000
0001
0000
,
1000
0000
0000
0000
,
2002
0000
3003
0000
;

//--------------- dance-single - NAOKI ----------------
#NOTES:
     dance-single:
     NAOKI:
     Easy:
     4:
     0.237,0.252,0.016,0.172,0:
0000
0000
0000
0000
,
1000
0100
0000
0100
,
0010
0001
0000
0001
,
0100
0010
0000
0010
,
1000
0100
0000
0010
,
0001
0100
0000
0100
,
0010
1000
0000
1000
,
0100
0010
0000
0010
,
0002
0000
1003
0000
,
0010
1000
0100
0000
,
0100
1000
0010
0000
,
0010
0001
0100
0000
,
0100
0001
0010
0000
,
0100
1000
0010
0000
,
0010
1000
0100
0000
,
0100
0001
0010
0000
,
0010
0001
0100
0000
,
0010
0010
1000
0000
,
1000
1000
0100
0000
,
0100
0100
0001
0000
,
0001
0001
0010
0000
,
0010
0010
0001
0000
,
0001
0001
0100
0000
,
0100
0100
1000
0000
,
1000
1000
0010
0000
,
0000
0000
0000
0000
,
0002
0000
1003
0000
,
0010
0000
0100
0000
,
0001
0000
0010
0000
,
0100
0000
0000
0000
,
2000
0000
3001
0000
,
0010
0000
0100
0000
,
1000
0000
0010
0000
,
0100
0000
0000
0000
,
0002
0000
0103
0000
,
2000
0000
3100
0000
,
0020
0000
0130
0000
,
0200
0000
0310
0000
,
0002
0000
0013
0000
,
2000
0000
3010
0000
,
0200
0000
0310
0000
,
0020
0000
0130
0000
,
0010
1000
0001
0000
,
0010
0001
1000
0000
,
0100
1000
0001
0000
,
0100
0001
1000
0000
,
0010
0010
1000
1000
,
0100
0100
0001
0001
,
0010
1000
0100
0001
,
0010
0000
0000
0000
,
0220
0000
0000
0000
,
0330
0000
0000
0000
,
0010
1000
0100
0100
,
0010
0001
0100
0100
,
0010
1000
0100
0100
,
1000
0001
0010
0000
,
0100
1000
0010
0010
,
0100
0001
0010
0010
,
0100
1000
0010
0010
,
1000
0001
0100
0000
,
0002
0000
0013
0100
,
2000
0000
3010
0100
,
0001
0000
0010
0100
,
0010
0000
0100
0000
,
2000
0000
3010
0100
,
0002
0000
0013
0100
,
2000
3010
0002
0013
,
0100
0000
0000
0000
,
2002
0000
3003
0000
;

//--------------- dance-single - NAOKI ----------------
#NOTES:
     dance-single:
     NAOKI:
     Medium:
     7:
     0.351,0.393,0.434,0.164,0:
0000
0000
0000
0000
,
1000
0100
1000
0001
,
1000
0010
1000
0100
,
0001
0100
1000
0010
,
0001
0010
0100
0100
,
0001
0010
0001
1000
,
0001
0100
0001
0010
,
1000
0010
0001
0100
,
0020
0000
0130
0000
,
0010
1000
0100
1100
,
0010
0001
0100
0101
,
0010
1000
0100
0110
,
1000
0001
0100
1001
,
0100
1000
0010
1010
,
0100
0001
0010
0011
,
0100
1000
0010
0110
,
1000
0100
0010
0001
,
0100
0001
0010
0011
,
0100
1000
0010
1010
,
0100
0001
0010
0110
,
0001
1000
0010
0110
,
1001
0010
0100
0110
,
1001
0100
0010
0110
,
1001
0010
0110
0100
,
1001
0000
1000
0001
,
0000
0000
0000
0000
,
0012
0000
1003
0010
,
0100
0000
0000
0001
0000
0000
0010
0000
,
0100
0000
0000
1000
0000
0000
0010
0000
,
0000
0000
0000
0000
,
2010
0000
3001
0010
,
0100
0000
0000
1000
0000
0000
0010
0000
,
0100
0000
0000
0001
0000
0000
0010
0000
,
0110
0000
0000
0000
,
0012
0000
0000
1000
0000
0103
0000
0000
,
2010
0000
0000
0001
0000
3100
0000
0000
,
0210
0000
0000
0010
0000
0310
0000
0000
,
0100
0000
0000
1000
0000
0001
0000
0000
,
0102
0000
0000
1000
0000
0013
0000
0000
,
2100
0000
0000
0001
0000
3010
0000
0000
,
0120
0000
0000
0100
0000
0130
0000
0000
,
0010
0000
0000
1000
0000
0001
0000
0000
,
0010
0010
0001
1000
,
0010
0010
1000
0001
,
0100
0100
0001
1000
,
0100
0100
1000
0001
,
0110
0010
1001
1000
,
0110
0100
1001
0001
,
0110
1001
1100
0101
,
1001
0000
0000
0000
,
0220
0000
0000
0000
,
0330
0000
0000
0000
,
0010
1000
0100
1100
,
0010
0001
0100
0101
,
0010
1000
0100
0110
,
1000
0001
0100
1001
,
0100
1000
0010
1010
,
0100
0001
0010
0011
,
0100
1000
0010
0110
,
1000
0001
0010
0100
,
1002
0010
0103
0010
,
2001
0100
3010
0100
,
0001
1000
0100
0010
,
1001
0100
0110
0000
,
2001
0010
3100
0010
,
1002
0100
0013
0100
,
2010
3100
0012
0103
,
0020
0000
0030
0000
,
2002
0000
3003
0000
;

//--------------- dance-single - NAOKI ----------------
#NOTES:
     dance-single:
     NAOKI:
     Hard:
     11:
     0.496,0.505,0.196,0.196,0.045:
0000
0000
0000
0000
,
0010
1000
0100
0000
0010
0001
0100
0000
,
1000
0100
0001
0000
0010
0100
1000
0000
,
0100
1000
0010
0000
0100
0001
0010
0000
,
1000
0010
0001
0000
0100
0010
1000
0100
,
0010
0001
0100
0000
0010
1000
0100
0000
,
0001
0100
1000
0000
0100
0010
0001
0000
,
0100
0001
0010
0000
0001
0010
1000
0000
,
0110
0000
0000
0000
0000
0000
0000
0000
0100
0000
0000
0100
0000
0000
0100
0000
,
0010
0001
0100
0000
1000
0100
0001
0010
,
0100
1000
0010
0000
0001
0010
1000
0010
,
0100
0001
0010
0000
1000
0010
0001
0100
,
0010
1000
0100
0000
0001
0100
1000
0100
,
0010
0001
0100
0000
1000
0100
0001
0100
,
0010
1000
0100
0000
0001
0100
1000
0010
,
0100
0001
0010
0000
1000
0010
0001
0010
,
0100
0000
0000
1000
0000
0000
0001
0000
0000
0100
0000
0000
0010
0000
1000
0000
,
0100
0001
0100
1000
0010
0100
0001
0000
,
0010
1000
0010
0001
0100
0010
1000
0000
,
0010
0001
0010
1000
0100
0010
0001
0000
,
0100
1000
0100
0001
0010
0100
1000
0010
,
0100
0001
0010
0001
0100
1000
0010
0000
,
0100
0001
0010
1000
0100
1000
0010
0000
,
0100
0001
0010
0100
1000
0010
0100
0000
,
0110
0000
0010
1001
,
0100
0000
0000
0000
,
0012
1000
0103
0010
,
2010
0001
3100
0010
,
1002
0000
0100
0103
0000
0010
1000
0100
,
0000
0110
0000
0000
0000
0000
0000
0000
,
2100
0001
3010
0100
,
0102
1000
0013
0100
,
2001
0000
0010
3010
0000
0100
0001
0000
,
0011
0000
0000
0000
,
0102
0000
0000
1000
0000
0013
0100
0000
,
2100
0000
0000
0001
0000
3010
0100
0000
,
0120
0000
0000
1000
0000
0130
0001
0010
,
0200
1000
0000
0310
0000
0001
0100
0010
,
2000
0000
0000
0001
0000
3100
0010
0000
,
0012
0000
0000
1000
0000
0103
0010
0000
,
0210
0000
0000
0001
0000
0310
1000
0001
,
0010
0200
0000
1000
0000
0310
0001
0100
,
0010
1000
0010
0000
1000
0100
1000
0000
,
0100
0001
0100
0000
0010
0001
1000
0010
,
0100
0001
0100
0000
0001
0010
0001
0000
,
0010
1000
0010
0000
0100
1000
0010
0000
,
0010
1000
0100
1000
0010
1000
0100
0100
,
0010
0001
0100
0001
0010
0001
0100
0100
,
0010
1000
0001
0010
0100
1000
0001
0100
,
0110
0000
0000
0000
,
2002
0000
0000
0000
,
3003
0000
0000
0000
,
0010
0000
0100
0000
0000
0001
0000
0000
1000
0000
0100
0000
0010
0000
0001
0000
,
0100
0000
0010
0000
0000
1000
0000
0000
0001
0000
0100
0000
0010
0000
1000
0000
,
0100
0000
0010
0000
0000
0001
0000
0000
0100
0000
0010
0000
1000
0000
0001
0000
,
0010
0000
0100
0000
0000
1000
0000
0000
0010
0000
0100
0000
0001
0000
1000
0000
,
0100
0000
0010
0000
0000
0001
0000
0000
1000
0000
0010
0000
0100
0000
0001
0000
,
0010
0000
0100
0000
0000
1000
0000
0000
0001
0000
0010
0000
0100
0000
1000
0000
,
0010
0000
0100
0000
0000
0001
0000
0000
0010
0000
0100
0000
1000
0000
0001
0000
,
0100
0000
0010
0000
0000
1000
0000
0000
0100
0000
0010
0000
0001
0000
1000
0000
,
0020
0000
0001
0000
1030
0100
0010
0000
,
0200
0000
0001
0000
1300
0010
0100
0001
,
0020
0000
1000
0000
0031
0100
0010
0000
,
0200
0000
1000
0000
0301
0010
0100
1000
,
0010
0100
0001
0100
0010
0100
0101
0000
,
0100
0010
1000
0010
0100
0010
1010
0000
,
0110
1000
0001
0100
0110
0001
1000
0010
,
0220
0330
0000
0000
,
2002
0000
3003
0000
;

//--------------- dance-single - NAOKI ----------------
#NOTES:
     dance-single:
     NAOKI:
     Challenge:
     14:
     0.741,0.925,0.352,0.278,0.499:
0000
0000
0000
0000
,
0001
0100
0001
1000
0100
0010
0100
1000
,
0001
0100
0010
1000
0001
0010
0100
1000
,
0010
0100
0001
1000
0100
1000
0001
0100
,
0010
1000
0100
0010
0001
0100
0010
0010
,
1000
0100
1000
0001
0100
0010
0100
0001
,
1000
0100
0010
0001
1000
0010
0100
0001
,
0010
0100
1000
0001
1000
0010
0100
0001
,
1001
0000
0000
0000
0000
0000
0000
0000
0011
0000
0000
1010
0000
0000
0011
0000
,
1000
0100
0010
0001
1000
0000
0010
0100
0000
0100
0001
0000
1000
0000
0100
0000
,
0010
0001
1000
0010
0100
0000
0001
0010
0000
0010
0100
0000
1000
0000
0001
0000
,
0100
0010
1000
0001
0010
0000
0100
1000
0000
1000
0001
0000
0100
0000
0010
0000
,
1000
0001
0010
0001
1000
0000
0010
0100
0001
0000
1000
0100
0010
0100
1000
0000
,
0001
0100
0010
1000
0001
0000
0010
0100
0000
0100
1000
0000
0001
0000
0100
0000
,
0010
1000
0001
0010
0100
0000
1000
0010
0000
0010
0100
0000
0001
0000
1000
0000
,
0100
0010
0001
1000
0010
0000
0100
0001
0000
1000
0100
0000
0010
0000
0001
0000
,
0101
0000
0000
1100
0000
0000
0011
0000
0000
1010
0000
0000
0001
0010
0100
1000
,
0001
0100
0010
1000
0001
0000
0010
0100
0000
0100
1000
0000
0001
0000
0100
0000
,
0010
1000
0001
0010
0100
0000
1000
0010
0000
0010
0100
0000
0001
0000
1000
0000
,
0100
0010
0001
1000
0010
0000
0100
0001
0000
0001
1000
0000
0100
0000
0010
0000
,
0001
1000
0010
1000
0001
0000
0010
0100
1000
0000
0001
0100
0010
0100
0001
0000
,
1000
0100
0010
0001
0100
0010
1010
0000
,
0011
0000
0010
0001
1000
0000
0010
0000
0100
0000
0202
0000
0303
0000
0001
1000
,
0100
0000
0010
0001
1000
0000
0010
0000
0110
0000
1000
0000
1001
0000
0100
0000
,
0110
0000
1000
0000
0001
0000
0000
0100
0000
0000
0010
1000
0001
0010
0100
1000
,
0000
0000
0000
0000
0000
0000
0000
0000
0000
0000
0000
0000
0010
1000
0100
0010
,
0002
1000
0103
0110
,
2010
0000
0100
3100
0010
0001
0100
0000
,
0210
0000
0010
0310
0000
1000
0001
0010
,
0000
0000
0100
0000
0000
0000
0000
0000
0000
0000
0000
0000
1000
0001
0010
0100
,
2000
0001
3010
0110
,
0102
0000
0010
0013
0100
1000
0010
0000
,
0120
0000
0100
0130
0000
0001
1000
0100
,
0010
0001
0100
0000
0000
0000
0000
0000
0000
0000
0000
0000
0010
1000
0100
0010
,
0002
0000
0000
0103
0000
0101
0010
0000
,
2010
0000
0000
3100
0000
1100
0010
0000
,
0012
0000
1000
1003
0000
0110
0001
1000
,
0020
0000
0001
0000
0000
0000
1030
0000
0000
0000
0010
0000
0100
0001
1000
0100
,
0020
1000
0000
0031
0100
0010
1001
0010
,
0200
0001
0000
1300
0010
0100
1001
0010
,
0200
1000
0000
0301
0010
0100
1000
0001
,
0110
0000
0000
0000
0100
0000
1002
0000
0000
0003
0010
0100
0000
0000
0100
0000
,
0010
0001
0010
0001
1000
0010
1000
0010
,
0100
0000
0001
0000
0100
0000
0001
0000
1000
0000
0100
0000
1000
0000
0100
0010
,
0001
0100
0001
0100
0010
1000
0010
1000
,
0001
0010
0001
0010
0100
1000
0110
0000
,
0010
0001
0100
0001
0010
0001
0100
0001
1000
0100
1000
0010
1000
0100
1000
0010
,
0100
0001
0010
0001
0100
0001
0010
0001
1000
0010
1000
0100
1000
0010
1000
0100
,
0020
0000
0031
0100
2000
0000
3001
0010
0200
0000
0301
0020
0030
0100
1000
0001
,
0100
0000
0010
0000
1000
0001
0000
0010
0100
0000
1000
0000
0001
1000
0100
0010
,
0002
0000
0000
0000
,
0003
0000
0000
0000
,
0110
0000
1000
0000
0001
0010
0000
001M
1000
0000
0100
0000
0010
0001
1000
0010
,
0100
0000
0010
0000
1000
0100
0000
M100
0001
0000
0010
0000
0100
1000
0001
0200
,
0010
0000
0301
0000
1000
0010
0000
M010
0001
0000
0100
0000
0010
1000
0001
0010
,
0100
0000
0010
0000
0001
0100
0000
010M
1000
0000
0020
0000
0100
0000
0130
0000
,
0110
0000
0001
0000
1000
0010
0000
M010
0001
0000
0100
0000
0010
1000
0001
0010
,
0100
0000
0010
0000
0001
0100
0000
010M
1000
0000
0010
0000
0100
0001
1000
0100
,
0010
0000
0001
0000
1000
0100
0000
M100
0001
0000
0010
0000
0100
1000
0001
0100
,
0010
0000
0100
0000
0001
0010
0000
001M
1000
0000
0100
0000
0010
0001
1000
0010
,
0100
0001
0010
0100
1000
0010
1010
0000
,
0102
1000
0013
0200
0001
0310
0100
1000
,
2100
0001
3010
0200
1000
0310
0100
0110
,
0001
0000
1001
0000
1000
0000
0100
0000
0010
0000
0000
0010
0001
0000
0100
0000
,
0010
1000
0100
0010
0001
0100
0101
0000
,
1100
0000
0100
1000
0001
0000
0100
0000
0010
0000
2020
0000
3030
0000
1000
0001
,
0100
0000
0010
1000
0001
0000
1000
0100
0002
0000
0103
1000
0010
0000
0100
0000
,
0220
0000
0330
0000
0000
0010
0000
1000
0001
0000
0010
0000
0001
0100
0010
2000
,
0002
0000
3003
0000
;
