#TITLE:End of the music;
#SUBTITLE:;
#ARTIST:TOMOYUKI;
#TITLETRANSLIT:;
#SUBTITLETRANSLIT:;
#ARTISTTRANSLIT:;
#GENRE:;
#CREDIT:;
#BANNER:end_of_the_music-bn.png;
#BACKGROUND:end_of_the_music-bg.png;
#LYRICSPATH:End of the music.lrc;
#CDTITLE:NAOKI_cdtitle.png;
#MUSIC:End of the music.ogg;
#OFFSET:1.207;
#SAMPLESTART:83.806;
#SAMPLELENGTH:12.000;
#SELECTABLE:YES;
#BPMS:0.000=189.000;
#STOPS:;
#BGCHANGES:264.000=rotate.avi=1.000=1=0=0=StretchNoLoop==CrossFade==,
267.000=end_of_the_music-bg.png=1.000=1=0=0=StretchNoLoop==CrossFade==,
99999=-nosongbg-=1.000=0=0=0 // don't automatically add -songbackground-
;
#KEYSOUNDS:;

//---------------dance-single - ----------------
#NOTES:
     dance-single:
     :
     Easy:
     8:
     0.427,0.437,0.112,0.192,0.000:
0000
0000
0000
0000
,
0000
0000
0000
0000
,
0000
0000
0000
0000
,
0000
0000
0000
0000
,
0000
0000
0000
0000
,
0000
0000
0000
0000
,
0000
0000
0000
0000
,
0000
0000
0000
0000
,
0000
0000
0000
0000
,
0000
0000
0000
0000
,
0010
0100
0010
1000
,
0001
0010
0100
0010
,
0001
1000
0100
1000
,
0001
0100
0001
1000
,
0100
0010
0100
1000
,
0001
0100
0001
1000
,
0100
1000
0001
0100
,
0020
0000
0030
0000
,
0010
1000
0100
0100
,
0010
0001
0100
0100
,
0010
1000
0001
0010
,
0100
1000
0010
0010
,
0100
0001
0010
0010
,
0100
1000
0010
0010
,
0100
0001
1000
0100
,
0010
0001
0100
1000
,
0010
0001
0100
0100
,
0010
1000
0100
0100
,
0010
0001
1000
0010
,
0100
0001
0010
0010
,
0100
1000
0010
0010
,
0100
0001
0010
0010
,
0100
1000
0001
0100
,
0010
1000
0100
0001
,
0010
0010
1000
0100
,
0010
0010
0001
0100
,
0010
1000
1001
0001
,
0100
0010
1100
0101
,
0010
0010
0001
0100
,
0010
0010
1000
0100
,
0010
0001
1001
1000
,
0100
0010
0101
1100
,
0010
0100
0010
0000
0100
0000
1000
0000
,
0001
0100
0110
1001
,
0001
1000
0100
0000
1000
0001
0100
0000
,
0010
1000
0001
0010
,
0100
0010
0100
0000
0010
0000
0001
0000
,
1000
0010
0110
1001
,
0001
1000
0010
0000
1000
0001
0010
0000
,
0100
1000
0001
0100
,
0020
0000
2030
0000
,
3200
0000
0001
0000
,
0320
0000
0032
0000
,
0203
0000
1000
0000
,
0320
0000
2030
0000
,
3002
0000
0023
0000
,
0230
0000
0000
0000
,
2300
0000
3002
0000
,
0103
0100
0010
0010
,
1000
1000
0001
0001
,
0010
0010
0100
0100
,
1000
1000
0001
0001
,
0100
0010
1000
0001
,
0010
0100
1000
0001
,
0100
1000
0010
0001
,
0200
0000
0300
0000
,
0000
0000
0000
0000
,
0001
0010
0001
0100
,
0001
1000
0100
1000
,
0010
1000
0100
0010
,
0001
1000
0010
0110
,
0100
0001
0010
0010
,
0100
1000
0010
0010
,
0100
0001
1000
0100
,
0010
0001
0100
0010
,
1000
0100
1000
0010
,
1000
0001
0010
0001
,
0100
0001
0010
0100
,
1000
0001
0100
0110
,
0010
1000
0100
0100
,
0010
0001
0100
0100
,
0010
1000
0001
0010
,
0100
1000
0010
0100
,
0002
0013
0200
0310
,
0002
0013
0200
0310
,
0001
1000
0010
0100
,
0001
1000
0100
0010
,
0001
0001
0100
0010
,
1000
1000
0100
0010
,
0001
0001
1000
1000
,
0010
0100
0001
1001
,
2000
3100
0020
0130
,
2000
3100
0020
0130
,
1000
0001
0100
0010
,
1000
0001
0010
0100
,
1000
1000
0010
0100
,
0001
0001
0010
0100
,
1000
1000
0001
0001
,
0100
0010
1000
1001
,
0002
0000
0003
0000
;

//---------------dance-single - ----------------
#NOTES:
     dance-single:
     :
     Medium:
     12:
     0.651,0.672,0.280,0.495,0.000:
0000
0000
0000
0000
,
0000
0000
0000
0000
,
0000
0000
0000
0000
,
0000
0000
0000
0000
,
0000
0000
0000
0000
,
0000
0000
0000
0000
,
0000
0000
0000
0000
,
0000
0000
0000
0000
,
0000
0000
0000
0000
,
0000
0000
0000
0000
,
0010
0000
0010
0000
1000
0100
1000
0000
,
0001
0100
0001
0000
0010
0000
0010
0000
,
0100
0000
0100
0000
1000
0010
1000
0000
,
0001
0010
0001
0000
0100
0000
0100
0000
,
0010
1000
0001
0010
,
0100
1000
0001
0100
,
0010
1000
0001
0100
,
0220
0000
0330
0000
,
0010
1000
0001
0020
0000
0130
2000
0000
,
3001
0200
0000
0310
1000
0000
1000
0200
,
0000
0310
0002
0000
1003
0020
0000
0130
,
0001
0000
0001
0020
0000
0130
1000
0100
,
0010
0001
1000
0020
0000
0130
0002
0000
,
1003
0200
0000
0310
0001
1000
0001
0200
,
0000
0310
2000
0000
3001
0020
0000
0130
,
1000
0000
0001
0100
0000
0010
0100
0010
,
0100
0001
1000
0200
0000
0310
0002
0000
,
1003
0020
0000
0130
0001
1000
0001
0020
,
0000
0130
2000
0000
3001
0200
0000
0310
,
1000
0000
1000
0200
0000
0310
0001
0010
,
0100
1000
0001
0200
0000
0310
2000
0000
,
3001
0020
0000
0130
1000
0001
1000
0020
,
0000
0130
0002
0000
1003
0200
0000
0310
,
0001
0000
1000
0010
0000
0100
0100
0010
,
0010
0000
1002
0000
0010
0013
0000
0100
,
1000
0001
0100
0010
1000
0100
0000
0010
,
0010
0000
2001
0000
0010
3010
0000
0100
,
0001
1000
0100
0010
0001
1000
0010
0100
,
0100
0000
2001
0000
0100
3100
0000
0010
,
0001
1000
0010
0100
0001
0001
1000
1000
,
0100
0000
1002
0000
0100
0103
0000
0010
,
1000
0001
0010
0100
1000
0001
0100
0010
,
2000
0100
3100
0010
0000
0100
0010
0002
,
0100
0103
0010
1000
0100
0010
0001
0000
,
1000
0010
1010
0000
0001
0010
0011
0000
,
0010
0001
1000
0010
0100
0001
0010
0100
,
2000
0010
3010
0100
0000
0010
0100
0002
,
0010
0013
0100
1000
0010
0100
0001
0000
,
1000
0100
1100
0000
0001
0100
0101
0000
,
0100
0001
1000
0100
0010
0001
0100
0010
,
2000
0000
3200
0000
,
0320
0000
0032
0000
,
0203
0000
1300
0100
,
0002
0000
0023
0000
,
0230
0000
2300
0000
,
3020
0000
0031
0010
,
2000
0000
0000
0000
3002
0000
0000
0013
,
0000
0100
0000
1000
0000
0001
0000
0100
,
0010
0010
1000
1000
,
0100
0100
0001
0001
,
1000
1000
0010
0010
,
0001
0001
0100
0100
,
0010
1000
0001
0010
,
0100
1000
0001
0100
,
0010
1000
0100
0010
,
0001
0100
0220
0000
,
0330
0000
0000
0000
,
1010
0000
0010
1000
0100
0000
0011
0000
,
0010
0001
1000
0000
1100
0000
0100
0010
,
0001
0000
0101
0000
0100
0010
1000
0001
,
0010
0100
1000
0010
0000
0100
0001
0000
,
0011
0000
0010
0001
1000
0000
1010
0000
,
0010
0100
0001
0000
0101
0000
0100
0010
,
1000
0000
1100
0000
0100
1000
0001
0000
,
0100
0001
1000
0100
0000
0010
0001
0000
,
1100
0000
0100
1000
0010
0000
0101
0000
,
0100
0010
1000
0000
1010
0000
0010
0100
,
0001
0000
0011
0000
0010
0100
1000
0001
,
0100
0010
1000
0100
0000
0010
0001
0000
,
0101
0000
0100
0001
1000
0000
1100
0000
,
0100
0010
0001
0000
0011
0000
0010
0100
,
1000
0000
1010
0000
0010
1000
0001
0000
,
0010
0001
1000
0010
0000
0100
0001
0000
,
2010
0000
3001
0010
0100
0000
0012
0000
,
1003
0100
0001
0000
2100
0000
3010
0100
,
0001
0000
0102
0000
0013
0100
1000
0001
,
0100
0000
0100
0010
0000
0010
1000
0000
,
0100
0010
0001
1000
0010
0100
1000
0000
,
0100
0010
1000
0001
0010
0100
0001
0000
,
0100
1000
0010
0000
0100
0001
0010
0200
,
0000
2300
0000
3002
0000
0203
0000
0301
,
0012
0000
1003
0010
0100
0000
2010
0000
,
3001
0100
1000
0000
0102
0000
0013
0100
,
1000
0000
2100
0000
3010
0100
0001
1000
,
0100
0000
0100
0010
0000
0010
0001
0000
,
0100
0010
1000
0001
0010
0100
0001
0000
,
0100
0010
0001
1000
0010
0100
1000
0000
,
0100
0001
0010
0000
0100
1000
0010
0000
,
0100
0001
1000
0100
0000
0010
0001
0000
,
1001
0000
0000
0000
;

//---------------dance-single - Copied from----------------
#NOTES:
     dance-single:
     Copied from:
     Beginner:
     4:
     0.326,0.318,0.000,0.104,0.000:
0000
0000
0000
0000
,
0000
0000
0000
0000
,
0000
0000
0000
0000
,
0000
0000
0000
0000
,
0000
0000
0000
0000
,
0000
0000
0000
0000
,
0000
0000
0000
0000
,
0000
0000
0000
0000
,
0000
0000
0000
0000
,
0000
0000
0000
0000
,
0010
0000
0010
0000
,
1000
0000
0001
0000
,
0010
0000
0010
0000
,
0001
0000
1000
0000
,
0100
0000
0100
0000
,
1000
0000
0001
0000
,
0100
0000
0100
0000
,
0002
0000
2003
0000
,
3010
0100
0000
0100
,
0001
0010
0000
0010
,
0100
1000
0000
1000
,
0001
0100
0010
1000
,
0100
0010
0000
0010
,
0001
0100
0000
0100
,
0010
1000
0000
1000
,
0100
0000
0000
0000
,
0010
0100
0000
0100
,
1000
0010
0000
0010
,
0100
0001
0000
0001
,
1000
0100
0010
0001
,
0100
0010
0000
0010
,
1000
0100
0000
0100
,
0010
0001
0000
0001
,
0100
0000
0000
0000
,
0010
1000
0100
0000
,
0010
0001
0100
0000
,
0010
1000
0001
0010
,
0100
0000
0010
0000
,
0100
1000
0010
0000
,
0100
0001
0010
0000
,
0100
1000
0001
0100
,
0010
0000
0100
0000
,
0001
0001
0001
0000
,
1000
1000
1000
0000
,
0001
0010
1000
0010
,
0001
0100
0010
0000
,
1000
1000
1000
0000
,
0001
0001
0001
0000
,
1000
0010
0001
0010
,
1000
0100
0010
0000
,
0002
0000
0003
0000
,
0200
0000
0300
0000
,
0020
0000
0030
0000
,
2000
0000
3000
0000
,
0200
0000
0300
0000
,
0020
0000
0030
0000
,
0002
0000
0003
0000
,
2000
0000
3000
0000
,
0010
0000
0100
0000
,
0010
1000
0100
0000
,
0010
0000
0100
0000
,
0010
0001
0100
0000
,
0010
1000
0010
1000
,
0001
0010
0001
0010
,
0100
1000
0001
0100
,
0020
0000
0200
0000
,
0330
0000
0000
0000
,
0001
0001
1000
1000
,
0001
1000
0001
0001
,
1000
0001
1000
1000
,
0001
0001
1000
1000
,
0001
1000
0001
0001
,
1000
0001
1000
1000
,
0001
0001
1000
1000
,
0001
0001
0001
0001
,
1000
1000
0001
0001
,
1000
0001
1000
1000
,
0001
1000
0001
0001
,
1000
1000
0001
0001
,
1000
0001
1000
1000
,
0001
1000
0001
0001
,
1000
1000
0001
0001
,
1000
1000
1000
1000
,
0001
0001
1000
1000
,
0001
1000
0001
0001
,
1000
0001
1000
1000
,
0001
0001
1000
1000
,
0001
1000
0001
0001
,
1000
0001
1000
1000
,
0001
0001
1000
1000
,
0001
0001
0001
0001
,
1000
1000
0001
0001
,
1000
0001
1000
1000
,
0001
1000
0001
0001
,
1000
1000
0001
0001
,
1000
0001
1000
1000
,
0001
1000
0001
0001
,
1000
1000
0001
0001
,
1000
1000
1000
1000
,
0002
0000
0003
0000
;

//---------------dance-single - Copied from----------------
#NOTES:
     dance-single:
     Copied from:
     Hard:
     16:
     0.979,0.954,0.424,0.463,0.440:
0000
0000
0000
0000
,
0000
0000
0000
0000
,
0000
0000
0000
0000
,
0000
0000
0000
0000
,
0000
0000
0000
0000
,
0000
0000
0000
0000
,
0000
0000
0000
0000
,
0000
0000
0000
0000
,
0000
0000
0000
0000
0000
0000
0000
0020
,
0000
2030
0000
3002
0000
0023
0000
0130
,
1000
0010
0100
1000
0100
0010
1000
0001
,
0010
0100
0001
0100
0010
0001
1000
0010
,
0100
0001
0010
1000
0010
0100
1000
0001
,
0100
0010
0001
0010
0100
0001
1000
0001
,
0010
0100
0001
0100
1000
0010
0100
1000
,
0100
0001
0010
1000
0010
0001
0100
0010
,
0001
0010
1000
0100
0010
0001
1000
0020
,
0200
0000
0000
0000
0000
0000
0030
0000
0301
1000
0010
0100
0001
1000
0010
0100
,
0002
0010
0013
1100
0100
1000
1010
0010
,
0100
0101
0010
1000
1001
0010
0100
2001
,
0010
3010
0101
0100
0001
0011
0010
0100
,
1100
0010
0001
1000
0010
0110
0100
0001
,
2000
0100
3100
0011
0010
0001
0101
0100
,
0010
0110
0100
0001
1001
0100
0010
1002
,
0100
0103
1010
0010
1000
1100
0100
0010
,
2001
0000
3010
0100
0000
0001
0010
0100
,
2000
0010
3010
0101
0100
0001
0011
0010
,
0100
1100
0010
0001
1001
0010
0100
1002
,
0010
0013
1100
0100
1000
1010
0010
0100
,
0101
0010
1000
0001
0010
0110
0100
1000
,
0002
0100
0103
1010
0010
1000
1100
0100
,
0010
0011
0100
1000
1001
0100
0010
2001
,
0100
3100
0011
0010
0001
0101
0100
0010
,
1002
0000
0013
0100
0000
1100
1000
0001
,
0102
0000
2003
0000
3100
0010
0001
0100
,
1000
0000
0100
0000
0010
0000
1000
0000
0100
00M0
0100
0000
0001
0000
0010
0000
,
2100
0000
3002
0000
0103
0010
1000
0100
,
0001
0100
0010
0001
0100
0010
1000
0100
,
0012
0000
2003
0000
3010
0100
0001
0010
,
1000
0000
0010
0000
0100
0000
1000
0000
0010
0M00
0010
0000
0001
0000
0100
0000
,
2010
0000
3002
0000
0013
0120
0000
0130
,
1000
0001
0100
0010
1000
0100
0010
0001
,
1000
0010
0100
0010
1000
0000
0001
0000
0010
0000
0100
0000
1000
0000
0010
0000
,
0100
0000
0001
0000
1000
0000
0100
0000
0010
0000
0001
1000
0001
0000
0100
0000
,
0010
1000
0001
1000
0100
0000
0010
0000
0100
1000
0001
1000
0010
0000
0100
0000
,
0001
0000
1000
0100
1000
0000
0001
0100
0010
1000
0010
0100
0001
0000
0100
0000
,
0001
0010
0100
0010
0001
0000
0100
0000
0010
0000
1000
0001
1000
0000
0100
0000
,
0010
0001
0010
0000
0100
0000
1000
0100
0010
0001
0010
0100
1000
0000
0100
0000
,
0010
0001
1000
0001
0100
0000
0010
0000
0100
0001
1000
0001
0010
0000
0100
0000
,
0010
0100
1000
0001
0100
0000
0010
0000
1000
0000
2020
0000
3030
0000
0001
0000
,
0022
0030
0200
0003
,
0020
0300
2000
0030
,
0200
3000
0301
0200
,
2000
0300
0020
3000
,
0200
0030
1300
0200
,
0002
0300
0020
0030
,
2000
0000
0003
0000
0020
0000
3030
0200
,
0000
0302
0000
2003
0000
3200
0000
0310
,
0001
0100
0010
0100
0001
0010
0100
0010
,
0001
0000
1000
0000
0010
0000
0100
0000
0001
0000
0010
0000
0100
0000
1000
0001
,
1000
0010
0100
0010
1000
0100
0010
0100
,
1000
0000
0001
0000
0100
0000
0010
0000
1000
0000
0100
0000
0010
0000
0001
1000
,
0001
0000
0100
0000
0010
0000
1000
0000
0001
0000
0010
0000
0100
0000
1000
0001
,
1000
0000
0010
0000
0100
0000
0001
0000
1000
0000
0100
0000
0010
0000
0001
1000
,
0001
0100
0010
1000
0100
0010
0001
0100
,
0010
0000
0000
0000
0000
0000
0000
0000
1000
0001
0100
0010
1000
0001
0200
0000
,
03M0
0000
0000
0000
,
0001
0100
0010
0100
0001
0000
1000
0001
1000
0000
0100
0000
0010
0001
0010
0000
,
0001
0010
0001
0000
1000
0000
0010
0000
0100
0000
0100
0000
0010
0000
1000
0000
,
0001
0000
0010
0100
0010
0000
0001
0000
1000
0100
1000
0000
0001
0000
1000
0010
,
1000
0000
0001
0000
0100
0010
0100
0000
0010
0000
2000
0000
0001
0000
3001
0000
,
0010
0000
0100
1000
0001
0100
0020
0000
0130
0000
0001
1000
0100
0000
0010
0000
,
0001
1000
0010
0000
0100
0001
1000
0100
0010
0000
0002
0000
1000
0000
1003
0000
,
0100
0010
0011
0100
0011
1000
0100
0010
,
0001
1000
0010
0100
0001
1000
0100
0000
,
1000
0100
0010
0100
1000
0000
0001
1000
0001
0000
0100
0000
0010
1000
0010
0000
,
1000
0010
1000
0000
0001
0000
0010
0000
0100
0000
0100
0000
0010
0000
0001
0000
,
1000
0000
0010
0100
0010
0000
1000
0000
0001
0100
0001
0000
1000
0000
0001
0010
,
0001
0000
1000
0000
0100
0010
0100
0000
0010
0000
0002
0000
1000
0000
1003
0000
,
0010
0000
0100
0001
1000
0100
0020
0000
0130
0000
1000
0001
0100
0000
0010
0000
,
1000
0001
0010
0000
0100
1000
0001
0100
0010
0000
2000
0000
0001
0000
3001
0000
,
0100
0010
1010
0100
1010
0001
0100
0010
,
1000
0001
1000
0001
0100
0000
0010
0000
1001
0000
0100
0000
0010
0000
0000
0000
,
1000
0010
0100
0010
1000
0000
0001
1000
0001
0000
0010
0000
0100
1000
0100
0000
,
1000
0100
1000
0000
0001
0000
0100
0000
0010
0000
0010
0000
0100
0000
0001
0000
,
1000
0000
0100
0010
0100
0000
1000
0000
0001
0010
0001
0000
1000
0000
0001
0100
,
0001
0000
1000
0000
0010
0100
0010
0000
1000
0000
0100
0000
0010
0000
0001
0000
,
0100
0000
0010
1000
0001
1000
0010
M00M
0010
0001
1000
0001
0010
0000
0100
1000
,
0001
1000
0100
M00M
0100
0001
1000
0001
0100
0000
0010
0000
1000
0000
0001
0000
,
0010
0100
1100
0010
1100
0001
0010
0200
,
0010
0000
2300
0000
0001
0000
3020
0000
0100
0030
0000
0100
0010
0000
1000
0000
,
0001
0010
0100
0010
0001
0000
1000
0001
1000
0000
0010
0000
0100
0001
0100
0000
,
0001
0100
0001
0000
1000
0000
0100
0000
0010
0000
0010
0000
0100
0000
1000
0000
,
0001
0000
0100
0010
0100
0000
0001
0000
1000
0010
1000
0000
0001
0000
1000
0100
,
1000
0000
0001
0000
0010
0100
0010
0000
0001
0000
0100
0000
0010
0000
1000
0000
,
0100
0000
0010
0001
1000
0001
0010
M00M
0010
1000
0001
1000
0010
0000
0100
0001
,
1000
0001
0100
M00M
0100
1000
0001
1000
0100
0000
0010
0000
0001
0000
1000
0000
,
0010
0100
0101
0010
0101
1000
0010
0100
,
0001
1000
0001
1000
0010
0000
0100
0000
1001
0000
0010
0000
0100
0000
0000
0000
,
0220
0000
0330
0000
;
