#TITLE:ELECTRONIC FUSION;
#SUBTITLE:;
#ARTIST:TOMOYUKIvsYAGISUKE;
#TITLETRANSLIT:;
#SUBTITLETRANSLIT:;
#ARTISTTRANSLIT:;
#GENRE:;
#CREDIT:;
#MUSIC:ELECTRONIC FUSION.ogg;
#BANNER:ELECTRONIC_FUSION-bn.png;
#BACKGROUND:ELECTRONIC_FUSION-bg.png;
#CDTITLE:NAOKI_cdtitle.png;
#SAMPLESTART:86.080;
#SAMPLELENGTH:12.000;
#SELECTABLE:YES;
#OFFSET:-0.111;
#BPMS:0.000=173.000
,138.000=259.500
,139.667=173.000
;
#STOPS:138.083=0.019
,138.250=0.019
,138.417=0.019
,138.583=0.019
,138.750=0.019
,138.917=0.019
,139.083=0.019
,139.250=0.019
,139.417=0.019
,139.583=0.019
;
#MENUCOLOR:;
#METERTYPE:DDR;
#LISTSORT:;
#BGCHANGES:;
#FGCHANGES:;

//--------------- dance-single - NAOKI ----------------
#NOTES:
     dance-single:
     NAOKI:
     Beginner:
     2:
     0.184,0.312,0.017,0.093,0:
0000
0000
0000
0000
,
0000
0000
0000
0000
,
0000
0000
0000
0000
,
0000
0000
0000
0000
,
0000
0000
0000
0000
,
0000
0000
0000
0000
,
0000
0000
0000
0000
,
0000
0000
0000
0000
,
0000
0000
0000
0000
,
2000
0000
3000
0000
,
0010
0000
0100
0000
,
0002
0000
0003
0000
,
0010
0000
0100
0000
,
2000
0000
3000
0000
,
0100
0000
0010
0000
,
0002
0000
0003
0000
,
0100
0000
0010
0000
,
1000
0000
0000
0000
,
0200
0000
0300
0000
,
0010
0000
0001
0000
,
1000
0000
0010
0000
,
0100
0000
0001
0000
,
0020
0000
0030
0000
,
0100
0000
1000
0000
,
0001
0000
0100
0000
,
0020
0000
0030
0000
,
1000
0000
0001
0000
,
0010
0000
0100
0000
,
1000
0000
0001
0000
,
0200
0000
0300
0000
,
0010
0000
0010
0000
,
1000
0000
1000
0000
,
0001
0000
0001
0000
,
0010
0000
0010
0000
,
0100
0000
0100
0000
,
1000
0000
1000
0000
,
0001
0000
0001
0000
,
0100
0000
0100
0000
,
0010
0000
1000
0000
,
0001
0000
0000
0000
,
0010
0000
0001
0000
,
1000
0000
0000
0000
,
0100
0000
1000
0000
,
0001
0000
0000
0000
,
0100
0000
0001
0000
,
1000
0000
0000
0000
,
0100
0000
0000
0000
,
0010
0000
0000
0000
,
0001
0000
0000
0000
,
1000
0000
0000
0000
,
0010
0000
0000
0000
,
0100
0000
0000
0000
,
0001
0000
0000
0000
,
1000
0000
0000
0000
,
0001
0000
0001
0000
,
1000
0000
1000
0000
,
0010
0000
0010
0000
,
0100
0000
0100
0000
,
0001
0000
0001
0000
,
0010
0000
0010
0000
,
0100
0000
0100
0000
,
2000
3000
0002
0003
,
0100
0010
0000
0010
,
1000
0100
0000
0010
,
0001
0001
1000
1000
,
0020
0000
0000
0030
0000
0000
0000
0000
,
0100
0100
0010
0010
,
0100
0010
1000
0001
,
0010
0100
1000
0001
,
1001
0000
0000
0000
,
1000
0000
0010
0000
,
0100
0001
0100
0000
,
0001
0000
0010
0000
,
0100
1000
0100
0000
,
0010
0000
0001
0000
,
1000
0010
0100
0000
,
0001
0001
1000
1000
,
0100
0000
0010
0000
,
1001
0000
0001
0000
,
1000
0010
0000
0010
,
0000
0100
0000
0100
,
0000
0001
0000
0001
;

//--------------- dance-single - NAOKI ----------------
#NOTES:
     dance-single:
     NAOKI:
     Easy:
     6:
     0.311,0.381,0.034,0.17,0:
0000
0000
0000
0000
,
0000
0000
0000
0000
,
0000
0000
0000
0000
,
0000
0000
0000
0000
,
0000
0000
0000
0000
,
0000
0000
0000
0000
,
0000
0000
0000
0000
,
0000
0000
0000
0000
,
0000
0000
0000
0000
,
2000
0100
0000
3100
,
0010
0001
0000
1000
,
0010
0100
0000
0001
,
1000
0100
0000
0010
,
0002
0100
0000
0103
,
0010
1000
0000
0001
,
0010
0100
0000
1000
,
0001
0100
0000
0010
,
1000
1000
0001
0001
,
0020
0100
0130
1000
,
0001
0100
0010
0010
,
2000
3100
0002
0103
,
0010
0001
1000
0010
,
0200
0010
0310
0100
,
0001
1000
0200
0010
,
0310
0001
1000
0010
,
0200
1000
0301
0000
,
1000
0100
0010
0100
,
1000
0001
0100
0010
,
0100
0001
1000
0100
,
0020
0030
0001
1000
,
0010
0000
0010
0000
,
0100
0001
1000
0000
,
0100
0000
0100
0000
,
0010
0001
1000
0010
,
0100
0000
0100
0000
,
0010
1000
0001
0000
,
0010
0000
0010
0000
,
0100
1000
0001
0100
,
0010
0000
0010
0000
,
1000
0001
1000
0000
,
0100
0000
0010
0000
,
0001
1000
0001
0000
,
0100
0000
0010
0000
,
1000
0001
1000
0000
,
0100
0000
0100
0000
,
0010
0000
0001
1000
,
0002
0000
0103
0000
,
2000
0000
3100
0000
,
0020
0000
0130
0000
,
0001
1000
0001
0000
,
2000
0000
3100
0000
,
0002
0000
0103
0000
,
0020
0000
0130
0000
,
1000
0001
1000
0000
,
0010
0010
0100
0100
,
0001
0001
1000
1000
,
0100
0100
0010
0010
,
0001
0001
1000
1000
,
0010
0100
0001
1000
,
0100
0010
0001
1000
,
0010
0010
0100
0100
,
0002
0013
2000
3010
,
0100
0100
1000
0001
,
0100
0110
0001
1000
,
0100
0100
0010
0010
,
0002
1003
1001
0000
,
0010
0010
1000
0100
,
0010
0010
0001
0100
,
0010
1000
0100
0010
,
0002
0000
1003
0000
,
0010
1000
0100
0100
,
0010
0001
0100
0100
,
0010
1000
1001
0000
,
0010
0001
1001
0000
,
0100
0010
1000
1000
,
0100
0010
0001
0001
,
0100
0100
0100
0100
,
0010
0000
1000
0001
,
2000
3000
0100
0000
,
0010
0000
0001
0000
,
1000
0010
0000
0100
,
0000
0001
0000
1000
;

//--------------- dance-single - NAOKI ----------------
#NOTES:
     dance-single:
     NAOKI:
     Medium:
     11:
     0.413,0.589,0.102,0.348,0:
0000
0000
0000
0000
,
0000
0000
0000
0000
,
0000
0000
0000
0000
,
0000
0000
0000
0000
,
0000
0000
0000
0000
,
0000
0000
0000
0000
,
0000
0000
0000
0000
,
0000
0000
0000
0000
,
0000
0000
0000
0000
,
2000
0010
0000
0010
,
3002
0010
0000
0013
,
0100
1000
0001
0100
,
0010
1000
1001
0000
,
0002
0010
0000
0010
,
2003
0010
0000
3010
,
0100
0001
1000
0100
,
0010
0001
1001
0000
,
1000
0000
1000
0000
0001
0100
0010
0000
,
0200
0010
0310
1000
,
0002
0013
1100
0101
,
0020
0000
1030
0001
0020
0000
0031
1000
,
0010
0100
0001
1000
,
0200
0010
0310
0001
,
2000
3010
0102
0013
,
0100
1000
0001
0100
,
0020
0000
0001
0000
1030
0000
0001
0010
,
0100
1000
0001
0100
,
0010
0000
1000
0100
0010
0000
0001
0000
,
2000
0010
3010
0100
,
0002
0000
1003
0000
0010
1000
0100
0000
,
0010
0000
0010
0000
0001
0000
1000
0010
,
0100
0000
0100
0000
0001
0000
1000
0100
,
0010
0000
0100
0000
1000
0000
0001
0100
,
0010
0000
0010
0000
0100
0000
0001
0010
,
0100
0000
1000
0000
0002
0000
0000
0003
,
0100
0010
1000
0100
0010
0000
0001
0000
,
1000
0010
0100
0000
0001
0100
0010
1000
,
0001
0010
0100
0000
1000
0000
0001
0100
,
0010
0000
0000
1000
0001
0000
0000
0000
,
0010
0000
0100
0000
,
1000
0000
0000
0001
1000
0000
0000
0000
,
0010
0000
0100
0000
,
0001
0000
0000
0001
1000
0000
0000
0000
,
0100
0000
0010
0000
,
0001
0000
0000
1000
0001
0000
0000
0000
,
0100
0000
0010
0000
,
2000
0001
3000
0001
,
0020
0100
0030
0010
,
0002
1000
0003
1000
,
0020
0100
0030
0010
,
2000
0001
3000
0001
,
0200
0010
0300
0100
,
0002
1000
0003
1000
,
0200
0010
0300
0000
,
1000
1000
0001
0001
,
0100
0100
0010
1000
,
0001
0001
1000
1000
,
0100
0100
0010
0001
,
1000
0000
0010
0000
0100
0001
0100
0000
,
0001
0000
0010
0000
0100
1000
0100
0000
,
0010
0001
0100
0010
,
1000
0100
0010
0000
0001
0100
0010
0000
,
1000
0000
1000
0000
0001
0010
0100
0010
,
0001
0000
1001
0000
1000
0010
0100
0010
,
2000
3200
0320
0031
,
0200
1000
0301
0000
,
0020
1030
0020
0230
,
0301
0200
1300
0100
,
0010
0100
0001
0000
0010
0100
1000
0000
,
0002
0000
2000
3003
,
0100
0000
0010
0001
1000
0000
0010
0100
,
0001
1000
0100
0010
,
0011
1100
0202
0303
,
1010
0101
2200
3300
,
0010
0000
0001
0000
1000
0010
0100
0000
,
0001
0010
0100
1000
,
0002
0203
0320
1030
,
0200
0000
0001
0000
1300
0001
0100
0010
,
1000
0100
0010
0000
,
0001
0100
0010
0000
,
1000
0100
0000
0010
,
0001
1000
0010
0100
;

//--------------- dance-single - NAOKI ----------------
#NOTES:
     dance-single:
     NAOKI:
     Hard:
     13:
     0.575,0.728,0.017,0.356,0.182:
0000
0000
0000
0000
,
0000
0000
0000
0000
,
0000
0000
0000
0000
,
0000
0000
0000
0000
,
0000
0000
0000
0000
,
0000
0000
0000
0000
,
0000
0000
0000
0000
,
0000
0000
0000
0000
,
0000
0000
0000
0000
,
2000
0000
3100
0020
0000
0031
2000
0000
,
3010
0200
0000
0301
1000
0100
0010
0001
,
0000
1000
0000
0010
0000
0100
0000
0001
,
1000
0001
0000
0010
0000
0100
0000
1000
,
0002
0000
0103
0020
0000
1030
0002
0000
,
0013
0200
0000
1300
0001
0100
0010
1000
,
0000
0001
0000
0010
0000
0100
0000
1000
,
0001
0100
0000
0010
0000
1000
0100
0010
,
0001
0000
0000
0000
1000
0000
0000
0000
0010
0000
0100
0000
0001
1000
0001
0000
,
0020
0000
0100
0000
0031
1000
0010
0100
,
0002
0013
2001
3010
,
0100
0000
0000
0100
0001
0000
0010
0000
0100
0000
0000
0100
1000
0000
0010
0000
,
0100
0000
0000
0100
0010
0000
1000
0000
0001
0000
0010
0000
0100
0000
0000
0000
,
0200
0000
0010
0000
1300
0001
0100
0010
,
2000
3100
1002
0103
,
0020
0000
0000
2030
0000
0000
3002
0000
0023
0000
0000
0230
0000
0000
2300
0000
,
3001
0000
0000
0000
0010
0000
0000
0000
0100
0000
0000
0000
1000
0001
1000
0000
,
0010
0000
0000
0010
1000
0000
0100
0000
0010
0000
0000
0010
0001
0000
1000
0000
,
0010
0000
0000
0010
0100
0000
0001
0000
1000
0000
0100
0000
0010
0000
0000
0000
,
0002
1000
0103
0010
,
2000
0000
0001
0000
3100
0010
0001
0100
,
0010
0000
0000
1000
0001
0000
0010
0000
0100
0000
0000
0000
1000
0000
0001
0000
,
0100
0010
0100
0000
0001
0000
1000
0000
0100
0000
0000
0000
0010
0000
0010
0000
,
0001
0000
0000
0100
0010
0000
1000
0000
0001
0000
0000
0000
0010
0000
0100
0000
,
1000
0000
0000
1000
0000
0000
1000
0000
0001
0000
0100
0000
0010
1000
0010
0000
,
0100
0000
0000
0001
1000
0000
0100
0000
0020
0000
0000
0000
0031
0000
1000
0000
,
0010
0100
0010
0000
1000
0000
0100
0000
0010
0000
0000
0000
0001
0000
0000
0000
,
1000
0000
0000
0010
0100
0000
0001
0000
1000
0000
0000
0000
0100
0000
0100
0000
,
0010
0001
0010
0000
0100
0000
1000
0000
0001
0100
0001
0000
0100
0000
0100
0000
,
0010
0000
0000
1000
0001
0000
0010
0000
,
0100
1000
0100
0000
0010
0000
0001
0000
1000
0000
0000
0000
0010
0000
0000
0000
,
0100
0000
0000
0001
1000
0000
0100
0010
,
0001
0000
0000
0001
0000
0000
0001
0000
0100
0000
0010
0000
1000
0000
0100
0000
,
0010
0000
0000
0001
1000
0000
0010
0000
,
0100
0001
0100
0000
0010
0000
1000
0000
0001
0000
0010
0000
0000
0000
0010
0000
,
0100
2000
3001
2000
3010
0100
0000
0010
,
0100
0002
1003
0002
0013
0000
0100
0000
,
2000
0000
0010
0000
0000
0000
3010
0100
,
0002
0000
0010
0000
0000
0000
0013
0100
,
2000
0001
0000
3001
,
1000
0010
0000
0100
0000
0001
0000
1000
,
0002
0000
0100
0000
0000
0000
0103
0010
,
2000
0000
0100
0000
0000
0000
3100
0010
,
0002
1000
0000
1003
,
0001
0100
0000
0010
0000
1000
0000
0000
,
0001
0001
0100
0100
,
0010
0000
0010
0000
1000
0100
0010
0001
,
1000
1000
0010
0010
,
0100
0000
0100
0000
0001
0010
0100
1000
,
0001
0100
0010
0000
0010
0100
0001
0000
,
1000
0100
0010
0000
0010
0100
1000
0000
,
0001
0100
0010
1000
0001
0010
0100
0000
,
1000
0010
0100
0000
0001
0010
0100
0000
,
1000
0100
0010
0100
1000
0001
1000
0010
,
0100
0000
0000
0100
0000
0000
0001
0000
1000
0000
0100
0000
0010
0000
0001
0000
,
2000
0000
3020
0000
0230
0000
0301
1000
,
0200
0001
1300
0000
,
0001
0100
0001
0000
0100
0000
0010
1000
0010
0000
1000
0000
0100
1000
0100
0000
,
0010
0000
0001
0010
0001
0000
0010
0000
0100
0000
1000
0000
0001
0000
0100
0000
,
0010
1000
0010
0000
0100
0001
0100
0000
0010
0000
1000
0000
0100
0000
0010
0000
,
0002
0000
2000
0003
,
3010
0000
0000
0010
0100
0000
0001
0000
1000
0000
0100
0000
0010
0000
0100
0000
,
1000
0000
0000
1000
0001
0000
0100
0000
0010
0000
1000
0000
0100
0000
0100
0000
,
0010
0000
0000
0001
1000
0000
0010
0000
0200
0000
0000
0000
0300
0000
0000
0000
,
0010
0000
0000
1000
0001
0000
0010
0000
0200
0000
0000
0000
0300
0000
0000
0000
,
0010
0000
0000
0010
0100
0000
1000
0000
0001
0000
0100
0000
0010
0000
0010
0000
,
1000
0001
0010
0100
0010
0001
1000
0010
,
0100
0000
0000
0100
0001
0000
0000
0001
1000
0000
0000
1000
0100
0000
0000
0100
,
0020
0000
0000
0000
0031
0000
0000
0000
1000
0010
1000
0010
1000
0010
1000
0010
,
1000
0001
0000
1000
,
0000
0100
0000
0010
,
0000
0001
0000
1000
,
0000
0010
0000
0100
;

//--------------- dance-single - NAOKI ----------------
#NOTES:
     dance-single:
     NAOKI:
     Challenge:
     17:
     0.905,1,0.059,0.559,0.966:
0000
0000
0000
0000
,
0000
0000
0000
0000
,
0000
0000
0000
0000
,
0000
0000
0000
0000
,
0000
0000
0000
0000
,
0000
0000
0000
0000
,
0000
0000
0000
0000
,
0000
0000
0000
0000
,
0000
0000
0000
0000
,
2000
0010
0000
3010
0100
0001
1000
0100
,
0000
0010
0001
0000
1000
0010
0100
0001
,
1000
0100
0000
0010
0001
0100
0000
0010
,
1000
0100
0000
0010
0001
1000
0010
0100
,
0002
0010
0000
0013
0100
1000
0001
0100
,
0000
0010
1000
0000
0001
0010
0100
1000
,
0001
0000
0100
0010
0100
0000
0001
1000
0001
0000
0010
0100
1000
0000
0001
0000
,
0100
0010
1000
0001
0100
0010
1000
0001
0010
0100
1000
0001
0010
0100
1000
0001
,
0100
0000
0000
0000
0000
0000
0000
0000
0000
0000
0000
0000
0000
0000
0000
0000
0010
0000
0000
0000
0000
0000
0000
0000
0000
0000
0000
0000
0000
0000
0000
0000
1000
0000
0000
0000
0000
0000
0000
0000
0000
0100
0000
0000
0010
0000
0000
0000
0001
0000
0000
0000
1000
0000
0000
0000
0010
0000
0000
0000
0000
0000
0000
0000
,
0200
0000
0000
0000
0310
0000
1000
0000
0001
0000
0010
0100
2000
0000
3001
0000
,
0200
0000
0000
0000
0000
0000
0000
0000
0010
0000
0000
0000
0000
0000
0000
0000
0301
0000
0000
0000
0000
0000
0000
0000
1000
0000
0000
0000
0000
0100
0000
0000
0020
0000
0000
0000
0000
0000
0000
0000
0030
0000
0000
0000
0000
0000
0000
0000
0001
0000
0000
0000
0000
0000
0000
0000
1000
0000
0000
0000
0000
0000
0000
0000
,
0020
0000
0030
0100
0001
0000
1000
0000
0200
0000
0300
0010
0001
0000
0100
0000
,
0020
0000
1030
0001
0010
0000
0100
0000
1000
0000
0001
0000
0100
0000
0000
0000
,
0020
0000
0030
0100
0001
0000
1000
0000
0200
0000
0300
0010
0001
0000
1000
0000
,
0010
0000
0100
0001
1000
0000
0100
0000
0020
0000
0000
0000
0031
0000
0000
0000
,
1020
0000
0000
0230
0000
0000
0301
0000
1000
0200
0000
0000
0310
0000
0001
0000
,
0012
0000
0000
0000
1000
0000
0000
0000
0103
0000
0000
0000
0010
0100
0001
0100
,
0020
0000
0030
1000
0001
0000
0020
0000
0130
0000
1000
0001
0100
0000
0010
0000
,
2000
0000
3000
0100
0010
0000
0002
0000
1003
0000
0010
0100
0010
0000
1000
0000
,
0001
0010
0100
0010
0001
0010
0100
0010
0001
1000
0010
0100
0010
1000
0002
0003
,
0100
0010
1000
0001
0010
0001
1000
0100
1000
0001
0100
0010
1000
0001
0010
0100
,
1000
0000
0000
0000
0000
0000
0000
0000
0000
0000
0000
0000
0001
0000
0000
0000
0100
0000
0000
0000
0000
0000
0000
0000
0010
0000
0000
0000
0000
0000
0000
0000
1000
0000
0000
0000
0001
0000
0000
0000
1000
0000
0000
0000
0001
0000
0000
0000
0020
0030
0000
0000
0000
0000
0000
0000
0020
0030
0000
0000
0000
0000
0000
0000
,
0100
1000
0001
0000
0100
0000
0010
0000
0220
0000
0330
0000
1000
0010
0100
0010
,
1000
0000
0001
0010
0100
0000
1000
0000
0001
0100
0010
0100
0001
0100
0010
1000
,
0001
0000
0010
0100
1000
0001
0010
0001
1000
0010
0100
0010
1000
0001
0010
0100
,
1000
0000
0000
0000
0000
0000
0001
0000
0000
0100
0000
0000
0010
0000
0000
0100
0000
0000
0001
0000
0000
1000
0000
0000
0001
0000
0010
0000
0100
0000
1000
0000
0001
0000
0100
0000
0010
0000
1000
0000
0001
0000
0100
0000
0020
0000
0030
0000
,
1000
0100
0040
0030
0001
0100
0040
0030
1000
0001
0010
0100
0010
0001
1000
0000
,
0010
0000
0000
0000
0100
0000
0000
0000
0001
0000
0000
0000
1000
0000
0000
0000
0200
0000
0000
0000
0300
0000
0000
0000
0010
0000
0000
0000
0001
0000
0000
0000
0100
0000
0000
0000
0010
0000
0000
0000
1000
0000
0000
0000
0001
0000
0000
0000
0200
0300
0000
0000
0000
0000
0000
0000
0200
0300
0000
0000
0000
0000
0000
0000
,
0010
0000
0000
0000
1000
0000
0000
0000
0001
0000
0000
0000
0010
0000
0000
0000
0200
0000
0000
0000
0300
0000
0000
0000
1000
0000
0000
0000
0001
0000
0000
0000
0100
0000
0000
0000
0010
0000
0000
0000
1000
0000
0000
0000
0001
0000
0000
0000
0020
0030
0000
0000
0000
0000
0000
0000
0020
0030
0000
0000
0000
0000
0000
0000
,
0100
0000
1000
0000
0001
0000
0100
0000
0010
0000
1000
0000
0100
M00M
0100
0000
,
0001
1000
0001
0000
0010
0000
0100
0000
1000
0001
1000
0000
0001
0100
0010
0100
,
0001
1000
0100
0010
0002
0000
1003
0000
0010
0100
0001
0100
0010
1000
0001
0010
,
0100
0000
1000
0001
0100
M00M
0100
0000
0010
0001
1000
0010
0000
0100
0010
1000
,
0001
0010
0100
0010
0001
1000
0001
0100
0010
0100
0001
0000
1000
0100
0010
0001
,
2000
0000
0010
0000
3002
0000
0013
0000
0100
0000
0010
0000
0001
1000
0010
1000
,
0001
0000
0000
0000
0010
0000
0000
0000
0200
0300
0000
0000
1000
0000
0000
0000
0001
0000
0000
0000
0010
0000
0000
0000
0200
0300
0000
0000
1000
0000
0000
0000
0001
0000
0000
0000
0010
0000
0000
0000
0001
0000
0000
0000
1000
0000
0000
0000
0100
0000
0000
0000
0010
0000
0000
0000
0100
0000
0000
0000
1000
0000
0000
0000
,
0001
0000
0000
0000
0100
0000
0000
0000
0020
0030
0000
0000
1000
0000
0000
0000
0001
0000
0000
0000
0100
0000
0000
0000
0020
0030
0000
0000
1000
0000
0000
0000
0001
0000
0000
0000
0010
0000
0000
0000
0100
0000
0000
0000
0010
0000
0000
0000
0001
0000
0000
0000
1000
0000
0000
0000
0001
0000
0000
0000
0100
0000
0000
0000
,
0020
0000
0000
1000
0000
0000
0031
0000
0000
0000
0010
0000
1000
0000
0001
0000
,
0020
0000
0000
0100
0000
0000
0031
0000
1000
0000
0010
0000
0100
0000
0010
0000
,
2000
0000
0000
0001
0000
0000
3100
0000
0000
0000
0010
0000
0001
0000
1000
0000
,
0010
0100
0000
0101
0000
1010
0000
0010
,
0200
0000
0000
0001
0000
0000
1300
0000
0000
0000
0100
0000
0001
0000
1000
0000
,
0200
0000
0000
0010
0000
0000
1300
0000
0001
0000
0100
0000
0010
0000
0100
0000
,
0002
0000
0000
1000
0000
0000
0013
0000
0000
0000
0100
0000
1000
0000
0001
0000
,
0100
0010
0000
1010
0000
0101
0000
0000
,
2010
0000
0000
0001
0000
0000
3100
0000
0000
0000
0010
0000
0001
0000
1000
0000
,
0020
0000
0000
0100
0000
0000
0130
0000
0001
0000
1000
0000
0100
0000
0010
0000
,
0002
0000
0000
1000
0000
0000
0103
0000
0000
0000
0010
0000
1000
0000
0001
0000
,
0010
0100
0000
1000
0000
0001
0000
0100
,
0010
0000
0000
0010
1000
0000
0001
0000
0010
0000
0100
0000
1000
0000
0001
0000
,
0100
0000
0000
0100
0010
0000
1000
0000
0001
0000
0010
0000
0100
0000
0010
0000
,
0001
0010
0001
1000
0010
0100
0010
1000
0001
1000
0100
0010
0100
1000
0001
0100
,
0010
1000
1100
0000
0010
0001
0101
0000
,
1000
0000
0000
0010
0000
0000
1000
0000
0000
0000
0000
0000
0001
0000
0000
0000
0100
0000
0000
0000
0010
0000
0000
0000
1000
0000
0000
0000
0001
0000
0000
0000
0010
0000
0000
0000
0100
0000
0000
1000
0000
0000
0001
0000
0000
0100
0000
0000
,
0040
0030
0000
0000
0000
0000
0000
0000
0000
0000
0000
0000
0000
0000
0000
0000
0000
0000
0000
0000
0000
0000
0000
0000
1000
0000
0000
0000
0000
0000
0000
0000
0000
0000
0000
0000
0002
0000
0000
0000
0000
0000
0000
0000
0000
0000
0000
0000
0000
0000
0000
0000
0000
0000
0000
0000
0000
0000
0000
0000
0013
0000
0000
0000
0000
0000
0000
0000
0000
0000
0000
0000
0000
0000
0000
0000
0000
0000
0000
0000
0000
0000
0000
0000
0100
0000
0000
0000
0000
0000
0000
0000
0000
0000
0000
0000
1000
0000
0000
0000
0000
0000
0000
0000
0000
0000
0000
0000
0000
0000
0000
0000
0001
0000
0000
0000
0000
0000
0000
0000
0000
0000
0000
0000
0000
0000
0000
0000
0100
0000
0000
0000
0000
0000
0000
0000
0000
0000
0000
0000
0000
0000
0000
0000
0010
0000
0000
0000
0000
0000
0000
0000
0000
0000
0000
0000
0000
0000
0000
0000
0100
0000
0000
0000
0000
0000
0000
0000
0000
0000
0000
0000
0000
0000
0000
0000
0001
0000
0000
0000
0000
0000
0000
0000
0000
0000
0000
0000
0000
0000
0000
0000
,
1000
0000
0100
M0M0
0100
0000
0001
0000
0010
0M0M
0010
0000
1000
0000
0100
M00M
0100
0000
0001
0000
1000
0000
0100
0000
,
0040
0000
0000
0000
0000
0000
0000
0000
0004
0000
0000
0000
0000
0000
0000
0000
0000
0000
0000
0000
0000
0000
0000
0000
0000
0000
0000
0000
0000
0000
0000
0000
0030
0000
0000
0000
0000
0000
0000
0000
0003
0000
0000
0000
0000
0000
0000
0000
1000
0000
0000
0000
0000
0000
0000
0000
0000
0000
0000
0000
0100
0000
0000
0000
0000
0000
0000
0000
0000
0000
0000
0000
0010
0000
0000
0000
0000
0000
0000
0000
0000
0000
0000
0000
0001
0000
0000
0000
0000
0000
0000
0000
0000
0000
0000
0000
1000
0000
0000
0000
0000
0000
0000
0000
0000
0000
0100
0000
0000
0000
0000
0000
0000
0000
0000
1000
0000
0000
0000
0000
0000
0000
0000
0000
0000
0010
0000
0000
0000
0000
0000
0000
0000
0000
1000
0000
0000
0000
0000
0000
0000
0000
0000
0000
0001
0000
0000
0000
0000
0000
0000
0000
0000
0000
0000
0000
0000
0000
0000
0000
0000
0000
0000
0000
0000
0000
0000
0000
0010
0000
0000
0000
0000
0000
0000
0000
0000
0000
0000
0000
0000
0000
0000
0000
0000
0000
0000
0000
0000
0000
0000
0000
,
0100
1000
0010
1000
0001
0000
0100
0001
0010
0001
1000
0000
0010
1000
0100
1000
,
0001
0000
0100
0001
0000
1000
0100
0000
0010
0001
1000
0010
0100
0010
1000
0001
,
0010
0100
1000
0001
0010
0001
1000
0100
0010
0100
1000
0001
1000
0010
0100
0010
,
1000
0000
0001
0000
0010
0000
0001
0000
1000
0000
0001
0000
0010
0000
0100
0000
1000
0000
0001
0000
0000
0100
0000
0000
0001
0000
0000
1000
0000
0000
0100
0000
0000
0010
0000
0000
0100
0000
0000
1000
0000
0000
0001
0000
0000
0100
0000
0000
,
0020
0000
0030
0100
0001
0000
1000
0000
0200
0000
0010
0000
1300
0000
0001
0000
,
0200
0000
0300
0010
1000
0000
0001
0000
0010
0000
0100
0000
1000
0000
0001
0000
,
0202
0300
1003
0100
2200
0300
3001
0000
,
0022
0030
1003
0010
2020
0030
3100
0000
,
0010
0000
0000
0010
0001
0000
1000
0000
0010
0000
0010
0000
0100
0000
0001
0000
,
1000
0000
0100
0000
0001
0000
0100
0000
0010
0001
1000
0010
0100
0010
1000
0001
,
0010
0000
0100
1000
0200
0300
0010
0001
0020
0030
0100
1000
0002
0003
1000
0010
,
0400
0300
0000
0000
0001
0000
0000
0000
1000
0000
0000
0000
0100
0000
0000
0000
1000
0000
0000
0000
0001
0000
0000
0000
0100
0000
0000
0000
0001
0000
0000
0000
10M0
0000
0000
0000
010M
0000
0000
0000
10M0
0000
0000
0000
010M
0000
0000
0000
M010
0000
0000
0000
0M01
0000
0000
0000
M010
0000
0000
0000
0M01
0000
0000
0000
,
1000
0010
0100
0000
0001
0010
0000
0010
,
0000
0100
1000
0000
0001
0100
0010
1000
,
0100
0010
0100
0010
0001
0100
0010
0100
,
0010
1000
0100
0000
0010
0001
0100
0010
,
M000
000M
M000
000M
M000
000M
0000
0000
;
