#TITLE:E.Y;
#SUBTITLE:;
#ARTIST:CHiNTOMO;
#TITLETRANSLIT:;
#SUBTITLETRANSLIT:;
#ARTISTTRANSLIT:;
#CREDIT:;
#BANNER:E.Y-bn.png;
#BACKGROUND:E.Y-bg.png;
#LYRICSPATH:E.Y.lrc;
#CDTITLE:NAOKI_cdtitle.png;
#MUSIC:E.Y.mp3;
#OFFSET:-0.580;
#SAMPLESTART:81.060;
#SAMPLELENGTH:12.000;
#SELECTABLE:YES;
#BPMS:0.000=119.000;
#STOPS:;
#BGCHANGES:;

//---------------dance-single - ----------------
#NOTES:
     dance-single:
     :
     Challenge:
     15:
     0.775,0.777,0.144,0.418,0.847: // measure 1
0000
0000
0000
0000
,  // measure 2
0000
0000
0000
0000
,  // measure 3
0000
0000
0000
0000
,  // measure 4
0000
0000
0000
0000
,  // measure 5
0001
0000
0100
0010
0000
0100
0001
0000
1000
0100
0010
0000
0001
0000
0100
0010
,  // measure 6
1000
0000
0100
0010
0000
0100
1000
0000
0001
0100
0010
0000
1000
0000
0001
1000
,  // measure 7
0001
0000
0010
0100
0000
0010
0001
0000
1000
0010
0100
0000
0001
0000
0010
0100
,  // measure 8
1000
0000
0010
0100
0000
0010
1000
0000
0001
0010
0100
0000
1001
0000
0000
0000
,  // measure 9
1000
0010
0100
0001
1000
0100
0010
0000
0000
0002
0000
0000
2003
0000
0000
3000
0000
0000
1010
0000
0000
0010
0000
0000
,  // measure 10
0100
0000
0001
0000
1000
0000
0200
0000
0310
0000
0100
1000
0001
0100
0010
1000
,  // measure 11
0001
0100
0010
2000
3002
0003
0011
0010
,  // measure 12
0100
0000
1000
0000
0010
0000
0110
0000
0100
0001
1000
0100
0001
0100
0010
0001
,  // measure 13
1000
0010
0100
0002
2003
3000
1100
0100
,  // measure 14
0010
0000
0001
0000
1000
0000
0020
0000
0130
0000
0010
1000
0001
0010
0100
1000
,  // measure 15
0001
0010
0100
2000
3002
0003
0101
0100
,  // measure 16
0010
0000
1000
0000
0100
0000
0010
0000
0001
0100
0010
0001
0010
1000
0100
0010
,  // measure 17
0001
0100
0020
0030
1000
0002
0003
0010
0100
1000
0001
0100
0010
1000
0001
0010
,  // measure 18
M00M
0010
0200
0300
0001
2000
3000
0100
0020
0030
0001
1000
0010
0100
0010
1000
,  // measure 19
0001
0010
0200
0300
1000
0002
0003
0100
0010
1000
0001
0010
0100
1000
0001
0100
,  // measure 20
M00M
0100
0020
0030
0001
2000
3000
0010
0200
0300
0001
1000
0100
0010
0001
1000
,  // measure 21
0010
0100
0002
0003
0010
0200
0300
1000
0010
0100
0001
1000
0100
0010
0001
0100
,  // measure 22
M00M
0100
2000
3000
0010
0200
0300
0001
0020
0030
0100
1000
0001
0100
0010
1000
,  // measure 23
0100
0010
0002
0003
0100
0020
0030
1000
0100
0010
0001
1000
0010
0100
0001
0010
,  // measure 24
M00M
0000
0010
0000
2000
0000
3000
0000
0100
0000
0020
0000
0030
0000
0001
0000
0100
0000
0010
0000
1000
0000
0001
0000
0010
M00M
0010
M00M
0010
M00M
0010
0000
,  // measure 25
1000
0000
0002
0003
0010
0200
0300
1000
0010
0100
0010
1000
0001
0010
0100
0010
,  // measure 26
0001
0000
2000
3000
0010
0200
0300
0001
1000
0000
0100
0010
0001
1000
0010
0100
,  // measure 27
0000
0001
2000
3000
0100
0020
0030
0001
0100
0010
0100
0001
1000
0100
0010
0100
,  // measure 28
1000
0000
0002
0003
0100
0020
0030
1000
0001
0000
0010
0100
1000
0001
0100
0010
,  // measure 29
0000
0000
1000
0000
0001
0000
0000
0000
0010
0000
0100
0000
0000
0000
1000
0000
0001
0000
0100
0000
0010
M00M
0010
0000
0001
0000
0100
0000
0010
M00M
0010
0000
,  // measure 30
0001
0000
1000
0000
0010
0100
0000
0001
1000
0000
0100
0010
0001
1000
0010
0100
,  // measure 31
0000
0000
0001
0000
1000
0000
0000
0000
0100
0000
0010
0000
0000
0000
0001
0000
1000
0000
0010
0000
0100
M00M
0100
0000
1000
0000
0010
0000
0100
M00M
0100
0000
,  // measure 32
1000
0010
0100
0000
0001
1000
0000
0100
0010
0001
1000
0010
0100
1000
0100
0010
,  // measure 33
1000
0000
0001
0010
0000
0010
0100
0000
1000
0000
0010
0000
0110
0000
0100
0000
,  // measure 34
0001
0000
1000
0100
0000
0100
0010
0000
0001
0000
0100
0010
1000
0001
1000
0001
,  // measure 35
0010
0000
0100
1000
0000
0001
0100
0000
0010
0000
1000
0000
1001
0000
0001
0000
,  // measure 36
0010
0000
0100
1000
0000
1000
0010
0000
0100
0000
0001
1000
0100
0010
0100
0010
,  // measure 37
0001
0100
0010
1000
0001
0100
0010
1000
,  // measure 38
0001
0000
0010
0000
1000
0000
0010
0000
0001
0000
1000
0010
0100
0010
0100
0001
,  // measure 39
1000
0100
0010
0001
1000
0100
0010
0001
,  // measure 40
1000
0010
0001
0010
1000
0000
1001
0000
,  // measure 41
0001
0010
0100
1000
0001
0100
0010
0000
0000
2000
0000
0000
3002
0000
0000
0003
0000
0000
0011
0000
0000
0010
0000
0000
,  // measure 42
0200
0000
0301
0000
1000
0000
0020
0000
0130
0000
0010
0001
1000
0010
0100
0001
,  // measure 43
1000
0100
0010
0002
2003
3000
1010
0010
,  // measure 44
0100
0000
0001
0000
0010
0000
0110
0000
0100
1000
0001
0100
1000
0100
0010
1000
,  // measure 45
0001
0010
0100
2000
3002
0003
0101
0100
,  // measure 46
0020
0000
0031
0000
1000
0000
0200
0000
0310
0000
0100
0001
1000
0100
0010
0001
,  // measure 47
1000
0010
0100
0002
2003
3000
1100
0100
,  // measure 48
0010
0000
0001
0000
1000
0000
0010
0000
0100
0001
1000
0100
0001
0100
0010
0001
,  // measure 49
1000
0010
0100
0002
2003
3000
1100
0100
,  // measure 50
0020
0000
1030
0000
0001
0000
0200
0000
0310
0000
0100
1000
0001
0100
0010
1000
,  // measure 51
0100
0000
1000
0010
0000
0010
0100
0000
0001
1000
0100
0000
0110
0000
0010
0001
,  // measure 52
1000
0000
0010
0100
0000
0100
0001
0000
0010
0100
1000
0010
0001
0010
0100
0001
,  // measure 53
1000
0100
0010
0002
2003
3000
1010
0010
,  // measure 54
0100
0000
0001
0000
1000
0000
0100
0000
0110
0000
0010
0001
1000
0010
0100
0001
,  // measure 55
1000
0000
0001
0010
0000
0010
0100
0000
1000
0001
0100
0000
0110
0000
0010
1000
,  // measure 56
0001
0000
0010
0100
0000
0100
1000
0000
0010
0100
0001
0010
1000
0010
0100
1000
,  // measure 57
0001
0100
0010
1000
0100
0000
0010
0001
,  // measure 58
0100
0000
0000
0000
0010
0000
1000
0000
0001
0000
0010
0100
1000
0001
1000
0001
,  // measure 59
0100
0000
0010
1000
0000
1000
0100
0000
0010
0001
1000
0000
0010
0100
0001
1000
,  // measure 60
0100
0000
0010
0001
0000
0001
0100
0000
0010
1000
0001
0010
0100
1000
0010
0100
,  // measure 61
0001
0010
0100
1000
0010
0000
0100
0001
,  // measure 62
0010
0000
0000
0000
0100
0000
1000
0000
0010
0000
0100
0001
1000
0001
1000
0100
,  // measure 63
0010
0001
1000
0010
0100
0000
0010
1000
,  // measure 64
0100
0000
0000
0000
0010
0000
0001
0000
0100
0000
0010
1000
0001
1000
0001
0010
;

//---------------dance-single - ----------------
#NOTES:
     dance-single:
     :
     Beginner:
     3:
     0.143,0.169,0.000,0.015,0.000:
0000
0000
0000
0000
,
0000
0000
0000
0000
,
0000
0000
0000
0000
,
0000
0000
0000
0000
,
0010
0000
0010
0000
,
0100
0000
0100
0000
,
0001
0000
0001
0000
,
1000
0000
2000
3000
,
0010
0000
0010
0000
,
1000
0000
0001
0000
,
0010
0000
0010
0000
,
0001
0000
1000
0001
,
0100
0000
0100
0000
,
0001
0000
1000
0000
,
0100
0000
0100
0000
,
1000
0000
0001
1000
,
0010
0000
0010
0000
,
0100
0000
0100
0000
,
0001
0000
0001
0000
,
1000
0000
1000
0000
,
0100
0000
0100
0000
,
0010
0000
0010
0000
,
0001
0000
0001
0000
,
1000
0000
1000
0001
,
0100
0000
0100
0000
,
0010
0000
0010
0000
,
1000
0000
1000
0000
,
0001
0000
0001
0000
,
0010
0000
0010
0000
,
0100
0000
0100
0000
,
1000
0000
1000
0000
,
0001
0000
0001
0000
,
0100
0000
0010
0000
,
1000
0000
0100
0000
,
0010
0000
0001
0000
,
0100
0000
0010
0100
,
0010
0000
1000
0000
,
0001
0000
0010
0000
,
0100
0000
1000
0000
,
0001
0000
0200
0300
,
0010
0100
0010
0000
,
1000
0000
0100
0000
,
0010
0000
0001
0000
,
0100
0000
0010
1000
,
0100
0000
0100
0000
,
1000
0000
0010
0000
,
0100
0000
0001
0000
,
0010
0100
1000
0001
,
0100
0000
0100
0000
,
0001
0000
0010
0000
,
0100
0000
1000
0000
,
0010
0000
0100
0001
,
0010
0000
0010
0000
,
0001
0000
0100
0000
,
0010
0000
1000
0000
,
0100
0000
0010
0001
,
0100
0000
0100
0000
,
0010
0000
0010
0000
,
1000
0000
1000
0000
,
0001
0000
0001
0000
,
0010
0000
0010
0000
,
0100
0000
0100
0000
,
1000
0000
1000
0000
,
0001
0000
0001
0000
;

//---------------dance-single - ----------------
#NOTES:
     dance-single:
     :
     Easy:
     6:
     0.219,0.243,0.091,0.015,0.000:
0000
0000
0000
0000
,
0000
0000
0000
0000
,
0000
0000
0000
0000
,
0000
0000
0000
0000
,
0010
0000
0010
0000
,
0100
0000
0100
0000
,
0001
0000
0001
0000
,
1000
0000
1000
1001
,
0010
1000
0100
0000
,
0010
0001
1000
0010
,
0100
0001
0010
0000
,
0100
1000
0010
1001
,
0010
0001
0100
0000
,
0010
1000
0001
0010
,
0100
1000
0010
0000
,
0100
0001
1000
0000
,
0010
0010
0100
0000
,
0001
0001
1000
0000
,
0100
0100
0010
0000
,
0001
0001
1000
0100
,
0010
0010
0100
0000
,
1000
1000
0001
0000
,
0100
0100
0010
0000
,
1000
1000
0001
0010
,
0100
0100
0010
0000
,
0001
0001
1000
0000
,
0010
0010
0100
0000
,
0001
1000
0001
1001
,
0100
0100
0010
0000
,
1000
1000
0001
0000
,
0010
0010
0100
0000
,
1000
0001
1000
1001
,
0001
0000
0001
0100
,
0010
0000
0010
1000
,
0100
0000
0010
0001
,
0100
0000
0100
0010
,
1000
0000
1000
0000
,
0001
0000
0001
0000
,
0100
0000
0100
0000
,
0010
0000
0010
1001
,
0100
0010
1000
0100
,
0010
0001
1000
1001
,
0010
0100
0001
0010
,
0100
1000
0001
1001
,
0010
0001
0100
0010
,
1000
0001
1000
1001
,
0100
0010
0001
0100
,
0010
1000
0001
1001
,
0010
0100
1000
0001
,
0100
0010
1000
1001
,
0010
0100
0001
1000
,
0100
0010
0001
1001
,
0100
0010
1000
0001
,
0010
0100
1000
1001
,
0100
0010
0001
0100
,
0010
1000
0001
0000
,
0010
0000
0010
0000
,
0100
0000
0100
0000
,
1000
0000
1000
0000
,
0001
0000
0001
0000
,
0100
0000
0010
0000
,
1000
0000
0001
0000
,
0010
0000
0100
0000
,
2000
0000
0000
0000
0000
0000
0000
0000
0002
0000
0000
0000
0000
0000
0000
3003
;

//---------------dance-single - ----------------
#NOTES:
     dance-single:
     :
     Medium:
     9:
     0.332,0.340,0.175,0.046,0.000:
0000
0000
0000
0000
,
0000
0000
0000
0000
,
0000
0000
0000
0000
,
0000
0000
0000
0000
,
0010
0001
0100
0010
,
1000
0001
0010
0110
,
0100
1000
0010
0100
,
0001
1000
0100
0110
,
0010
0001
1000
0010
0100
0000
0001
0000
,
1000
0000
0100
0010
0001
0000
1001
0000
,
0100
0001
1000
0100
0010
0000
0001
0000
,
1000
0000
0010
0100
0001
0000
1001
0000
,
0010
1000
0001
0010
0100
0000
1000
0000
,
0001
0000
0100
0010
1000
0000
1001
0000
,
0100
1000
0001
0100
0010
0000
1000
0000
,
0001
0000
0010
0100
1000
0000
0001
0000
,
0100
0010
0000
0010
1000
0000
0001
0000
,
0010
0100
0000
0100
1000
0000
1001
0000
,
0001
0100
0000
0100
0010
0000
1000
0000
,
0100
0010
0000
0010
0001
0000
1001
0000
,
1000
0010
0000
0010
0100
0000
0001
0000
,
0010
0100
0000
0100
1000
0000
0001
0000
,
0100
0010
0000
0010
1000
0000
0001
0000
,
0010
0100
0000
0100
1000
0000
1001
0000
,
0001
0100
0000
0100
0010
0000
1000
0000
,
0100
0010
0000
0010
0001
0000
1000
0000
,
0010
0100
0000
0100
0001
0000
1000
0000
,
0100
0010
0000
0010
0001
0000
1001
0000
,
1000
0010
0000
0010
0100
0000
0001
0000
,
0010
0100
0000
0100
1000
0000
0001
0000
,
0100
0010
0000
0010
1000
0000
0001
0000
,
0010
0100
0000
0100
1000
0000
1001
0000
,
0012
0000
0000
0103
0010
0000
1010
0000
,
2000
0000
0000
3100
0010
0000
0011
0000
,
0002
0000
0000
0013
0100
0000
1100
0000
,
2000
0000
0000
3010
0100
0000
0101
0000
,
0001
0001
0010
0010
,
0100
0100
1000
0001
,
1000
1000
0010
0010
,
0100
0100
0001
1001
,
0010
0001
1000
0010
0100
0000
0001
0000
,
1000
0000
0100
0010
0001
0000
1001
0000
,
0100
0001
1000
0100
0010
0000
0001
0000
,
1000
0000
0010
0100
0001
0000
1001
0000
,
0010
1000
0001
0010
0100
0000
1000
0000
,
0001
0000
0100
0010
1000
0000
1001
0000
,
0100
1000
0001
0100
0010
0000
1000
0000
,
0001
0000
0010
0100
1000
0000
1001
0000
,
0001
0100
0010
0100
0001
0000
0010
0000
,
0100
0000
1000
0001
0100
0000
1001
0000
,
0001
0010
0100
0010
0001
0000
0100
0000
,
0010
0000
1000
0001
0010
0000
1001
0000
,
1000
0010
0100
0010
1000
0000
0100
0000
,
0010
0000
0001
1000
0010
0000
1001
0000
,
1000
0100
0010
0100
1000
0000
0001
0100
,
0010
0000
1000
0100
0010
0000
0001
0000
,
0100
0000
0100
0000
,
0001
0000
0010
0000
,
0100
0000
0100
0000
,
1000
0000
0001
0000
,
0100
0000
0010
0000
,
1000
0000
0001
0000
,
0010
0000
0100
0000
,
2000
0000
0000
0000
0000
0000
0000
0000
0002
0000
0000
0000
0000
0000
0000
3003
;

//---------------dance-single - ----------------
#NOTES:
     dance-single:
     :
     Hard:
     12:
     0.434,0.388,0.122,0.000,0.103:
0000
0000
0000
0000
,
0000
0000
0000
0000
,
0000
0000
0000
0000
,
0000
0000
0000
0000
,
1000
0000
0000
1000
0000
0000
1000
0000
0010
0000
0100
0000
0001
0000
1000
0000
,
0100
0000
0000
0100
0000
0000
0100
0000
0010
0000
0001
0000
1000
0000
0010
0000
,
0100
0000
0000
0100
0000
0000
0100
0000
0001
0000
1000
0000
0100
0000
0010
0000
,
0001
0000
0000
0001
0000
0000
0001
0000
1000
0000
0010
0000
0110
0000
0000
0000
,
1000
0100
0010
0001
1000
0000
0010
0000
0100
0000
0000
0000
0001
0000
1000
0000
,
0100
0000
0010
0001
0100
0000
1010
0000
,
0010
1000
0001
0010
0100
0000
1000
0001
,
0100
0000
0010
1000
0100
0000
0011
0000
,
0100
1000
0001
0100
1000
0000
0100
0001
,
0010
0000
0100
1000
0001
0000
0101
0000
,
0100
0001
1000
0100
0001
0000
0100
1000
,
0010
0000
0100
0001
1000
0100
0010
0001
,
1000
0000
0010
0000
0000
0010
0000
0000
0010
0000
0100
0000
0001
0000
1000
0000
,
0100
0000
0010
0000
0000
0010
0000
0000
0010
0000
0001
0000
0100
0000
0010
0000
,
0000
0000
1000
0000
0000
1000
0000
0000
1000
0000
0001
0000
0010
0000
0100
0000
,
1000
0000
0001
0000
0000
0001
0000
0000
0001
0000
0100
0000
0010
0000
1000
0000
,
0000
0000
0100
0000
0000
0100
0000
0000
0100
0000
0010
0000
0001
0000
1000
0000
,
0010
0000
0100
0000
0000
0100
0000
0000
0100
0000
0001
0000
0010
0000
0100
0000
,
0000
0000
1000
0000
0000
1000
0000
0000
1000
0000
0001
0000
0100
0000
0010
0000
,
1000
0000
0001
0000
0000
0001
0000
0000
0001
0000
0010
0000
0100
0000
1000
0000
,
0001
0000
0100
0000
0000
0010
0000
0000
0100
0000
0001
0000
1000
0000
0100
0000
,
0010
0000
0001
0000
0000
1000
0000
0000
0001
0000
0100
0000
0010
0000
1000
0000
,
0000
0000
0100
0000
0000
0010
0000
0000
0100
0000
1000
0000
0001
0000
0100
0000
,
0010
0000
1000
0000
0000
0001
0000
0000
1000
0000
0100
0000
0010
0000
0001
0000
,
0000
0000
0100
0000
0000
0010
0000
0000
1000
0000
0001
0000
0010
0000
0100
0000
,
1000
0000
0010
0000
0000
0100
0000
0000
0010
0000
1000
0000
0001
0000
0010
0000
,
0000
0000
0100
0000
0000
0010
0000
0000
0001
0000
0100
0000
0010
0000
1000
0000
,
0001
0000
0010
0000
0000
0100
0000
0000
0010
0000
0001
0000
1000
0000
0010
0000
,
0100
0001
0000
1000
0100
0000
0011
0000
,
0100
1000
0000
0001
0100
0000
1010
0000
,
0010
1000
0000
0001
0010
0000
1100
0000
,
0010
0001
0000
1000
0010
0000
0101
0000
,
0001
0001
1000
1000
,
0100
0000
0100
0000
0010
0001
1000
0010
,
0100
0100
0010
0010
,
1000
0100
0010
0001
1000
0000
1001
0000
,
0001
0100
0010
1000
0001
0000
0010
0000
0100
0000
0000
0000
1000
0000
0010
0000
,
0001
0000
0010
1000
0100
0000
0011
0000
,
0010
0001
1000
0010
0100
0000
0001
0010
,
1000
0000
0000
0000
0010
0000
0001
0000
0100
0000
0010
1000
0001
0000
0010
0000
,
0100
1000
0001
0100
0010
0000
1000
0100
,
0001
0000
0100
1000
0010
0000
0101
0000
,
0100
0001
1000
0100
0010
0000
0001
0100
,
1000
0000
0100
0001
0010
0100
1000
0001
,
0100
0010
1000
0100
0001
0000
0100
1000
,
0010
0000
0100
0001
0010
0000
1100
0000
,
0100
0010
0001
0100
1000
0000
0100
0001
,
0010
0000
0000
0000
0100
0000
1000
0000
0001
0000
0100
0010
1000
0000
0001
0000
,
0010
0100
1000
0010
0001
0000
0010
1000
,
0100
0000
0010
0001
0100
0000
1010
0000
,
0010
0100
0001
0010
1000
0000
0010
0001
,
0100
0000
0000
0000
0010
0000
1000
0000
0100
0000
0010
0001
1000
0000
0010
0000
,
0100
0001
0010
0100
1000
0000
0001
0100
,
0010
0000
1000
0100
0010
0000
1001
0000
,
0100
1000
0010
0100
0001
0000
1000
0100
,
0010
0000
0001
0100
0010
0000
1001
0000
,
0100
0001
0010
0100
1000
0000
0001
0100
,
0010
0000
1000
0100
0010
0000
1001
0000
,
0010
1000
0100
0010
0001
0000
1000
0010
,
0100
0000
0001
0010
0100
1000
0001
0100
;
