#TITLE:Dew;
#SUBTITLE:;
#ARTIST:CHiNTOMO;
#TITLETRANSLIT:;
#SUBTITLETRANSLIT:;
#ARTISTTRANSLIT:;
#GENRE:;
#CREDIT:;
#BANNER:dew-bn.png;
#BACKGROUND:dew-bg.png;
#LYRICSPATH:Dew.lrc;
#CDTITLE:NAOKI_cdtitle.png;
#MUSIC:Dew.ogg;
#OFFSET:-1.380;
#SAMPLESTART:76.167;
#SAMPLELENGTH:12.000;
#SELECTABLE:YES;
#BPMS:0.000=182.000;
#STOPS:6.500=0.165
,14.000=0.165
,22.000=0.165
,29.500=0.165
,37.000=0.165
,44.500=0.165
,52.000=0.165
,59.500=0.165
;
#BGCHANGES:;
#KEYSOUNDS:;

//---------------dance-single - NAOKI----------------
#NOTES:
     dance-single:
     NAOKI:
     Easy:
     7:
     0.388,0.332,0.025,0.168,0.000:
0000
0000
0000
0000
,
0000
0000
0000
0000
,
0000
0000
0000
0000
,
0000
0000
0000
0010
,
0010
0100
0100
0001
,
1000
0000
0001
0000
0000
0010
0000
0010
,
0000
0100
0000
0100
0000
1000
0000
0001
,
0000
1000
0000
0000
0100
0000
0100
0000
,
0010
0010
0001
1000
,
0001
0000
0000
0100
0000
0100
0000
0010
,
0000
0010
0000
1000
0000
0001
0000
1000
,
0000
0010
0010
0100
,
0100
0001
1000
0001
,
0000
0010
0000
0010
0000
0100
0000
0100
,
0000
1000
0000
0001
0000
1000
0000
0000
,
0100
0100
0010
0010
,
0001
1000
0010
0100
,
0001
0001
1000
1000
,
0100
0010
0001
1000
,
1001
0010
0000
0010
,
0000
1000
0000
0001
,
0000
0100
0000
0010
,
1000
0001
1000
0001
,
0010
0010
0100
0100
,
1000
0001
1000
0010
,
0100
0100
0010
0010
,
1000
0001
1000
1000
,
0100
0100
0010
0010
,
0001
1000
0001
0100
,
0010
0010
0100
0100
,
0001
1000
0001
0001
,
0010
0010
0100
0100
,
1000
0001
1000
0010
,
0100
0100
0010
0010
,
1000
0001
1000
1000
,
0100
0100
0010
0010
,
0001
1000
0001
0100
,
0010
0010
0100
0100
,
0002
1000
1003
0001
,
0020
0000
0130
0010
,
0002
0000
1003
0001
,
0200
0000
0310
0100
,
0001
0010
0100
1000
,
0020
0000
0130
0010
,
2000
0000
3001
1000
,
0200
0000
0310
0100
,
1000
0010
0100
0001
,
1000
0000
1000
0000
,
0100
1000
0001
0100
,
0010
0000
0010
0000
,
0100
0001
1000
0100
,
0010
0000
0100
0000
,
0010
0001
1000
0010
,
0100
0000
0100
0000
,
0010
1000
0001
0010
,
0000
0000
0000
2001
,
3001
0010
0100
1000
,
0001
0001
1000
1000
,
0001
0100
0010
1000
,
0001
1000
0100
0010
,
0001
0100
0010
1000
,
0001
0001
1000
1000
,
0001
0010
0100
1000
,
0001
1000
0010
0010
,
1000
0100
0010
0001
,
1000
1000
0001
0001
,
1000
0010
0100
0001
,
1000
0001
0010
0100
,
1000
0010
0100
0001
,
1000
1000
0001
0001
,
1000
0100
0010
0001
,
1000
0001
0100
0100
,
0020
0000
0130
0010
,
2000
0000
3001
1000
,
0200
0000
0310
0100
,
1000
0010
0100
0001
,
0020
0000
0130
0010
,
0002
0000
1003
0001
,
0200
0000
0310
0100
,
0001
0010
0100
1000
,
0020
0000
0130
0010
,
2000
0000
3001
1000
,
0200
0000
0310
0100
,
1000
0010
0100
0001
,
0200
0000
0310
0100
,
0002
0000
1003
0001
,
0020
0000
0130
0010
,
0001
1000
0010
0110
;

//---------------dance-single - NAOKI----------------
#NOTES:
     dance-single:
     NAOKI:
     Beginner:
     3:
     0.208,0.222,0.000,0.151,0.000:
0000
0000
0000
0000
,
0000
0000
0000
0000
,
0000
0000
0000
0000
,
0000
0000
0000
0001
,
0000
0001
0000
1000
,
0000
0000
1000
0000
0000
0000
0000
0010
,
0000
0000
0000
0010
0000
0000
0000
0100
,
0000
0000
0000
0100
0000
0000
0001
0000
,
0000
0001
0000
1000
,
0000
0000
1000
0000
0000
0100
0000
0000
,
0000
0100
0000
0000
0000
0010
0000
0000
,
0000
0010
0000
0000
0001
0000
0000
0000
,
0001
0000
1000
0000
,
1000
0000
0000
0010
0000
0000
0000
0100
,
0000
0000
0000
0000
,
0000
0010
0000
1000
,
0000
0001
0000
0010
,
0000
0100
0000
1000
,
0000
0001
0000
0100
,
0010
0100
0000
0001
,
0000
1000
0000
0100
,
0000
0010
0000
0001
,
0000
1000
0000
0010
,
0100
0010
0000
0010
,
0000
1000
0000
0001
,
0000
0010
0000
0010
,
0000
0001
0000
1000
,
0000
0100
0000
0100
,
0000
1000
0000
0001
,
0000
0100
0000
0100
,
0000
0001
0000
1000
,
0100
0010
0000
0010
,
0000
0001
0000
1000
,
0000
0010
0000
0010
,
0000
1000
0000
0001
,
0000
0100
0000
0100
,
0000
0001
0000
1000
,
0000
0100
0000
0100
,
0020
0000
0000
0000
,
0031
0000
0000
0000
,
0100
0000
0000
0000
,
0010
0000
0000
0000
,
1000
0000
0000
0000
,
0001
0000
0000
0000
,
0010
0000
0000
0000
,
0100
0000
0000
0000
,
1000
0000
0000
0000
,
1000
0000
1000
0000
,
0001
0000
0001
0000
,
0100
0000
0100
0000
,
0010
0000
0010
0000
,
1000
0000
1000
0000
,
0001
0000
0001
0000
,
0010
0000
0010
0000
,
0100
0000
0100
0000
,
0000
0000
0000
0000
,
1000
0000
0010
0000
,
0100
0000
0001
1000
,
0001
0000
0010
0000
,
0100
0000
1000
1000
,
1000
0000
0100
0000
,
0010
0000
0001
1000
,
0001
0000
0100
0000
,
0010
0000
1000
1000
,
0001
0000
0010
0000
,
0100
0000
1000
0001
,
1000
0000
0010
0000
,
0100
0000
0001
0001
,
0001
0000
0100
0000
,
0010
0000
1000
0001
,
1000
0000
0100
0000
,
0010
0000
0001
0001
,
2000
0000
3000
0000
,
0020
0000
0030
0000
,
0200
0000
0300
0000
,
0002
0000
0003
0000
,
2000
0000
3000
0000
,
0200
0000
0300
0000
,
0020
0000
0030
0000
,
0002
0000
1003
0000
,
0002
0000
0003
0000
,
0200
0000
0300
0000
,
0020
0000
0030
0000
,
2000
0000
3000
0000
,
0002
0000
0003
0000
,
0020
0000
0030
0000
,
0200
0000
0300
0000
,
2000
0000
3002
0000
,
0103
0000
0000
0000
;

//---------------dance-single - NAOKI----------------
#NOTES:
     dance-single:
     NAOKI:
     Medium:
     11:
     0.606,0.665,0.345,0.353,0.000:
0000
0000
0000
0000
,
0000
0000
0000
0000
,
0000
0000
0000
0000
,
0000
0000
0000
0000
0000
0000
0010
1000
,
0001
0000
0010
0000
0110
0000
0100
1000
,
0001
0000
0100
0000
0010
0100
0001
1000
,
0000
0100
0000
0110
0000
0010
0001
1000
,
0000
0010
1000
0100
0010
0001
1000
0000
,
0010
0000
0110
0000
0100
0001
1000
0000
,
0100
0000
0010
0001
1000
0010
0000
0110
,
0000
0100
0000
0010
1000
0001
0000
0010
,
0001
0010
0100
1000
0001
0000
0100
0000
,
0110
0000
0010
1000
0001
0000
0010
0000
,
0100
1000
0001
0100
0000
0010
0000
0010
,
0000
0100
0002
0000
1000
0000
1003
0100
,
0010
0001
1000
0000
0010
0000
0110
0000
,
1000
0100
0010
0000
0001
0100
0010
0000
,
0100
0001
1000
0000
0100
0000
0110
0000
,
1000
0010
0100
0000
0001
0010
0100
1000
,
0020
0100
0000
0130
,
0002
1000
0000
1003
,
0200
0010
0000
0310
,
0002
0013
2000
3010
,
0110
0000
1001
0000
1000
0100
0010
0000
,
0001
0100
0010
0100
0001
0000
0010
0000
,
0110
0000
1001
0000
0001
0100
0010
0000
,
1000
0100
0010
0100
1000
0000
0010
0000
,
0110
0000
1001
0000
1000
0010
0100
0000
,
0001
0010
0100
0010
0001
0000
0100
0000
,
0110
0000
1001
0000
0001
0010
0100
0000
,
1000
0010
0100
0010
1000
0000
0001
0010
,
0100
0000
1001
0000
0100
0010
1000
0000
,
0110
0000
0001
1000
0010
0000
0110
0000
,
0100
0000
1001
0000
0100
0010
0001
0000
,
0110
0000
1000
0001
0100
0000
0110
0000
,
0010
0000
1001
0000
0010
0100
0001
0000
,
0110
0000
1000
0001
0100
0000
0110
0000
,
0001
0001
1000
1000
,
0010
0010
0100
0001
,
0012
0000
1003
0010
,
0200
1300
0200
0301
,
2010
0000
3001
0010
,
0100
1000
0010
0100
,
0102
0000
1003
0100
,
0020
1030
0020
0031
,
2100
0000
3001
0100
,
0010
1000
0100
0010
,
0001
1000
0000
0010
0000
0100
0000
0001
,
0000
1000
0000
0100
0000
0010
0000
0100
,
0000
1000
0000
0001
0000
0100
0000
0010
,
0000
0100
0000
0001
1000
0100
0010
0001
,
1000
0001
0000
0100
0000
0010
0000
1000
,
0000
0001
0000
0010
0000
0100
0000
0010
,
0000
0001
0000
1000
0000
0010
0000
0100
,
0000
0010
0000
1000
0001
0010
0100
1000
,
0000
0000
0000
2001
,
3001
0100
0020
1000
0000
0031
0000
0010
,
0100
0101
1010
0011
,
1000
0100
0020
0001
0000
1030
0000
0010
,
0000
0100
0000
1000
0010
0100
0001
1000
,
0001
0010
0200
1000
0000
0301
0000
0100
,
0010
0011
1100
0101
,
1000
0010
0200
0001
0000
1300
0000
0100
,
0010
1000
0000
0100
0010
0001
0100
0010
,
1000
0100
0020
0001
0000
1030
0000
0010
,
0100
1100
0011
1010
,
0001
0100
0020
1000
0000
0031
0000
0010
,
0000
0100
0000
0001
0010
0100
1000
0001
,
1000
0010
0200
0001
0000
1300
0000
0100
,
0010
1010
0101
1100
,
0001
0010
0200
2000
0300
3010
0200
0002
,
0300
1003
0100
0010
0001
1000
0001
0100
,
0020
0100
2030
0001
,
3100
0010
0001
0000
1000
0010
0100
0000
,
0002
1000
0023
0100
,
0031
0100
0010
0000
1000
0100
0010
0001
,
0200
0010
0302
1000
,
0013
0100
1000
0000
0001
0100
0010
0000
,
2000
0001
3200
0010
,
1300
0010
0100
0000
0001
0010
0100
0000
,
0020
0100
0032
1000
,
0103
0010
1000
0000
0001
0010
0100
0000
,
2000
0001
3020
0100
,
1030
0100
0010
0000
0001
0100
0010
1000
,
0200
0010
2300
0001
,
3010
0100
0001
0000
1000
0100
0010
0000
,
0002
1000
0203
0010
,
0301
0010
0100
0000
1000
0001
1000
0001
;

//---------------dance-single - NAOKI----------------
#NOTES:
     dance-single:
     NAOKI:
     Hard:
     15:
     0.982,0.926,0.260,0.345,0.559:
0001
0100
0010
0100
0001
0100
0010
0100
,
0001
0100
0010
1000
0200
0300
0000
1000
,
0100
0010
0100
1000
0100
0010
0100
1000
,
0100
0000
0010
0000
0001
0000
0200
0000
0300
0000
0000
0000
0001
0100
0010
0100
,
0001
0000
1000
0001
0000
1000
0010
0000
0100
0000
0001
1000
0000
0001
0010
0100
,
1000
0000
0000
0000
0001
0000
0100
0000
0000
0000
0010
0000
1000
0000
0000
0000
0002
0003
0000
0000
1000
0000
0100
0000
0010
0000
0100
0000
1000
0000
0000
0000
,
0001
1000
0000
0001
0010
0000
0100
0000
1000
0001
0000
1000
0010
0100
0001
0000
,
1000
0000
0100
0000
0000
0000
0010
0000
0001
0000
0000
0000
2000
3000
0000
0000
0001
0000
0010
0000
0100
0000
0010
0000
0001
0000
0000
0000
0100
0000
0001
0000
,
0000
1000
0100
0000
0020
0000
0031
1000
0000
0001
0100
0010
1000
0000
0001
0010
,
0000
0000
0100
0000
1000
0000
0000
0000
0002
0003
0000
0000
1000
0000
0010
0000
0100
0000
0010
0000
1000
0000
0000
0000
0100
0000
1000
0000
0000
0000
0001
0000
,
0100
0000
0020
0000
1030
0001
0000
1000
0100
0010
0001
0000
1000
0010
0000
0100
,
0001
0000
0000
0000
2000
3000
0000
0000
0010
0000
0100
0000
0001
0000
1000
0000
0100
0000
0000
0000
0010
0000
0001
0000
0000
0000
1000
0000
0010
0000
0000
0000
,
0200
0000
0301
1000
0000
0001
0100
0010
1000
0000
0001
0010
0000
0100
1000
0000
,
0002
0003
0000
0000
0010
0000
0100
0000
1000
0000
0001
0000
0100
0000
0000
0000
0010
0000
1000
0000
0000
0000
0001
0000
0010
0000
0000
0000
0100
0000
0000
0000
,
1000
0000
0000
0000
0020
0000
0000
0000
0130
0000
0000
0000
0002
0000
0000
0000
1003
0000
0000
0000
0200
0000
0000
0000
0310
0000
0000
0000
0002
0003
0000
0000
,
0010
0100
1000
0001
0100
0000
0010
1000
0000
0001
0010
0000
0200
0000
1300
0001
,
0000
1000
0010
0100
0001
0000
1000
0100
0000
0010
0002
0000
1000
0000
1003
0000
,
0010
0100
0001
1000
0100
0000
0010
0001
0000
1000
0010
0000
0200
0000
0301
1000
,
0000
0001
0010
0100
1000
0000
0001
0100
0010
0000
0100
0000
0001
1000
0001
1000
,
0100
0010
0010
0001
1000
1000
0010
0100
,
0100
0001
0010
0100
1000
0001
1001
0000
,
0100
0010
0010
1000
0001
0001
0010
0100
,
1000
0100
1000
0000
0001
0100
0001
0000
1000
0001
0010
0100
0010
0001
1000
0010
,
0100
0001
0100
0000
0010
0000
0100
0001
0100
0000
1000
0000
0100
0001
0100
0000
,
0010
0000
0100
0010
0100
0000
0001
0000
1000
0100
0010
0100
1000
0000
0000
0000
,
0100
1000
0100
0000
0010
0000
0100
1000
0100
0000
0001
0000
0100
1000
0100
0000
,
0010
0000
0100
0010
0100
0000
1000
0000
0001
0100
0010
0100
0001
0000
0000
0000
,
1000
0010
1000
0000
0001
0000
1000
0100
1000
0000
0001
0000
0100
0010
1000
0000
,
0001
0000
0010
0100
1000
0000
0001
0000
1000
0010
0100
0010
1000
0000
0000
0000
,
0001
0100
0001
0000
1000
0000
0001
0010
0001
0000
1000
0000
0010
0100
0001
0000
,
1000
0000
0100
0010
0001
0000
0100
0000
0010
1000
0001
0000
0010
0000
0010
0000
,
0100
1000
0001
0100
0010
0000
1000
0010
0100
0010
1000
0000
0001
0010
0100
1000
,
0001
0000
0100
0000
0010
0000
1000
0000
0001
0010
0100
0010
0001
0000
0000
0000
,
0010
0001
1000
0010
0100
0000
0001
0100
0010
0100
0001
0000
1000
0100
0010
0001
,
1000
0000
0010
0000
0100
0001
1000
0000
0100
0000
0010
0000
0001
0000
0000
0000
,
0100
0001
1000
0100
0010
0000
0001
0010
0100
0010
0001
0000
1000
0010
0100
0001
,
1000
0000
0100
0000
0010
0000
0001
0000
1000
0010
0100
0010
1000
0000
0000
0000
,
0001
0200
0310
2000
3001
0020
0130
2000
,
3001
0010
0001
0000
1000
0010
1000
0000
0001
0100
0010
0100
0001
1000
0100
0010
,
0002
0000
0010
0013
0000
0100
0000
1000
,
0010
0100
0001
1000
0100
0010
0001
0000
,
2100
0000
0010
3010
0000
0100
0000
0001
,
0010
0100
0000
1000
0001
0100
0010
1000
,
2001
0000
0100
3100
0000
0010
0000
0001
,
0100
0010
1000
0001
0010
0100
1000
0000
,
0012
0000
0100
0103
0000
0010
0000
1000
,
0001
0010
0000
0100
1000
0001
0100
0010
,
1000
0001
0010
0100
0010
0001
1000
0010
,
0100
0001
0100
0001
1000
0100
1000
0100
,
0010
0001
0100
0010
0100
0001
1000
0100
,
0010
0100
0010
0001
1000
0010
0100
0100
,
0001
1000
0100
0010
0100
1000
0001
0100
,
0010
1000
0010
1000
0001
0010
0001
0010
,
0100
1000
0010
0100
0010
1000
0001
0010
,
0100
0010
0100
1000
0001
1000
0010
0100
,
0000
0000
0000
0000
0000
0000
0220
0330
,
1002
0000
0013
0001
0100
0100
1000
0010
,
1010
0100
0101
0010
1001
0100
0110
0010
,
1000
0001
0010
0010
0100
1000
0001
0100
,
0010
0100
0010
1000
0001
0010
0100
1000
,
2001
0000
3010
1000
0100
0100
0001
0010
,
0011
0100
1100
0010
1001
0100
0110
0010
,
0001
1000
0010
0010
0100
0001
1000
0100
,
0010
0000
0001
0000
1000
0000
0010
0000
0100
0000
0001
1000
0001
0000
1000
0001
,
2000
0100
3100
1000
0010
0010
0001
0100
,
0101
0010
1010
0100
1001
0010
0110
0100
,
0001
1000
0100
0010
0001
1000
0010
0100
,
0010
0000
0100
0000
0001
0000
1000
0000
0100
0000
0000
0100
0010
0000
0001
0000
,
1002
0000
0103
0001
0010
0010
1000
0100
,
1100
0010
0011
0100
1001
0010
0110
0100
,
1000
0001
0100
0100
0010
1000
0100
0100
,
0010
0000
0000
0010
0001
0000
1000
0010
0100
0000
0001
0000
1000
0100
0010
0001
,
2000
0000
0010
3010
0000
0100
0000
0001
,
1000
0100
0010
0001
1000
0010
0100
0000
,
0102
0000
0010
0013
0000
0100
0000
1000
,
0010
0100
0000
0001
0010
0100
1000
0001
,
1002
0000
0100
0103
0000
0010
0000
1000
,
0001
0010
0100
1000
0001
0100
0010
0000
,
2010
0000
0100
3100
0000
0010
0000
0001
,
0100
0010
0000
1000
0001
0010
0100
1000
,
2001
0000
0100
3100
0000
0010
0000
0001
,
1000
0010
0100
0001
1000
0100
0010
0000
,
0012
0000
0100
0103
0000
0010
0000
1000
,
0100
0010
0000
0001
1000
0010
0100
0001
,
1002
0000
0010
0013
0000
0100
0000
1000
,
0001
0100
0010
1000
0001
0010
0100
0000
,
2100
0000
0010
3010
0000
1000
0001
0010
,
0000
0100
1000
0001
0100
0010
2000
0002
,
0000
3000
0000
0003
0000
0000
0000
0000
0000
0000
0000
0000
0000
0000
0000
0000
;

//---------------dance-single - NAOKI----------------
#NOTES:
     dance-single:
     NAOKI:
     Challenge:
     16:
     1.000,1.000,0.235,0.395,0.941:
0100
0000
0010
1000
0010
0000
0100
1000
0100
0000
0010
1000
0010
0000
0100
1000
,
0100
0000
0010
1000
0010
0000
0100
0010
0200
0000
0310
0000
0000
0000
0100
0000
,
0010
0001
0010
0000
0100
0001
0100
0000
0010
0001
0010
0000
0100
0001
0100
0000
,
0010
0001
0010
0000
0100
0010
0200
0000
0310
0000
0000
0000
0010
0100
0001
0100
,
0010
0000
1000
0001
0000
0010
0100
0001
0200
0300
0010
0001
1000
0010
0100
0010
,
1000
0000
0001
0010
0000
0100
1000
0000
0020
0030
0100
0001
1000
0100
0010
0000
,
0001
1000
0000
0010
0100
1000
0200
0300
0010
1000
0001
0010
0100
0010
0001
0000
,
1000
0010
0000
0100
0001
0000
0020
0030
0100
1000
0001
0100
0010
0000
0100
1000
,
0000
0100
0001
1000
0200
0300
0001
0100
0000
0010
0001
1000
0010
0000
0100
0001
,
0000
1000
0100
0010
0002
0003
0100
0010
1000
0001
0010
0000
0100
0001
0000
0100
,
1000
0001
0200
0300
1000
0100
0000
0010
1000
0001
0010
0000
0100
1000
0000
0001
,
0100
0010
2000
3000
0010
0100
0001
1000
0100
0000
0010
1000
0000
0010
0001
1000
,
0020
0030
0001
0010
0000
0100
0001
1000
0100
0000
0010
1000
0000
0010
0001
1000
,
0020
0030
0100
0010
1000
0001
0010
0000
0100
0001
0000
0100
1000
0001
0100
0000
,
0020
0000
0100
0000
2030
0000
0001
0000
3200
0000
0010
0000
1300
0000
0002
0003
,
0100
0010
1000
0010
0100
0000
0010
1000
0000
0001
0010
0100
2000
0000
3001
0100
,
0000
0010
1000
0001
0010
0000
0100
1000
0000
0001
0100
0010
0100
0001
1000
0000
,
0100
0010
0001
0010
0100
0000
0010
0001
0000
1000
0010
0100
0002
0000
1003
0100
,
0000
0010
0001
1000
0010
0000
0100
0010
1000
0000
0100
0010
0001
1000
0001
1000
,
0010
0000
0100
0001
0100
0000
0010
0000
1000
0010
1000
0000
0001
0000
0010
0001
,
0010
0000
0100
0000
1000
0100
1000
0000
0001
0000
0100
0000
0020
0000
0030
0000
,
0100
0000
0010
1000
0010
0000
0100
0000
0001
0100
0001
0000
1000
0000
0100
1000
,
0100
0000
0010
0001
0010
0100
1000
0001
0100
0010
0100
0001
1000
0100
0010
0001
,
1000
0010
0100
M00M
0100
0000
1000
0010
0100
M00M
0100
0000
1000
0010
0100
M00M
,
0100
0000
1000
0010
0100
M00M
0100
0000
1000
0010
0100
0010
1000
0000
0000
0000
,
0001
0010
0100
M00M
0100
0000
0001
0010
0100
M00M
0100
0000
0001
0010
0100
M00M
,
0100
0000
0001
0010
0100
M00M
0100
0000
0001
0010
0100
1000
0001
0000
0000
0000
,
0100
0010
0100
0010
1000
0001
0010
0100
0010
0100
1000
0001
0100
0010
0100
0010
,
1000
0001
0010
0100
0010
0100
1000
0001
0100
0010
1000
0100
0010
0000
0000
0000
,
0100
0000
1000
0001
0100
0000
0010
0000
1000
0001
0010
0000
0100
0000
1000
0001
,
0100
0000
0010
0000
1000
0001
0010
0000
0100
0000
1000
0000
1001
0000
1001
0000
,
0001
0100
0010
M00M
0010
0000
0001
0100
0010
M00M
0010
0000
0001
0100
0010
M00M
,
0010
0000
0001
0100
0010
M00M
0010
0000
0001
0100
0010
0100
0001
0000
0000
0000
,
1000
0100
0010
M00M
0010
0000
1000
0100
0010
M00M
0010
0000
1000
0100
0010
M00M
,
0010
0000
1000
0100
0010
M00M
0010
0000
1000
0100
0010
0001
1000
0000
0000
0000
,
0010
0100
0010
0100
0001
1000
0100
0010
0100
0010
0001
1000
0010
0100
0010
0100
,
0001
1000
0100
0010
0100
0010
0001
1000
0010
0100
0001
1000
0100
0000
0000
0000
,
0020
0100
0032
1000
0203
0010
0301
1000
,
0100
0010
0001
1000
0010
0100
0010
1000
0001
0010
0100
1000
0001
0100
0010
1000
,
0200
0000
0010
0310
0000
0100
0000
1000
,
0010
0001
0010
1000
0100
0010
0001
0000
,
1002
0000
0100
0103
0000
0010
0000
1000
,
0100
0001
0000
0100
0010
0001
1000
0010
,
0200
0000
0010
0310
0000
0100
0000
0001
,
0010
1000
0010
0001
0100
0010
1000
0000
,
2001
0000
0100
3100
0000
0010
0000
0001
,
0100
1000
0000
0100
0010
1000
0100
0010
,
0001
0100
0010
0100
0001
1000
0100
0010
,
0001
0100
0001
0100
0010
0001
0010
0001
,
1000
0100
0010
1000
0001
0010
0100
0001
,
1000
0001
1000
0010
0001
0100
0010
1000
,
1000
0100
0010
0100
1000
0001
0100
0010
,
1000
0100
1000
0100
0010
1000
0010
1000
,
0001
0100
0010
0001
1000
0010
0100
1000
,
0001
0010
0100
0001
1000
0100
0010
0001
,
0000
0000
0000
0000
0000
0000
2002
3003
,
0010
0000
0100
0001
0010
0000
0100
1000
0100
0000
0010
0001
1000
0000
0010
0000
,
0120
1030
1200
0310
0120
0031
0201
0310
,
1000
0000
0001
0010
0100
0000
1000
0001
1000
0000
0010
0100
0001
0000
0010
0000
,
0100
0000
0010
0000
0100
0000
1000
0000
0010
0100
0001
0100
0010
1000
0001
0010
,
0100
0000
0010
0100
0010
0000
0001
1000
0001
0000
0100
0010
0100
0000
0010
0000
,
1010
0100
0101
0010
1001
0100
0110
0010
,
1000
0000
0001
0010
0100
0000
1000
0001
1000
0000
0001
0100
0010
0000
1000
0001
,
0010
0000
0100
0000
0010
0000
0100
0000
1000
0000
0001
0100
0010
0000
1000
0100
,
0010
0000
0100
1000
0010
0000
0100
0001
0100
0000
0010
1000
0001
0000
0010
0000
,
0120
0031
0201
0310
0120
1030
1200
0310
,
0001
0000
1000
0010
0100
0000
0001
1000
0100
0000
0010
0001
1000
0000
0010
0000
,
0100
0000
0010
0000
0100
0000
0001
0000
1002
0000
0000
0013
0100
0000
1000
0000
,
1001
0000
0001
0100
0010
0000
1000
0001
1000
0000
0100
0010
0001
0000
0010
0000
,
0011
0100
1100
0010
1001
0100
0110
0010
,
0001
0000
1000
0010
0100
0000
0001
1000
0001
0000
0010
0100
1000
0000
0010
0000
,
0100
0000
0001
0100
0010
0000
1000
0100
0010
0000
0001
0000
0100
0010
1000
0001
,
0200
0000
0010
0310
0000
0100
0000
0001
,
0010
1000
0010
0001
0100
0010
1000
0000
,
2001
0000
0100
3100
0000
0010
0000
0001
,
0100
1000
0000
0100
0010
1000
0001
0010
,
0200
0000
0010
0310
0000
0100
0000
1000
,
0010
0001
0010
1000
0100
0010
0001
0000
,
1002
0000
0100
0103
0000
0010
0000
1000
,
0100
0001
0000
0100
0010
0001
1000
0010
,
0120
0000
0100
0130
0000
0010
0000
1000
,
0100
0001
0100
1000
0010
0100
0001
0000
,
1002
0000
0010
0013
0000
0100
0000
1000
,
0001
0100
0000
0010
0100
0001
1000
0100
,
0020
0000
0100
0130
0000
0010
0000
0001
,
0100
1000
0100
0001
0010
0100
1000
0000
,
2001
0000
0010
3010
0000
1000
0001
0010
,
0000
0100
1000
0001
0100
0010
2000
0002
,
0000
3000
0000
0003
0000
0000
0000
0000
0000
0000
0000
0000
0000
0000
0000
0000
;
