#TITLE:Destructive Little Sister;
#SUBTITLE:;
#ARTIST:Kobaryo;
#TITLETRANSLIT:;
#SUBTITLETRANSLIT:;
#ARTISTTRANSLIT:;
#GENRE:;
#CREDIT:NAOKI;
#MUSIC:Destructive_Little_Sister.ogg;
#BANNER:Destructive_Little_Sister-bn.png;
#BACKGROUND:Destructive_Little_Sister_bg.png;
#CDTITLE:naokicdtitle.png;
#SAMPLESTART:51.388;
#SAMPLELENGTH:15.274;
#SELECTABLE:YES;
#OFFSET:0.009;
#BPMS:0.000=247.486;
#STOPS:;
#BGCHANGES:;
#FGCHANGES:;

//--------------- dance-single - NAOKI STR BR FS DS ----------------
#NOTES:
     dance-single:
     NAOKI STR BR FS DS:
     Hard:
     17:
     0,0,0,0,0:
0000
0000
0000
0000
,
2000
3000
0020
0130
,
0002
1003
0200
0310
,
0002
0003
0200
0310
,
2000
3001
0010
0100
,
2000
0000
3001
0000
0100
0010
1000
0000
,
0001
0000
0010
0000
0100
1000
0001
0000
,
0100
0010
1000
0001
0010
0100
1000
0001
,
0100
0001
1000
0100
0010
0001
0100
0000
,
0001
1000
0100
0010
0001
1000
0001
0200
,
0310
2000
3001
0010
0100
1000
0020
0130
,
0002
0000
1003
0000
0100
0000
0010
0000
0001
0000
1000
0000
0010
0000
0100
0001
,
1000
0000
0100
0000
1000
0001
0100
0000
0010
0000
0100
0001
4000
3000
0100
0010
,
0002
0000
0100
0000
1003
0000
0200
0000
0310
0001
1000
0000
0010
0000
0100
0001
,
2000
0000
0100
0000
3001
0100
0010
0000
0200
0000
0301
0000
1000
0000
0100
0010
,
0001
1000
0010
0100
0001
1000
0100
0010
,
0001
0100
0010
1000
0001
0010
0100
1000
0010
0100
0001
1000
0100
0010
0001
1000
,
0040
0000
0000
0000
0000
0000
0M00
0000
0000
0M00
0000
0000
0M30
0000
0000
0000
,
2000
3000
0000
0000
0000
0000
0000
0000
0000
0000
0000
0000
0000
0000
0000
0000
0200
0300
0000
0000
0000
0000
0000
0000
0000
0000
0000
0000
0000
0000
0000
0000
0020
0030
0000
0000
0000
0000
0000
0000
0000
0000
0000
0000
0000
0000
0000
0000
2002
3003
0000
0000
0000
0000
0000
0000
0000
0000
0000
0000
0000
0000
0000
0000
,
0001
0100
0010
1000
0001
0010
0001
1000
0010
0100
0001
1000
0100
1000
0001
0100
,
0010
1000
0001
0010
0001
1000
0010
0100
0001
0010
0100
1000
0001
0100
0001
1000
,
0100
0010
0001
1000
0010
1000
0001
0010
0100
1000
0001
0100
0001
1000
0100
0010
,
0002
0000
0000
0000
0000
0000
0000
0000
0000
0000
0000
0000
0000
0000
0000
0000
2003
0000
0000
0000
0000
0000
0000
0000
0000
0000
0000
0000
0000
0000
0000
0000
3002
0003
0000
0000
0000
0000
0000
0000
0100
0000
0000
0000
0000
0000
0000
0000
0002
0003
0000
0000
0000
0000
0000
0000
1000
0000
0000
0000
0000
0000
0000
0000
,
0001
0010
0001
1000
0010
0100
0001
1000
0100
1000
0001
0100
0010
1000
0001
1000
,
0100
0010
0001
1000
0001
0100
0010
1000
0100
0010
0001
1000
0010
0100
0001
1000
,
0001
0010
0100
1000
0001
0100
0001
1000
0100
0010
0001
1000
0010
0100
0001
1000
,
0200
0010
2300
0001
3010
0100
0002
0003
,
1000
0100
0010
0001
1000
0010
1000
0001
0010
0100
1000
0001
0100
0001
1000
0100
,
0010
0001
1000
0010
1000
0001
0010
0100
1000
0010
0100
0001
1000
0100
0010
0001
,
0100
0010
1000
0001
0010
0001
1000
0010
0100
0001
1000
0100
1000
0001
0100
0010
,
2000
0000
0000
0000
0000
0000
0000
0000
0000
0000
0000
0000
0000
0000
0000
0000
3002
0000
0000
0000
0000
0000
0000
0000
0000
0000
0000
0000
0000
0000
0000
0000
2003
3000
0000
0000
0000
0000
0000
0000
0100
0000
0000
0000
0000
0000
0000
0000
2000
3000
0000
0000
0000
0000
0000
0000
0001
0000
0000
0000
0000
0000
0000
0000
,
1000
0010
1000
0001
0010
0100
1000
0001
0100
0001
1000
0100
0010
0001
1000
0001
,
0100
0010
1000
0001
1000
0100
0010
0001
0100
0010
1000
0001
0010
0100
1000
0001
,
1000
0010
0100
0001
1000
0100
1000
0001
0100
0010
1000
0001
0010
0100
1000
0001
,
0200
0010
0302
1003
0100
0010
0002
0003
,
0100
0010
1000
0010
0100
0010
1000
0001
0010
0000
0000
0000
0100
1000
0001
1000
,
0100
1000
0001
0100
0010
0000
0000
0000
2000
0000
0100
0000
3002
0000
0103
0000
,
0010
0100
0001
0100
0010
0100
0001
1000
0100
0000
0000
0000
0010
0001
1000
0001
,
0010
0001
1000
0000
0001
0000
0100
0000
0010
0000
0100
0000
0001
0000
1000
0000
,
0100
0010
0001
0010
0100
0010
0001
1000
0010
0000
0000
0000
0100
0001
1000
0001
,
0100
0001
1000
0100
0010
0000
0000
0000
0002
0000
0100
0000
2003
0000
3100
0000
,
0010
0000
0001
0000
1010
0000
0100
0000
1001
0000
0010
0000
,
0101
1000
0020
0130
0001
0001
1000
1000
,
0400
00M0
00M0
00M0
00M0
00M0
00M0
00M0
03M0
0000
0000
0000
0010
0000
0001
0000
,
1000
0000
0000
0000
0000
0000
0010
0000
0000
0000
0000
0000
0100
0000
0000
0000
0000
0000
0001
0000
0000
1000
0000
0000
0001
0000
0000
0000
0010
0000
0000
0000
0100
0000
0000
0000
1000
0000
0000
0000
0000
0000
0000
0000
0000
0000
0000
0000
,
0010
1000
0001
0010
,
0100
0000
1000
0001
0100
0000
0010
0000
,
1000
0000
0100
0000
0010
0000
0001
0000
0100
0000
0010
1000
0001
0000
0010
0000
,
0100
1000
0001
0100
0010
0000
0000
0000
,
0100
0001
1000
0100
,
0010
0000
0001
1000
0010
0000
0100
0000
,
0001
0000
0010
0000
0100
0000
1000
0000
0010
0000
0100
0001
1000
0000
0100
0000
,
0010
0001
1000
0010
0100
0001
1000
0100
1000
0001
0100
0010
1000
0000
0000
0000
,
0001
0010
0100
1000
0001
0100
0010
1000
0001
0010
0100
1000
0001
0100
0001
1000
,
0100
0010
0001
1000
0010
1000
0001
0010
0100
1000
0001
0100
0010
1000
0001
1000
,
0100
0010
0001
1000
0010
0100
0010
1000
0001
0010
0100
1000
0001
0100
0001
1000
,
0100
0010
0001
1000
0010
0100
0001
1000
0100
1000
0001
1000
0010
0100
0001
1000
,
0100
0000
0010
0000
0001
0000
1000
0000
0010
0100
0001
0000
1000
0000
0100
0000
,
0010
0001
1000
0000
0001
0100
0010
0000
1000
0010
0100
0001
1000
0000
0001
0010
,
0100
1000
0001
0100
0010
0100
0001
1000
0100
0010
0001
1000
0010
1000
0001
0010
,
0200
0000
1300
0002
0000
0103
0010
0000
,
2000
0001
3020
0130
0002
1000
0023
0130
,
2000
0000
3001
0000
0200
0000
0320
0000
2030
0000
0100
0000
3001
0000
0100
0010
,
2000
0000
0001
0000
3200
0000
0320
0000
0032
0000
0103
0010
2000
0000
3002
0000
,
0023
0000
0100
0000
0032
0000
0100
0000
0023
0000
0130
1000
0010
0000
0100
0000
,
0001
0010
0100
1000
0001
0100
0010
1000
0001
0010
0100
1000
0001
0100
0001
1000
,
0100
0010
0001
1000
0010
0100
0001
1000
0100
1000
0001
0100
0010
1000
0100
0010
,
0002
0000
1000
0000
0203
0000
0320
0000
2030
0000
3001
0010
0100
1000
0001
0100
,
0020
0000
0100
0000
2030
0000
0100
0000
3020
0000
0130
0001
0010
0000
0000
0000
,
0100
0000
1000
0000
0001
0100
0010
0000
,
1000
0000
0100
0000
0010
0001
1000
0000
,
0010
0000
0000
0000
0100
0000
0001
1000
0000
0100
0000
0010
0000
0001
1000
0010
,
0100
0001
0010
0100
1000
0000
0000
0000
0001
0000
0100
0000
0010
0000
0000
0000
,
1000
1000
0100
0010
0001
1000
0010
0100
,
0001
0000
0001
0000
0010
0000
0100
0000
1000
0000
0001
0000
0100
0000
0010
1000
,
0001
0010
0100
1000
0010
1000
0100
0010
,
0001
0100
0010
1000
0001
0010
0100
1000
0010
0100
0001
1000
0100
0010
0001
0000
,
2100
3000
0001
0000
2100
3000
0010
0000
2100
3000
0001
0000
2100
0000
0010
0000
,
3002
0003
0100
0000
0012
0003
1000
0000
0012
0003
0100
0000
0012
0000
0M00
0003
,
2010
3000
0001
0000
2010
3000
0100
0000
2010
3000
0001
0000
2010
0000
0100
0000
,
3002
0003
0010
0000
0102
0003
1000
0000
0102
0000
0000
0003
1000
0010
0100
0001
,
1000
0100
1000
0000
0001
0000
0100
0000
0010
1000
0001
0000
0010
0000
0100
0000
,
1000
0001
0100
0000
0010
0000
1000
0000
0001
0010
0001
0000
1000
0010
1000
0010
,
0100
0001
1000
0100
0010
0001
1000
0010
1000
0001
0010
0100
1000
0001
0100
0010
,
1000
0000
0000
0000
0001
0000
0000
0000
1000
0000
0000
0000
0100
0000
0000
0000
0010
0000
0000
0000
0001
0000
0000
0000
1000
0000
0000
0000
0010
0000
0000
0000
0400
0300
0000
0000
0004
0003
0000
0000
0400
0300
0000
0000
0004
0003
0000
0000
0400
0300
0000
0000
0004
0003
0000
0000
0400
0300
0000
0000
0004
0003
0000
0000
,
1000
0000
0100
00M0
0100
0000
0001
0000
0000
0000
1000
0000
0001
0000
0100
00M0
,
0100
1000
0000
0001
0200
0000
0310
0000
,
1000
0000
0100
00M0
0100
0000
0001
0000
0000
0000
1000
0000
0001
0000
0100
00M0
,
0100
1000
0000
0001
0200
0000
0310
0000
,
1000
0000
0000
0000
0100
00M0
0100
0000
0001
0000
0010
0000
0100
0000
1000
0000
,
0000
0001
1000
0010
0100
0001
0000
1000
,
0200
0000
0310
0000
0012
1000
0103
2010
,
0001
0000
0000
0000
0000
0000
0000
0000
3100
0000
0000
0000
0000
0000
0000
0000
0012
0000
0000
0000
0000
0000
0000
0000
1000
0000
0000
0000
0000
0000
0000
0000
0203
0000
0000
0000
0000
0000
0000
0000
0320
0000
0000
0000
0000
0000
0000
0000
2030
0000
0000
0000
0000
0000
0000
0000
0200
0300
0000
0000
0000
0000
0000
0000
,
3001
0100
0100
2010
0001
3100
0012
1000
,
0103
0000
0010
0000
1000
0000
0100
0000
1000
0000
0010
0000
0100
0000
0001
0000
0010
0000
0001
0000
0100
00M0
0100
0000
,
2000
0000
0000
0000
0000
0000
0000
0000
0010
0000
0000
0000
0000
0000
0000
0000
0010
0000
0000
0000
0000
0000
0000
0000
0200
0300
0000
0000
0000
0000
0000
0000
0001
0000
0000
0000
0000
0000
0000
0000
0001
0000
0000
0000
0000
0000
0000
0000
0200
0300
0000
0000
0000
0000
0000
0000
0010
0000
0000
0000
0000
0000
0000
0000
,
0010
0000
0000
0000
0000
0000
0000
0000
0200
0300
0000
0000
0000
0000
0000
0000
0001
0000
0000
0000
0000
0000
0000
0000
0001
0000
0000
0000
0000
0000
0000
0000
3200
0300
0000
0000
0000
0000
0000
0000
0010
0000
0000
0000
0000
0000
0000
0000
1000
0000
0000
0000
0000
0000
0000
0000
0002
0000
0000
0000
0000
0000
0000
0000
,
0010
0000
0000
0000
0000
0000
0000
0000
0010
0000
0000
0000
0000
0000
0000
0000
0200
0300
0000
0000
0000
0000
0000
0000
1000
0000
0000
0000
0000
0000
0000
0000
1000
0000
0000
0000
0000
0000
0000
0000
0200
0300
0000
0000
0000
0000
0000
0000
0010
0000
0000
0000
0000
0000
0000
0000
0010
0000
0000
0000
0000
0000
0000
0000
,
0200
0300
0000
0000
0000
0000
0000
0000
1000
0000
0000
0000
0000
0000
0000
0000
1000
0000
0000
0000
0000
0000
0000
0000
0200
0300
0000
0000
0000
0000
0000
0000
0010
0000
0000
0000
0000
0000
0000
0000
0010
0000
0000
0000
0000
0000
0000
0000
0203
0300
0000
0000
0000
0000
0000
0000
0000
0000
0000
0000
0000
0000
0000
0000
,
1000
0100
1000
0000
0001
0000
1000
0010
1000
0000
1001
0000
0000
0000
0000
0000
,
0000
0000
0001
0100
0001
0000
1000
0000
0001
0010
0001
0000
1001
0000
0000
0000
,
1000
0000
0010
0M00
0010
0000
0002
0003
0200
0300
0020
0000
1030
0000
0200
0300
,
0010
0000
0001
0100
0010
0100
0001
0000
1000
0100
0010
0001
1000
0010
1000
0001
,
0020
0000
0130
0000
1000
0001
0100
0000
0002
0000
1000
0000
0000
0000
0013
0000
,
0100
0000
2000
0000
0000
0000
3001
0000
0100
0000
0010
0000
1000
0001
0010
0000
,
0200
0000
0310
0000
0001
1000
0010
0000
0200
0000
0010
0000
0000
0000
0301
0000
,
1000
0000
0200
0000
0000
0000
0310
0000
0002
0000
1003
0000
0010
0100
0001
1000
,
0200
0000
0310
0000
0001
1000
0010
0000
2000
0000
0001
0000
0000
0000
3100
0000
,
0010
0000
0002
0000
0000
0000
1003
0000
0010
0000
0100
0000
0001
1000
0100
0000
,
0020
0000
0130
0000
1000
0001
0100
0000
0020
0000
0100
0000
0000
0000
1030
0000
,
0202
0303
0000
0000
0000
0000
0000
0000
0010
0000
0000
0000
0000
0000
0000
0000
0001
0000
0000
0000
0000
0000
0000
0000
2200
3300
0000
0000
0000
0000
0000
0000
0010
0000
0000
0000
0000
0000
0000
0000
1000
0000
0000
0000
0000
0000
0000
0000
0202
0303
0000
0000
0000
0000
0000
0000
0000
0000
0000
0000
0000
0000
0000
0000
,
0010
0001
1000
0010
,
0100
0000
0001
1000
0100
0000
0010
0000
,
0001
0000
0100
0000
0010
0000
1000
0000
0100
0000
0010
0001
1000
0000
0010
0000
,
0100
0001
1000
0100
0010
0000
0000
0000
,
0100
1000
0001
0100
,
0010
0000
1000
0001
0010
0000
0100
0000
,
1000
0000
0010
0000
0100
0000
0001
0000
0010
0000
0100
1000
0001
0000
0100
0000
,
0010
0000
0000
0000
,
2000
3000
0001
0000
0020
0030
0001
0000
2000
3000
0010
0000
0200
0300
0001
0000
,
0020
0030
0100
0000
2000
3000
0002
0003
0200
0000
0010
0000
0301
1000
0100
0010
,
0002
0003
0200
0300
0020
0030
2000
3000
0200
0000
0310
0001
2000
3000
0020
0030
,
1100
0001
1010
0001
2100
0000
3011
0100
,
0002
0003
1000
0000
0020
0030
1000
0000
0002
0003
0010
0000
0200
0300
1000
0000
,
0020
0030
0100
0000
0002
0003
2000
3000
0200
0000
0010
0000
1300
0000
0001
0000
,
0100
0010
1000
0001
0010
0100
1000
0001
0100
0001
1000
0100
0010
0001
1000
0010
,
0100
0001
0010
0100
1000
0010
0100
0001
1000
0100
0010
0001
0100
0010
1000
0001
,
0010
0000
0M00
0000
M000
0000
000M
0000
0M00
0000
00M0
M000
0M00
0000
00M0
0000
,
0001
0100
0010
1001
,
1000
0100
0010
0001
1000
0010
0100
0001
1000
0100
0010
0001
1000
0010
1000
0001
,
0010
0100
1000
0001
0100
0001
1000
0100
0010
0001
1000
0010
0100
0001
1000
0001
,
0010
0100
1000
0001
0100
0010
0100
0001
1000
0100
0010
0001
1000
0010
1000
0001
,
0010
0100
1000
0001
0100
0010
1000
0001
0010
0001
1000
0001
0100
0010
1000
0001
,
0010
0000
0100
0000
1000
0000
0001
0000
0100
0010
1000
0000
0001
0000
0010
0000
,
0100
1000
0001
0000
1000
0010
0100
0000
0001
0100
0010
1000
0001
0000
1000
0100
,
0010
0001
1000
0010
0100
0010
1000
0001
0010
0100
1000
0001
0100
0001
1000
0100
,
0020
0000
0031
2000
0000
3010
0100
0000
,
0002
1000
0023
0130
2000
0001
3020
0130
,
0002
0000
1003
0000
0200
0000
0320
0000
0032
0000
0100
0000
1003
0000
0100
0010
,
0002
0000
1000
0000
0203
0000
0320
0000
2030
0000
3100
0010
0002
0000
2003
0000
,
3020
0000
0100
0000
2030
0000
0100
0000
3020
0000
0130
0001
0010
0000
0100
0000
,
1000
0001
0010
0001
1000
0010
0100
0001
1000
0100
1000
0001
0100
0010
1000
0001
,
0010
0001
1000
0010
0100
0001
1000
0100
0010
0100
1000
0001
1000
0010
0100
0010
,
1000
0001
0010
0100
1000
0001
0100
0010
1000
0100
0010
0001
1000
0010
0100
0001
,
2000
0000
3200
0000
0320
0000
0032
0000
0103
0010
0000
0000
1000
0100
0010
0001
,
0200
0300
0000
0000
0000
0000
0020
0000
0030
0000
0000
0000
2000
0000
0000
3000
0000
0000
0002
0000
0000
0000
0003
0000
0020
0000
0000
0000
0000
0030
0100
0000
0000
1000
0000
0000
0001
0000
0000
0000
0000
0000
0100
0000
0000
0000
0000
0000
,
0000
0000
0110
0000
0000
0000
2001
0000
0000
0000
3001
0010
0100
0000
0000
0000
;

//--------------- dance-single - NAOKI STR BR FS DS ----------------
#NOTES:
     dance-single:
     NAOKI STR BR FS DS:
     Challenge:
     18:
     0,0,0,0,0:
0000
0000
0000
0000
,
2000
3000
0020
0130
,
0002
1003
0200
0310
,
0002
0003
0200
0310
,
2000
3001
0010
0100
,
2000
0000
3001
0000
0100
0010
1000
0000
,
0001
0000
0010
0000
0100
1000
0001
0000
,
0100
0000
0010
0000
1000
0000
0001
0000
0010
0000
0100
0000
1000
0000
0001
0100
,
0010
0000
1000
0000
0001
0000
0010
0000
0100
0000
0010
0000
0001
1000
0010
0100
,
0001
1000
0100
0010
0001
1000
0001
0200
,
0310
2000
3001
0010
0100
1000
0020
0130
,
0002
0000
1003
0000
0100
0000
0010
0000
0001
0000
1000
0000
0010
0000
0100
0001
,
1000
0000
0100
0000
1000
0001
0100
0000
0010
0000
0100
0001
4000
3000
0100
0010
,
0002
0000
0100
0000
1003
0000
0200
0000
0310
0001
1000
0000
0010
0000
0100
0001
,
2000
0000
0100
0000
3001
0100
0010
0000
0200
0000
0301
0000
1000
0000
0100
0010
,
0001
1000
0010
0100
0001
1000
0100
0010
,
0001
0100
0010
1000
0001
0010
0100
1000
0010
0100
0001
1000
0100
0010
0001
1000
,
0040
0000
0000
0000
0000
0000
0M00
0000
0000
0M00
0000
0000
0M30
0000
0000
0000
,
2000
3000
0000
0000
0000
0000
0000
0000
0000
0000
0000
0000
0000
0000
0000
0000
0200
0300
0000
0000
0000
0000
0000
0000
0000
0000
0000
0000
0000
0000
0000
0000
0020
0030
0000
0000
0000
0000
0000
0000
0000
0000
0000
0000
0000
0000
0000
0000
2002
3003
0000
0000
0000
0000
0000
0000
0000
0000
0000
0000
0000
0000
0000
0000
,
0001
0100
0010
1000
0001
0010
0001
1000
0010
0100
0001
1000
0100
1000
0001
0100
,
0010
1000
0001
0010
0001
1000
0010
0100
0001
0010
0100
1000
0001
0100
0001
1000
,
0100
0010
0001
1000
0010
1000
0001
0010
0100
1000
0001
0100
0001
1000
0100
0010
,
0002
0003
0000
0000
0100
0000
0000
0000
0010
0000
0000
0000
1000
0000
0000
0000
0002
0003
0000
0000
0010
0000
0000
0000
0100
0000
0000
0000
1000
0000
0000
0000
0002
0003
0000
0000
0100
0000
0000
0000
0010
0000
0000
0000
1000
0000
0000
0000
0002
0003
0000
0000
0010
0000
0000
0000
0100
0000
0000
0000
1000
0000
0000
0000
,
0010
0100
0001
1000
0100
1000
0001
0100
0010
1000
0001
0010
0001
1000
0010
0100
,
0001
1000
0100
1000
0001
0100
0010
1000
0100
0010
0001
1000
0010
0100
0001
1000
,
0001
0010
0100
1000
0001
0100
0001
1000
0100
0010
0001
1000
0010
0100
0001
1000
,
0200
0000
0000
0000
0000
0000
0000
0000
0000
0000
0000
0000
0000
0000
0000
0000
0000
0000
0000
0000
0000
0000
0000
0000
0010
0000
0000
0000
0000
0000
0000
0000
0000
0000
0000
0000
0000
0000
0000
0000
0000
0000
0000
0000
0000
0300
0000
0000
2000
0000
0000
0000
0000
0000
0000
0000
0000
0000
0000
0000
0000
0000
0000
0000
0000
0000
0000
0000
0000
0000
0000
0000
0001
0000
0000
0000
0000
0000
0000
0000
0000
0000
0000
0000
0000
0000
0000
0000
3000
0000
0000
0000
0000
0000
0000
0000
0010
0000
0000
0000
0000
0000
0000
0000
0000
0000
0000
0000
0000
0000
0000
0000
0000
0000
0000
0000
0000
0000
0000
0000
0100
0000
0000
0000
0000
0000
0000
0000
0000
0000
0000
0000
0000
0000
0000
0000
0000
0000
0000
0000
0000
0000
0000
0000
0002
0000
0000
0000
0000
0000
0000
0000
0000
0000
0000
0000
0000
0000
0000
0000
0000
0000
0000
0000
0000
0000
0000
0000
0003
0000
0000
0000
0000
0000
0000
0000
0000
0000
0000
0000
0000
0000
0000
0000
0000
0000
0000
0000
0000
0000
0000
0000
,
1000
0100
0010
0001
1000
0010
1000
0001
0010
0100
1000
0001
0100
0001
1000
0100
,
0010
0001
1000
0010
1000
0001
0010
0100
1000
0010
0100
0001
1000
0100
0010
0001
,
0100
0010
1000
0001
0010
0001
1000
0010
0100
0001
1000
0100
1000
0001
0100
0010
,
2000
3000
0000
0000
0100
0000
0000
0000
0010
0000
0000
0000
0001
0000
0000
0000
2000
3000
0000
0000
0010
0000
0000
0000
0100
0000
0000
0000
0001
0000
0000
0000
2000
3000
0000
0000
0100
0000
0000
0000
0010
0000
0000
0000
0001
0000
0000
0000
2000
3000
0000
0000
0010
0000
0000
0000
0100
0000
0000
0000
0001
0000
0000
0000
,
0010
0100
1000
0001
0100
0001
1000
0100
0010
0001
1000
0010
1000
0001
0010
0100
,
1000
0001
0100
0001
1000
0100
0010
0001
0100
0010
1000
0001
0010
0100
1000
0001
,
1000
0010
0100
0001
1000
0100
1000
0001
0100
0010
1000
0001
0010
0100
0010
0001
,
0100
0010
1000
0001
0010
0100
1000
0001
0100
0010
1000
0001
0010
0100
1000
0001
,
0100
0010
1000
0010
0100
0010
1000
0001
0010
0000
0000
0000
0100
1000
0001
1000
,
0100
1000
0001
0100
0010
0000
0000
0000
2000
0000
0100
0000
3002
0000
0103
0000
,
0010
0100
0001
0100
0010
0100
0001
1000
0100
0000
0000
0000
0010
0001
1000
0001
,
0010
0001
0100
0010
1000
0001
0010
0100
1000
0001
1000
0010
0100
0001
1000
0000
,
0100
0010
0001
0010
0100
0010
0001
1000
0010
0000
0000
0000
0100
0001
1000
0001
,
0100
0001
1000
0100
0010
0000
0000
0000
0002
0000
0100
0000
2003
0000
3100
0000
,
0010
0000
0001
0000
1010
0000
0100
0000
1001
0000
0010
0000
,
0101
1000
0020
0130
0001
0001
1000
1000
,
0400
00M0
00M0
00M0
00M0
00M0
00M0
00M0
03M0
0000
0000
0000
0010
0000
0001
0000
,
1000
0000
0000
0000
0000
0000
0010
0000
0000
0000
0000
0000
0100
0000
0000
0000
0000
0000
0001
0000
0000
1000
0000
0000
0001
0000
0000
0000
0010
0000
0000
0000
0100
0000
0000
0000
1000
0000
0000
0000
0000
0000
0000
0000
0000
0000
0000
0000
,
0010
1000
0001
0010
,
0100
0000
1000
0001
0100
0000
0010
0000
,
1000
0000
0100
0000
0010
0000
0001
0000
0100
0000
0010
1000
0001
0000
0010
0000
,
0100
1000
0001
0100
0010
0000
0000
0000
,
0100
0001
1000
0100
,
0010
0000
0001
1000
0010
0000
0100
0000
,
0001
0000
0010
0000
0100
0000
1000
0000
0010
0000
0100
0001
1000
0000
0100
0000
,
0010
0001
1000
0010
0100
0001
1000
0100
1000
0001
0100
0010
1000
0000
0000
0000
,
0001
0010
0100
1000
0001
0100
0010
1000
0001
0010
0100
1000
0001
0100
0001
1000
,
0100
0010
0001
1000
0010
1000
0001
0010
0100
1000
0001
0100
0010
1000
0001
1000
,
0100
0010
0001
1000
0010
0100
0010
1000
0001
0010
0100
1000
0001
0100
0001
1000
,
0100
0010
0001
1000
0010
0100
0001
1000
0100
1000
0001
1000
0010
0100
0001
1000
,
0100
0010
0001
1000
0010
0100
0001
1000
0100
0010
0001
1000
0010
1000
0001
0010
,
0100
1000
0001
0100
0001
1000
0100
0010
0001
1000
0010
0100
0001
1000
0001
0010
,
0100
1000
0001
0100
0010
0100
0001
1000
0100
0010
0001
1000
0010
1000
0001
0010
,
0100
0010
0001
1000
0001
0100
0010
0100
0001
1000
0100
0010
0001
0000
0000
0000
,
2000
0001
3020
0130
0002
1000
0023
0130
,
2000
0000
3001
0000
0200
0000
0320
0000
2030
0000
0100
0000
3001
0000
0100
0010
,
2000
0000
0001
0000
3200
0000
0320
0000
0032
0000
0103
0010
2000
0000
3002
0000
,
0023
0000
0100
0000
0032
0000
0100
0000
0023
0000
0130
1000
0010
0000
0100
0000
,
0001
0010
0100
1000
0001
0100
0010
1000
0001
0010
0100
1000
0001
0100
0001
1000
,
0100
0010
0001
1000
0010
0100
0001
1000
0100
1000
0001
0100
0010
1000
0100
0010
,
0002
0000
1000
0000
0203
0000
0320
0000
2030
0000
3001
0010
0100
1000
0001
0100
,
0020
0000
0100
0000
2030
0000
0100
0000
3020
0000
0130
0001
0010
0000
0000
0000
,
0100
0000
1000
0000
0001
0100
0010
0000
,
1000
0000
0100
0000
0010
0001
1000
0000
,
0010
0000
0000
0000
0100
0000
0001
1000
0000
0100
0000
0010
0000
0001
1000
0010
,
0100
0001
0010
0100
1000
0000
0000
0000
0001
0000
0100
0000
0010
0000
0000
0000
,
1000
1000
0100
0010
0001
1000
0010
0100
,
0001
0000
0001
0000
0010
0000
0100
0000
1000
0000
0001
0000
0100
0000
0010
1000
,
0001
0010
0100
1000
0010
1000
0100
0010
,
0001
0100
0010
1000
0001
0010
0100
1000
0010
0100
0001
1000
0100
0010
0001
0000
,
2100
3000
0001
0000
2100
3000
0010
0000
2100
3000
0001
0000
2100
0000
0010
0000
,
3002
0003
0100
0000
0012
0003
1000
0000
0012
0003
0100
0000
0012
0000
0M00
0003
,
2010
3000
0001
0000
2010
3000
0100
0000
2010
3000
0001
0000
2010
0000
0100
0000
,
3002
0003
0010
0000
0102
0003
1000
0000
0102
0000
0000
0003
1000
0010
0100
0001
,
1000
0100
1000
0001
0100
0010
1000
0001
0010
0001
1000
0010
0100
0001
1000
0100
,
1000
0010
0100
0001
1000
0100
0010
0001
0100
0010
1000
0001
0010
0100
1000
0001
,
0100
0001
1000
0100
0010
0001
1000
0010
1000
0001
0010
0100
1000
0001
0100
0010
,
1000
0000
0000
0000
0001
0000
0000
0000
1000
0000
0000
0000
0100
0000
0000
0000
0010
0000
0000
0000
0001
0000
0000
0000
1000
0000
0000
0000
0010
0000
0000
0000
0400
0300
0000
0000
0004
0003
0000
0000
0400
0300
0000
0000
0004
0003
0000
0000
0400
0300
0000
0000
0004
0003
0000
0000
0400
0300
0000
0000
0004
0003
0000
0000
,
1000
0000
0100
00M0
0100
0000
0001
0000
0000
0000
1000
0000
0001
0000
0100
00M0
,
0100
1000
0000
0001
0200
0000
0310
0000
,
1000
0000
0100
00M0
0100
0000
0001
0000
0000
0000
1000
0000
0001
0000
0100
00M0
,
0100
1000
0000
0001
0200
0000
0310
0000
,
1000
0000
0000
0000
0100
00M0
0100
0000
0001
0000
0010
0000
0100
0000
1000
0000
,
0000
0001
1000
0010
0100
0001
0000
1000
,
0200
0000
0310
0000
0012
1000
0103
2010
,
0001
0000
0000
0000
0000
0000
0000
0000
3100
0000
0000
0000
0000
0000
0000
0000
0012
0000
0000
0000
0000
0000
0000
0000
1000
0000
0000
0000
0000
0000
0000
0000
0203
0000
0000
0000
0000
0000
0000
0000
0320
0000
0000
0000
0000
0000
0000
0000
2030
0000
0000
0000
0000
0000
0000
0000
0200
0300
0000
0000
0000
0000
0000
0000
,
3001
0100
0100
2010
0001
3100
0012
1000
,
0103
0000
0010
0000
1000
0000
0100
0000
1000
0000
0010
0000
0100
0000
0001
0000
0010
0000
0001
0000
0100
00M0
0100
0000
,
2000
0000
0000
0000
0000
0000
0000
0000
0010
0000
0000
0000
0000
0000
0000
0000
0010
0000
0000
0000
0000
0000
0000
0000
0200
0300
0000
0000
0000
0000
0000
0000
0001
0000
0000
0000
0000
0000
0000
0000
0001
0000
0000
0000
0000
0000
0000
0000
0200
0300
0000
0000
0000
0000
0000
0000
0010
0000
0000
0000
0000
0000
0000
0000
,
0010
0000
0000
0000
0000
0000
0000
0000
0200
0300
0000
0000
0000
0000
0000
0000
0001
0000
0000
0000
0000
0000
0000
0000
0001
0000
0000
0000
0000
0000
0000
0000
3200
0300
0000
0000
0000
0000
0000
0000
0010
0000
0000
0000
0000
0000
0000
0000
1000
0000
0000
0000
0000
0000
0000
0000
0002
0000
0000
0000
0000
0000
0000
0000
,
0010
0000
0000
0000
0000
0000
0000
0000
0010
0000
0000
0000
0000
0000
0000
0000
0200
0300
0000
0000
0000
0000
0000
0000
1000
0000
0000
0000
0000
0000
0000
0000
1000
0000
0000
0000
0000
0000
0000
0000
0200
0300
0000
0000
0000
0000
0000
0000
0010
0000
0000
0000
0000
0000
0000
0000
0010
0000
0000
0000
0000
0000
0000
0000
,
0200
0300
0000
0000
0000
0000
0000
0000
1000
0000
0000
0000
0000
0000
0000
0000
1000
0000
0000
0000
0000
0000
0000
0000
0200
0300
0000
0000
0000
0000
0000
0000
0010
0000
0000
0000
0000
0000
0000
0000
0010
0000
0000
0000
0000
0000
0000
0000
0203
0300
0000
0000
0000
0000
0000
0000
0000
0000
0000
0000
0000
0000
0000
0000
,
1000
0100
1000
0000
0001
0000
1000
0010
1000
0000
1001
0000
0000
0000
0000
0000
,
0000
0000
0001
0100
0001
0000
1000
0000
0001
0010
0001
0000
1001
0000
0000
0000
,
1000
0000
0010
0M00
0010
0000
0002
0003
0200
0300
0020
0000
1030
0000
0200
0300
,
0010
0000
0001
0100
0010
0100
0001
0000
1000
0100
0010
0001
1000
0010
1000
0001
,
0020
0000
0130
0000
1000
0001
0100
0000
0002
0000
1000
0000
0000
0000
0013
0000
,
0100
0000
2000
0000
0000
0000
3001
0000
0100
0000
0010
0000
1000
0001
0010
0000
,
0200
0000
0310
0000
0001
1000
0010
0000
0200
0000
0010
0000
0000
0000
0301
0000
,
1000
0000
0200
0000
0000
0000
0310
0000
0002
0000
1003
0000
0010
0100
0001
1000
,
0200
0000
0310
0000
0001
1000
0010
0000
2000
0000
0001
0000
0000
0000
3100
0000
,
0010
0000
0002
0000
0000
0000
1003
0000
0010
0000
0100
0000
0001
1000
0100
0000
,
0020
0000
0130
0000
1000
0001
0100
0000
0020
0000
0100
0000
0000
0000
1030
0000
,
0202
0303
0000
0000
0000
0000
0000
0000
0010
0000
0000
0000
0000
0000
0000
0000
0001
0000
0000
0000
0000
0000
0000
0000
2200
3300
0000
0000
0000
0000
0000
0000
0010
0000
0000
0000
0000
0000
0000
0000
1000
0000
0000
0000
0000
0000
0000
0000
0202
0303
0000
0000
0000
0000
0000
0000
0000
0000
0000
0000
0000
0000
0000
0000
,
0010
0001
1000
0010
,
0100
0000
0001
1000
0100
0000
0010
0000
,
0001
0000
0100
0000
0010
0000
1000
0000
0100
0000
0010
0001
1000
0000
0010
0000
,
0100
0001
1000
0100
0010
0000
0000
0000
,
0100
1000
0001
0100
,
0010
0000
1000
0001
0010
0000
0100
0000
,
1000
0000
0010
0000
0100
0000
0001
0000
0010
0000
0100
1000
0001
0000
0100
0000
,
0010
0000
0000
0000
,
2000
3000
0001
0000
0020
0030
0001
0000
2000
3000
0010
0000
0200
0300
0001
0000
,
0020
0030
0100
0000
2000
3000
0002
0003
0200
0000
0010
0000
0301
1000
0100
0010
,
0002
0003
0200
0300
0020
0030
2000
3000
0200
0000
0310
0001
2000
3000
0020
0030
,
1100
0001
1010
0001
2100
0000
3011
0100
,
0002
0003
1000
0000
0020
0030
1000
0000
0002
0003
0010
0000
0200
0300
1000
0000
,
0020
0030
0100
0000
0002
0003
2000
3000
0200
0000
0010
0000
1300
0000
0001
0000
,
0100
0010
1000
0001
0010
0100
1000
0001
0100
0001
1000
0100
0010
0001
1000
0010
,
0100
0001
0010
0100
1000
0010
0100
0001
1000
0100
0010
0001
0100
0010
1000
0001
,
0010
0000
0M00
0000
M000
0000
000M
0000
0M00
0000
00M0
M000
0M00
0000
00M0
0000
,
0001
0100
0010
1001
,
1000
0100
0010
0001
1000
0010
0100
0001
1000
0100
0010
0001
1000
0010
1000
0001
,
0010
0100
1000
0001
0100
0001
1000
0100
0010
0001
1000
0010
0100
0001
1000
0001
,
0010
0100
1000
0001
0100
0010
0100
0001
1000
0100
0010
0001
1000
0010
1000
0001
,
0010
0100
1000
0001
0100
0010
1000
0001
0010
0001
1000
0001
0100
0010
1000
0001
,
0010
0100
1000
0001
0100
0010
1000
0001
0010
0100
1000
0001
0100
0001
1000
0100
,
0010
0001
1000
0010
1000
0001
0010
0100
1000
0001
0100
0010
1000
0001
1000
0100
,
0010
0001
1000
0010
0100
0010
1000
0001
0010
0100
1000
0001
0100
0001
1000
0100
,
0010
0100
1000
0001
1000
0010
0100
0010
1000
0001
0010
0001
1000
0010
0100
0001
,
0100
0010
1000
0001
0010
0100
1000
0001
0100
0010
1000
0001
0010
0001
1000
0010
,
0100
0001
1000
0100
1000
0001
0100
0010
1000
0001
0010
0100
1000
0001
1000
0010
,
0100
0001
1000
0100
0010
0100
1000
0001
0100
0010
1000
0001
0010
0001
1000
0010
,
0100
0001
1000
0100
1000
0001
0100
0010
1000
0001
1000
0100
1000
0001
0100
0010
,
1000
0001
0010
0001
1000
0010
0100
0001
1000
0100
1000
0001
0100
0010
1000
0001
,
0010
0001
1000
0010
0100
0001
1000
0100
0010
0100
1000
0001
1000
0010
0100
0010
,
1000
0001
0010
0100
1000
0001
0100
0010
1000
0100
0010
0001
1000
0010
0100
0001
,
1000
0001
0010
0100
0010
0001
1000
0001
0100
0010
0100
0001
1000
0100
0010
0001
,
0200
0300
0000
0000
0000
0000
0020
0000
0030
0000
0000
0000
2000
0000
0000
3000
0000
0000
0002
0000
0000
0000
0003
0000
0020
0000
0000
0000
0000
0030
0100
0000
0000
1000
0000
0000
0001
0000
0000
0000
0000
0000
0100
0000
0000
0000
0000
0000
,
0000
0000
0110
0000
0000
0000
2001
0000
0000
0000
3001
0010
0100
0000
0000
0000
;
