#VERSION:0.83;
#TITLE:Destroy marriage;
#SUBTITLE:;
#ARTIST:CHiNTOMO;
#TITLETRANSLIT:;
#SUBTITLETRANSLIT:;
#ARTISTTRANSLIT:;
#GENRE:;
#CREDIT:;
#MUSIC:Destroy marriage.ogg;
#BANNER:Destroy_Marriage-bn.png;
#BACKGROUND:Destroy_Marriage-bg.png;
#CDTITLE:NAOKI_cdtitle.png;
#SAMPLESTART:78.873;
#SAMPLELENGTH:12.000;
#SELECTABLE:YES;
#OFFSET:-0.427;
#BPMS:0.000=180.000
,99.250=120.000
,99.500=270.000
,100.000=180.000
,164.000=270.000
,168.000=180.000
,232.000=92160.000
,272.000=180.000
;
#STOPS:164.000=0.056
,164.500=0.028
,164.750=0.028
,165.000=0.056
,165.500=0.056
,166.333=0.074
,166.833=0.037
,167.167=0.037
,167.500=0.037
,167.833=0.037
,232.000=0.083
,236.000=0.083
,240.000=0.083
,244.000=0.083
,248.000=0.167
,252.000=0.083
,256.000=0.083
,260.000=0.083
,264.000=0.083
,268.000=0.167
;
#WARPS:232.021=3.875,
236.021=3.875,
240.021=3.875,
244.021=3.875,
248.021=3.875,
252.021=3.875,
256.021=3.875,
260.021=3.875,
264.021=3.875,
268.021=3.875
;
#DISPLAYBPM:180.000;
#BGCHANGES:;
#FGCHANGES:;

//--------------- dance-single - NAOKI ----------------
#NOTEDATA:;
#STEPSTYPE:dance-single;
#DESCRIPTION:NAOKI;
#DIFFICULTY:Beginner;
#METER:2;
#RADARVALUES:0.192,0.448,0.009,0.219,0;
#NOTES:
0000
0000
0000
0000
,
0000
0000
0000
0000
,
0000
0000
0000
0000
,
0000
0000
0000
0000
,
0000
0000
0000
0000
,
0000
0000
0000
0000
,
0000
0000
0000
0000
,
0000
0000
0000
0000
,
0010
0000
0000
0000
,
0100
0000
0000
0000
,
0001
0000
0000
0000
,
1000
0000
0000
0000
,
0100
0000
0000
0000
,
0010
0000
0000
0000
,
0001
0000
0000
0000
,
2000
0000
0000
0000
,
3000
0000
0000
0000
,
0010
0000
0010
0000
,
0010
0000
0000
0000
,
0100
0000
0100
0000
,
0100
0000
0000
0000
,
0001
0000
0001
0000
,
0001
0000
0000
0000
,
1000
0000
1000
0000
,
1000
0000
0000
0000
,
0100
0000
0100
0000
,
0010
0000
0010
0000
,
0001
0000
0001
0000
,
1000
0000
1000
0000
,
0010
0000
0010
0000
,
0100
0000
0100
0000
,
0001
0000
0001
0000
,
1000
0000
1000
0000
,
0100
0000
0000
0000
,
0010
0000
0000
0000
,
0001
0000
0000
0000
,
0100
0000
0000
0000
,
0010
0000
0000
0000
,
1000
0000
0000
0000
,
0100
0000
0000
0000
,
0020
0000
0000
0000
,
0030
0000
0000
0000
,
0001
0000
0100
0000
,
0010
0000
0000
0000
,
1000
0000
0100
0000
,
0010
0000
0000
0000
,
0001
0000
0010
0000
,
0100
0000
0000
0000
,
1000
0000
0010
0000
,
0100
0000
0000
0000
,
0002
0000
0000
0000
,
2003
0000
0000
0000
,
3200
0000
0000
0000
,
0320
0000
0000
0000
,
0230
0000
0000
0000
,
2300
0000
0000
0000
,
3002
0000
0000
0000
,
0203
0000
0020
0330
,
0000
0000
0000
0000
,
0000
0000
0000
0000
,
0000
0000
0000
0000
,
0000
0000
0000
0000
,
0000
000M
0000
0000
,
0000
0000
0000
0000
,
0000
0000
0000
0000
,
0000
0000
0000
0000
,
0000
0000
0000
0000
,
0000
M000
0000
0000
,
0000
1000
0000
0010
,
0000
0100
0100
0000
,
0001
1000
0000
0100
,
0010
0002
0000
2003
,
0000
3001
0000
0010
,
0000
0100
0100
0000
,
1000
0001
0000
0100
,
0010
2000
3002
2003
,
3002
1003
0000
0100
,
0000
0010
0010
0000
,
0001
1000
0000
0010
,
0100
0002
0000
2003
,
0000
3001
0000
0100
,
0000
0010
0010
0000
,
1000
0001
0000
0010
,
0100
2000
3002
2003
,
3002
1003
0000
0010
,
0000
0100
0001
0000
,
1000
0100
0000
0010
,
0000
0002
0000
2003
,
0000
3001
0000
0100
,
0000
0010
1000
0000
,
0001
0010
0000
0100
,
0000
1000
0000
0001
,
0000
1001
0000
0000
;

//--------------- dance-single - NAOKI ----------------
#NOTEDATA:;
#STEPSTYPE:dance-single;
#DESCRIPTION:NAOKI;
#DIFFICULTY:Easy;
#METER:5;
#RADARVALUES:0.286,0.489,0.009,0.253,0;
#NOTES:
0000
0000
0000
0000
,
0000
0000
0000
0000
,
0000
0000
0000
0000
,
0000
0000
0000
0000
,
0000
0000
0000
0000
,
0000
0000
0000
0000
,
0000
0000
0000
0000
,
0000
0000
0000
0000
,
1000
0000
0000
0000
,
0001
0000
0000
0000
,
0100
0000
0000
0000
,
0010
0000
0000
0000
,
1000
0000
0000
0000
,
0001
0000
0000
0000
,
0010
0000
0100
0000
,
2000
0000
0002
0000
,
3003
0000
0000
0000
,
1000
1000
0010
0010
,
0100
0001
1000
0000
,
0100
0100
0010
0010
,
0001
1000
0010
0000
,
0100
0100
0001
0001
,
1000
0100
0010
0000
,
0001
0001
1000
1000
,
0010
0100
0001
0000
,
2000
3100
2000
3100
,
2000
3100
0010
0010
,
0002
0103
0002
0103
,
0002
0103
0010
0010
,
2000
3010
2000
3010
,
2000
3010
0100
0100
,
0002
0013
0002
0013
,
0002
0013
0100
1000
,
0001
0000
0000
0000
,
0010
0000
0000
0000
,
0100
0000
0000
0000
,
1000
0000
0000
0000
,
0010
0000
0100
0000
,
0001
0000
1000
0000
,
0100
0000
0010
0000
,
0002
0000
2000
0000
,
3003
0000
0000
0000
,
0010
0000
0100
0000
,
0001
0000
1000
0100
,
0010
0000
0001
0000
,
1000
0000
0010
0100
,
0001
0000
0010
0000
,
0100
0000
1000
0001
,
0100
0000
0010
0000
,
1000
0000
0100
0000
,
0020
0000
0000
0030
,
0002
0000
0003
0000
,
2000
0000
3000
0010
,
0200
0000
0300
0001
,
0020
0000
0000
0030
,
0200
0000
0300
0000
,
2000
0000
0000
0000
,
3020
0000
0200
0330
,
0MM0
0000
0000
0000
,
0000
0000
0000
0000
,
0000
0000
0000
0000
,
0000
0000
0000
0000
,
M000
0M00
00M0
000M
,
0000
0000
0000
0000
,
0000
0000
0000
0000
,
0000
0000
0000
0000
,
0000
0000
0000
0000
,
0000
000M
00M0
0M00
,
0000
0001
0010
0100
,
1000
0001
0001
0100
,
0010
1000
0000
0001
,
0000
0010
0010
0100
,
0100
1000
0010
0100
,
0001
1000
1000
0100
,
0010
0001
0000
1000
,
0000
0002
2003
3002
,
2003
3001
0100
0010
,
1000
0001
0001
0010
,
0100
1000
0000
0001
,
0000
0100
0100
0010
,
0010
1000
0100
0010
,
0001
1000
1000
0010
,
0100
0001
0000
1000
,
0000
0100
0100
0010
,
0010
0001
0100
0010
,
1000
0001
0001
0010
,
0100
1000
0000
0001
,
0000
0100
0100
0010
,
0010
1000
0100
0010
,
0001
1000
1000
0010
,
0100
0001
0010
0100
,
1000
0001
0100
0010
,
1000
1001
0100
0010
,
1000
1001
0000
0000
;

//--------------- dance-single - NAOKI ----------------
#NOTEDATA:;
#STEPSTYPE:dance-single;
#DESCRIPTION:NAOKI;
#DIFFICULTY:Medium;
#METER:12;
#RADARVALUES:0.549,0.735,0.262,0.306,0.101;
#NOTES:
0000
0000
0000
0000
,
0000
0000
0000
0000
,
0000
0000
0000
0000
,
0000
0000
0000
0000
,
0000
0000
0000
0000
,
0000
0000
0000
0000
,
0000
0000
0000
0000
,
0000
0000
0000
0000
,
1001
0000
0000
0000
0000
1000
0000
0000
,
0100
0000
0000
0000
0000
0100
0000
0000
,
0010
0000
0000
0000
0000
0010
0000
0000
,
0001
0000
0000
0000
0000
0001
0000
0000
,
0100
0000
0000
0000
0000
0100
0000
0000
,
0010
0000
0000
0000
0000
0010
0000
0000
,
1000
0000
0100
0000
,
0010
0000
0001
0000
,
1001
0000
0000
0000
,
1000
0000
0010
0000
0100
0001
1000
0000
,
0100
0000
0010
0000
0001
0100
0010
0100
,
0001
0000
0010
0000
0100
1000
0001
0000
,
0100
0000
0010
0000
1000
0100
0010
0100
,
1000
0000
0100
0000
0010
0001
1000
0000
,
0010
0000
0100
0000
0001
0010
0100
0010
,
0001
0000
0100
0000
0010
1000
0001
0000
,
0010
0000
0100
1000
0000
0001
0100
0000
,
2010
3010
0102
0103
,
1010
0011
1100
0101
,
0012
0013
2100
3100
,
0011
1010
0101
1100
,
0102
0103
2010
3010
,
0101
1100
0011
1010
,
2100
3100
0012
0013
,
1100
0101
1010
0011
,
2000
0010
3010
0100
,
0002
0010
0013
0000
,
2000
0100
3100
0010
,
0002
0100
0103
0000
,
0020
0100
0130
0010
,
2000
0001
3001
0000
,
0020
0100
0130
0010
,
0002
1000
1003
0010
,
0100
0000
0000
0000
0000
0000
0001
0000
0000
1000
0000
0000
0100
0000
0000
0000
0010
0000
0001
0000
1000
0000
0010
0000
,
0200
0000
0300
0001
0010
0100
1000
0000
0000
0001
0000
0000
,
0100
0000
0000
0010
0000
0000
1000
0000
0000
0100
0010
0100
,
1000
0001
0100
0010
,
1000
0000
0000
0100
0000
0000
0010
0000
0000
0001
0100
0010
,
1000
0001
0010
0100
,
1000
0000
0000
0001
0000
0000
0100
0000
0000
0010
1000
0010
,
0100
0000
0000
0001
0010
0100
0010
0000
0000
0100
1000
0001
,
0100
0010
1000
0100
,
0012
0000
0000
0100
,
0203
0000
0320
0000
,
2030
0000
3002
0023
,
0230
0000
2300
3002
,
0203
0000
0000
0010
,
0320
0000
2030
0000
,
3002
0000
0000
0000
,
0023
0000
0200
0330
,
0000
M000
0000
0000
0000
0000
0000
0000
,
0000
MM00
0000
0000
0000
0000
0000
0000
,
0000
MMM0
0000
0000
0000
0000
0000
0000
,
0000
MMMM
0000
0000
0000
0000
0000
0000
,
0000
0000
0M00
00M0
MMMM
00M0
0M00
0000
0000
0000
0000
0000
0000
0000
0000
0000
0000
0000
0000
0000
0000
0000
0000
0000
0000
0000
0000
0000
0000
0000
0000
0000
,
0000
000M
0000
0000
0000
0000
0000
0000
,
0000
00MM
0000
0000
0000
0000
0000
0000
,
0000
0MMM
0000
0000
0000
0000
0000
0000
,
0000
MMMM
0000
0000
0000
0000
0000
0000
,
0000
0000
00M0
0M00
MMMM
0M00
00M0
0000
0000
0000
0000
0000
0000
0000
0000
0000
0000
0000
0000
0000
0000
0000
0000
0000
0000
0000
0000
0000
0000
0000
0000
0000
,
0000
0000
1000
0100
0010
0001
1000
0100
,
0010
0001
1000
0100
0001
0100
1000
0010
,
0100
0001
1000
0100
0010
0001
1000
0010
,
0001
0010
1000
0100
1000
0100
0001
0100
,
0001
0100
1000
0010
0100
0001
1000
0010
,
0100
0001
1000
0010
0001
0010
1000
0100
,
0010
0001
1000
0010
0100
0001
1000
0100
,
0001
0100
1000
0000
1001
0000
0110
0000
,
1001
0000
0001
0100
0010
1000
0001
0100
,
0010
1000
0001
0100
1000
0100
0001
0010
,
0100
1000
0001
0100
0010
1000
0001
0010
,
1000
0010
0001
0100
0001
0100
1000
0100
,
1000
0100
0001
0010
0100
1000
0001
0010
,
0100
1000
0001
0100
1000
0100
0001
0010
,
0100
1000
0001
0100
0010
1000
0001
0010
,
1000
0010
0002
0000
0103
0000
2000
0000
,
3100
0000
1000
0010
0100
0001
1000
0100
,
0010
0001
1000
0010
0001
0010
1000
0100
,
0010
0001
1000
0010
0100
0001
1000
0100
,
0001
0100
1000
0010
1000
0010
0001
0010
,
0001
0010
1000
0100
0010
0001
1000
0010
,
0100
0001
1000
0100
0001
0100
1000
0010
,
0100
0001
0010
1000
0010
0001
0100
1000
,
0100
0001
0010
0100
1000
0001
0100
0010
,
1000
0100
0020
0000
0030
0000
0000
0000
;

//--------------- dance-single - NAOKI ----------------
#NOTEDATA:;
#STEPSTYPE:dance-single;
#DESCRIPTION:NAOKI;
#DIFFICULTY:Hard;
#METER:18;
#RADARVALUES:1,1,0.253,0.192,1;
#NOTES:
0000
0000
0000
0000
,
0000
0000
0000
0000
,
0000
0000
0000
0000
,
0000
0000
0000
0000
,
0000
0000
0000
0000
,
0000
0000
0000
0000
,
0000
0000
0000
0000
,
0000
0000
0000
0000
,
1000
0000
0010
0000
0000
0000
0000
0101
0000
0000
0000
0000
,
0001
0000
0010
0000
0000
0000
0000
1100
0000
0001
0010
0100
,
1000
0000
0100
0000
0000
0000
0000
0011
0000
0000
0000
0000
,
0001
0000
0100
0000
0000
0000
0000
1010
0000
1000
0010
0100
,
0001
0000
0010
0000
0000
0000
0000
0110
0000
0000
0000
0000
,
1000
0000
0010
0000
0000
0000
0000
0110
0000
0001
0100
0010
,
1000
0000
0100
0000
0010
0000
0001
1000
0001
0000
0100
0000
,
0010
0100
0001
1000
0100
0010
0001
0100
0010
1000
0001
0010
,
0100
1000
0001
0100
0010
0000
1000
0001
0010
0100
0010
0001
1000
0000
0000
0000
,
0011
0000
0100
0000
1000
0000
0001
0100
0010
0000
1000
0000
0001
0000
0010
0100
,
1000
0001
0100
0000
0010
0000
1000
0000
0100
0010
0000
0010
0001
0000
1000
0000
,
0010
0000
0100
0000
0001
0000
1000
0100
0010
0000
0001
0000
1000
0000
0010
0100
,
0001
1000
0100
0000
0010
0000
0001
0000
1000
0010
0000
0010
0100
0000
0001
1000
,
0100
0000
0010
0000
0001
0000
1000
0010
0100
0000
0001
0000
1000
0000
0100
0010
,
0001
1000
0010
0000
0100
0000
0001
0000
0010
0100
0000
0100
1000
0000
0001
0000
,
0100
0000
0010
0000
1000
0000
0001
0010
0100
0000
1000
0000
0001
0000
0100
0000
,
0010
1000
0001
0010
0100
0000
0010
0001
1000
0010
0100
0001
1000
0100
0000
0000
,
0011
1100
0101
1010
,
0011
0000
0000
0000
1100
0000
0000
0000
0001
0100
0000
0010
1000
0000
0000
0000
,
0011
1100
0101
1010
,
0100
0001
1000
0100
0010
0000
0100
1000
0001
0100
0010
0100
0001
0000
0000
0000
,
1010
0101
1100
0011
,
0101
0000
0000
0000
1100
0000
0000
0000
0001
0010
0000
0100
1000
0000
0000
0000
,
1001
0101
1100
0011
,
1000
0100
0010
0100
1000
0000
0001
0100
0010
0100
0001
1000
0100
0000
0000
0000
,
0020
0001
1000
0130
,
2000
0000
0010
0000
0001
0000
3100
0010
,
0002
0100
1000
0013
,
0200
0000
0000
0000
0001
0000
0000
0000
1300
0010
0000
0100
0001
0000
0000
0000
,
2000
0000
0100
0000
0001
0000
3010
0100
,
0002
0000
0000
0000
0010
0000
0000
0000
1003
0010
0000
0100
0001
0000
0000
0000
,
0020
1000
0001
0130
,
1000
0100
1000
0100
0010
0100
0010
0001
0010
0001
1000
0001
1000
0010
1000
0010
,
0100
0000
0000
0000
0000
0000
0010
0000
0000
0100
0000
0000
0110
0000
0000
0000
0001
0000
0100
0000
0010
0000
1000
0000
,
1001
0001
0010
0100
0001
0100
0010
0001
1000
0010
0100
1000
,
0100
0010
1000
0100
0010
0001
1000
0010
0100
0010
1000
0001
,
0001
0010
0100
1000
0001
0100
0010
0100
0001
1000
0100
0010
,
1000
0010
0100
1000
0001
0100
0010
1000
0001
0010
0100
1000
,
1000
0010
0100
0001
1000
0100
0010
0001
0100
0010
0001
0010
,
0100
0001
1000
0100
0010
0001
1000
0010
0100
0010
1000
0100
,
0100
0010
0001
1000
0010
0100
0100
0001
1000
0100
0010
0001
,
0100
1000
0001
0010
1000
0100
0001
1000
0010
0001
0100
0010
,
2000
0000
0000
3002
,
0023
0000
0230
0000
,
2300
0000
3002
0203
,
0320
0000
2030
3200
,
0320
0000
0000
0032
,
2003
0000
3020
0000
,
0130
0001
1000
0100
0010
0100
1000
0001
0100
0010
0100
0001
,
1000
0010
0100
0010
1000
0001
0010
0100
0010
0001
1000
0010
,
0100
000M
0000
0000
0000
0000
0000
0000
,
0000
00MM
0000
0000
0000
0000
0000
0000
,
0000
0MMM
0000
0000
0000
0000
0000
0000
,
0000
MMMM
0000
0000
0000
0000
0000
0000
,
0000
0000
00M0
0M00
MMMM
0M00
00M0
0000
0000
0000
0000
0000
0000
0000
0000
0000
0000
0000
0000
0000
0000
0000
0000
0000
0000
0000
0000
0000
0000
0000
0000
0000
,
0000
M000
0000
0000
0000
0000
0000
0000
,
0000
MM00
0000
0000
0000
0000
0000
0000
,
0000
MMM0
0000
0000
0000
0000
0000
0000
,
0000
MMMM
0000
0000
0000
0000
0000
0000
,
0000
0000
0M00
00M0
MMMM
00M0
0M00
0000
0000
0000
0000
0000
0000
0000
0000
0000
0000
0000
0000
0000
0000
0000
0000
0000
0000
0000
0000
0000
0000
0000
0000
0000
,
0000
0000
0000
0000
1000
0010
0100
0001
1000
0010
0100
0001
1000
0100
0010
0001
,
1000
0100
0010
0001
1000
0010
1000
0010
0100
0001
0100
0001
1000
0100
0010
0001
,
1000
0010
0100
0010
1000
0001
0010
0100
1000
0001
1000
0010
0100
0010
1000
0001
,
0010
0100
1000
0001
0010
0100
0010
0001
0010
0100
0010
0001
1000
0010
0100
0010
,
1000
0010
0100
0001
1000
0100
0010
0001
1000
0100
0010
0001
1000
0010
0100
0001
,
1000
0010
0100
0001
1000
0100
1000
0100
0010
0001
0010
0001
1000
0010
0100
0001
,
1000
0001
0010
0100
1000
0010
0100
0010
1000
0001
1000
0100
0010
0100
1000
0001
,
0100
0010
1000
0001
0010
0100
0010
0100
1000
0001
1000
0001
0100
0010
0100
0010
,
1000
0001
1000
0001
0010
0100
1000
0001
0100
0010
1000
0100
0010
0001
1000
0010
,
0100
0001
1000
0100
0010
0001
0010
0001
1000
0010
1000
0010
0100
0001
1000
0100
,
0010
0100
1000
0001
0100
0010
0100
0010
0100
0010
1000
0001
0010
0100
0010
0100
,
1000
0001
0100
0010
1000
0100
0010
0100
1000
0100
0010
0100
1000
0001
0100
0010
,
0100
0001
0100
0010
1000
0001
1000
0001
0010
0100
1000
0001
0010
0001
1000
0100
,
0010
0001
1000
0010
0100
0001
0100
0001
1000
0100
1000
0100
0010
0001
1000
0010
,
0100
0010
1000
0001
0010
0100
0010
0100
1000
0001
0100
0001
1000
0010
0100
0001
,
1000
0100
1000
0001
0100
0010
0100
0010
1000
0001
1000
0001
0010
0100
0010
0100
,
1000
0001
1000
0001
0100
0010
1000
0001
0010
0100
1000
0001
0100
0010
0100
0001
,
1000
0100
0010
0001
1000
0010
1000
0010
0100
0001
0100
0001
1000
0100
0010
0100
,
1000
0001
0100
0010
1000
0100
0010
0001
1000
0010
0100
0010
1000
0001
0010
0100
,
0010
0001
1000
0001
0100
0010
0100
0001
0100
0010
0100
0001
1000
0100
0010
0100
,
1000
0100
0010
0100
1000
0001
0100
0010
1000
0001
1000
0100
0010
0001
1000
0001
,
0010
0001
1000
0010
0100
0001
0100
0001
1000
0100
1000
0100
0010
0001
1000
0010
,
0100
0001
0010
0100
1000
0001
0100
0010
1000
0001
1000
0100
0010
0001
1000
0010
,
0100
0001
1000
0001
0010
0100
0010
0100
1000
0001
0100
0010
0100
0001
1000
0100
,
0010
0001
1000
0010
0200
0000
0000
0000
0300
0000
0000
0000
0000
0000
0000
0000
;

//--------------- dance-single - NAOKI ----------------
#NOTEDATA:;
#STEPSTYPE:dance-single;
#DESCRIPTION:NAOKI;
#DIFFICULTY:Challenge;
#METER:18;
#RADARVALUES:1,1,0.192,0.682,1;
#NOTES:
0000
0000
0000
0000
,
0000
0000
0000
0000
,
0000
0000
0000
0000
,
0000
0000
0000
0000
,
0000
0000
0000
0000
,
0000
0000
0000
0000
,
0000
0000
0000
0000
,
0000
0000
0000
0000
,
2001
0000
3010
0100
0000
0001
1000
0100
0000
0010
0000
0001
,
1000
0000
0010
0100
0000
0010
1000
0001
0000
0010
0100
1000
,
0100
0000
0010
0001
0000
1000
0010
0200
0300
0010
0000
1000
,
0001
0000
0010
0100
0000
0010
0001
1000
0000
0010
0100
0001
,
0100
0000
0010
1000
0000
0001
0010
0200
0300
0010
0000
0001
,
1000
0000
0010
0100
0000
0010
1000
0000
0001
0010
0100
0010
,
0002
1000
1003
0010
0100
0010
2000
0001
3001
0010
0100
1000
,
0001
0010
0001
1000
0010
0100
0001
1000
0010
1000
0001
0010
,
0100
1000
0001
0100
0010
0000
1000
0001
0010
0100
0010
0001
1000
0000
0000
0000
,
0010
0100
0001
0100
0010
0000
1000
0001
0010
0001
1000
0000
0010
0100
0001
0000
,
1000
0100
0010
0001
1000
0000
0010
0100
0001
0100
0010
1000
0001
0010
0000
0100
,
1000
0001
1000
0010
0100
0000
0001
1000
0100
1000
0001
0000
0100
0010
1000
0000
,
0001
0010
0100
1000
0001
0000
1000
0000
0001
0010
0001
1000
0010
0100
0000
0010
,
1000
0001
0010
0100
1000
0000
0001
0010
0100
0010
0001
0000
1000
0010
0100
0000
,
0001
1000
0001
1000
0010
0000
0100
0010
1000
0001
0010
0100
1000
0001
0000
0000
,
0100
0010
1000
0001
0010
0000
0100
1000
0001
0100
0001
0000
1000
0100
1000
0000
,
0001
0100
0010
1000
0001
0000
0010
0100
1000
0001
0100
0010
2000
0002
3003
0000
,
0011
0100
0011
1000
0011
0100
0011
1000
,
0101
0000
0010
0000
0101
0000
1000
0000
0001
0010
0100
1000
0001
0000
1000
0000
,
0101
0010
0101
1000
0011
0100
0011
1000
,
0001
0100
0010
1000
0001
0000
0010
0000
0100
1000
0001
0100
0010
1000
0000
0000
,
1100
0010
1100
0001
1100
0010
1100
0001
,
1010
0000
0100
0000
1010
0000
0001
0000
1000
0100
0010
0001
1000
0000
0001
0000
,
1010
0100
1010
0001
1100
0010
1100
0001
,
0100
0010
1000
0001
0100
0001
1000
0100
1000
0001
0010
0001
0010
0100
1000
0001
,
0100
00M0
0100
00M0
0001
00M0
1000
00M0
,
0100
00M0
0100
00M0
0010
0001
1000
0M00
,
0010
0M00
0010
0M00
1000
0M00
0001
0M00
,
0010
0000
0M00
0000
0010
0000
0M00
0000
0001
1000
0M01
1000
0M01
0000
00M0
0000
,
01M0
00M0
00M0
01M0
00M0
00M0
00M1
00M0
00M0
10M0
00M0
00M0
,
01M0
0000
0000
00M0
0000
0000
00M0
0000
0000
00M0
0000
0000
01M0
0000
0000
00M0
0000
0000
00M0
0000
0000
00M0
0000
0000
10M0
0000
0000
00M1
0000
0000
10M0
0000
0000
00M1
0000
0000
10M0
0000
00M0
0000
00M0
0000
00M1
0000
00M0
0000
00M0
0000
,
0100
0010
1000
0001
0100
0010
0100
0001
1000
0100
0010
0001
1000
0010
1000
0001
,
0010
0100
1000
0001
0010
0001
1000
0100
0010
0001
1000
0001
0100
0010
1000
0100
,
0040
0000
0000
0030
0000
0000
0000
0000
0000
0000
0000
0000
0001
0000
0000
0000
0000
0000
1000
0000
0000
0000
0000
0000
0001
0000
0000
0000
0000
0000
0000
0000
0000
0000
0000
0000
0100
0000
0000
0000
0000
0000
0000
0000
0000
0000
0000
0000
0040
0000
0000
0000
0030
0000
0000
0000
0000
0000
0000
0000
0000
0000
0000
0000
1000
0000
0000
0000
0000
0000
0000
0000
0100
0000
0000
0000
0000
0000
0000
0000
0010
0000
0000
0000
0000
0000
0000
0000
0001
0000
0000
0000
0000
0000
0000
0000
,
1MM1
1000
0010
0100
1000
0100
0010
1000
0001
0010
0100
0001
,
0100
0010
0001
1000
0010
0100
0001
0010
1000
0001
0100
0010
,
0010
0001
1000
0010
0001
0010
0100
0001
1000
0100
0010
1000
,
0010
0100
1000
0001
0100
0010
1000
0100
0001
1000
0010
0100
,
0100
1000
0001
0100
0010
1000
0100
0010
0100
1000
0001
0100
,
0010
0001
1000
0100
0001
0010
0100
0001
0100
1000
0100
0010
,
1000
0010
0100
1000
0001
0100
0010
0001
0010
0100
0001
1000
,
0001
0010
1000
0010
0001
1000
0001
0100
1000
0001
0010
1000
,
0002
0000
0000
0203
,
0320
0000
2030
0000
,
3200
0000
0320
0032
,
0203
0000
0320
2030
,
3M02
00M0
0M00
M000
0M00
00M0
0M00
0000
0000
0023
0000
0000
,
0230
000M
00M0
M000
000M
00M0
2300
0000
000M
00M0
0M00
00M0
,
3002
0003
0000
0000
0000
0000
0000
0000
0200
0300
0000
0000
0000
0000
0000
0000
0020
0030
0000
0000
0000
0000
0000
0000
2000
3000
0000
0000
0000
0000
0000
0000
0002
0003
0000
0000
0000
0000
0000
0000
0020
0030
0000
0000
0000
0000
0000
0000
0002
0000
0003
0000
0000
0000
0000
0000
2000
0000
3000
0000
0000
0000
0000
0000
0200
0000
0300
0000
0000
0000
0000
0000
0020
0000
0030
0000
0000
0000
0000
0000
0002
0000
0003
0000
0000
0000
0000
0000
2000
0000
3000
0000
0000
0000
0000
0000
,
0020
0000
0000
0030
0000
0000
0000
0000
2000
0000
0000
3000
0000
0000
0000
0000
0002
0000
0000
0003
0000
0000
0000
0000
0020
0000
0000
0030
0000
0000
0000
0000
0200
0000
0000
0300
0000
0000
0000
0000
2000
0000
0000
3000
0000
0000
0000
0000
0002
0000
0000
0000
0003
0000
0000
0000
0200
0000
0000
0000
0300
0000
0000
0000
0020
0000
0000
0000
0030
0000
0000
0000
2000
0000
0000
0000
0000
3000
0000
0000
0200
0000
0000
0000
0000
0300
0000
0000
0020
0000
0000
0000
0000
0030
0000
0000
,
0001
M000
0000
0000
0000
0000
0000
0000
,
0000
MM00
0000
0000
0000
0000
0000
0000
,
0000
MMM0
0000
0000
0000
0000
0000
0000
,
0000
MMMM
0000
0000
0000
0000
0000
0000
,
0000
0000
0M00
00M0
MMMM
00M0
0M00
0000
0000
0000
0000
0000
0000
0000
0000
0000
0000
0000
0000
0000
0000
0000
0000
0000
0000
0000
0000
0000
0000
0000
0000
0000
,
0000
000M
0000
0000
0000
0000
0000
0000
,
0000
00MM
0000
0000
0000
0000
0000
0000
,
0000
0MMM
0000
0000
0000
0000
0000
0000
,
0000
MMMM
0000
0000
0000
0000
0000
0000
,
0000
0000
00M0
0M00
MMMM
0M00
00M0
0000
0000
0000
0000
0000
0000
0000
0000
0000
0000
0000
0000
0000
0000
0000
0000
0000
0000
0000
0000
0000
0000
0000
0000
0000
,
0000
0000
0000
0000
1000
0010
0100
0001
1000
0100
0010
0001
1000
0010
1000
0001
,
0010
0001
1000
0001
0100
0010
1000
0001
0010
0100
1000
0001
0100
0001
1000
0100
,
0010
0001
0100
0001
1000
0100
1000
0001
0100
0010
1000
0001
1000
0100
0010
0001
,
1000
0010
0100
0001
0010
0001
1000
0001
0100
0010
1000
0001
0010
0100
1000
0100
,
0010
0001
1000
0001
0100
0010
1000
0001
0010
0100
1000
0001
0100
0001
1000
0100
,
1000
0001
0100
0010
1000
0100
0010
0001
1000
0010
0100
0001
1000
0001
0010
0100
,
1000
0010
1000
0001
0010
0001
1000
0010
0100
0001
1000
0100
1000
0001
0100
0010
,
1000
0001
0010
0001
1000
0010
0100
0001
1000
0100
0010
0001
0100
0001
0010
0100
,
1000
0001
0100
0010
1000
0100
0010
0001
1000
0010
0100
0001
1000
0100
1000
0001
,
0100
0001
1000
0001
0010
0100
1000
0001
0100
0010
1000
0001
0010
0001
1000
0010
,
0100
0001
0010
0001
1000
0010
1000
0001
0010
0100
1000
0001
1000
0010
0100
0001
,
1000
0100
0010
0001
0100
0001
1000
0001
0010
0100
1000
0001
0100
0010
1000
0010
,
0100
0001
1000
0001
0010
0100
1000
0001
0100
0010
1000
0001
0010
0001
1000
0010
,
1000
0001
0010
0100
1000
0010
0100
0001
1000
0100
0010
0001
1000
0001
0100
0010
,
1000
0100
1000
0001
0100
0001
1000
0100
0010
0001
1000
0010
1000
0001
0010
0100
,
1000
0001
0100
0001
1000
0100
0010
0001
1000
0010
0100
0001
0010
0001
0100
0010
,
1000
0001
0010
0100
1000
0001
0100
0010
1000
0001
0010
0100
1000
0001
0100
0001
,
1000
0100
1000
0001
1000
0010
0100
0001
1000
0100
0010
0001
1000
0010
1000
0001
,
0010
0100
1000
0010
1000
0001
0010
0001
1000
0010
0100
0001
1000
0100
1000
0001
,
0100
0010
1000
0001
0010
0001
1000
0010
1000
0001
1000
0100
0010
0001
0100
0001
,
1000
0001
0010
0100
1000
0010
0100
0001
1000
0100
0010
0001
1000
0010
1000
0001
,
0010
0001
1000
0001
0100
0010
1000
0001
0010
0100
1000
0001
0100
0001
1000
0100
,
0010
0001
0100
0001
1000
0100
1000
0001
0100
0010
1000
0001
0010
0001
1000
0010
,
0100
0001
1000
0100
0010
0001
0100
0001
0010
0100
1000
0001
0100
0010
1000
0100
,
0010
0001
1000
0010
0100
0000
0000
0000
0000
0000
0000
0000
0000
0000
0000
0000
;

//--------------- dance-double - [FG v1.00] NAOKI ----------------
#NOTEDATA:;
#STEPSTYPE:dance-double;
#DESCRIPTION:[FG v1.00] NAOKI;
#DIFFICULTY:Beginner;
#METER:2;
#RADARVALUES:0.192,0.448,0.009,0.219,0;
#NOTES:
00000000
00000000
00000000
00000000
,
00000000
00000000
00000000
00000000
,
00000000
00000000
00000000
00000000
,
00000000
00000000
00000000
00000000
,
00000000
00000000
00000000
00000000
,
00000000
00000000
00000000
00000000
,
00000000
00000000
00000000
00000000
,
00000000
00000000
00000000
00000000
,
00000100
00000000
00000000
00000000
,
00000010
00000000
00000000
00000000
,
00000001
00000000
00000000
00000000
,
00001000
00000000
00000000
00000000
,
00000010
00000000
00000000
00000000
,
00010000
00000000
00000000
00000000
,
00001000
00000000
00000000
00000000
,
02000000
00000000
00000000
00000000
,
03000000
00000000
00000000
00000000
,
00010000
00000000
00010000
00000000
,
00010000
00000000
00000000
00000000
,
10000000
00000000
10000000
00000000
,
10000000
00000000
00000000
00000000
,
01000000
00000000
01000000
00000000
,
01000000
00000000
00000000
00000000
,
00100000
00000000
00100000
00000000
,
00100000
00000000
00000000
00000000
,
00001000
00000000
00001000
00000000
,
00010000
00000000
00010000
00000000
,
00000100
00000000
00000100
00000000
,
00000010
00000000
00000010
00000000
,
00000001
00000000
00000001
00000000
,
00001000
00000000
00001000
00000000
,
00000100
00000000
00000100
00000000
,
00010000
00000000
00010000
00000000
,
00001000
00000000
00000000
00000000
,
00100000
00000000
00000000
00000000
,
00010000
00000000
00000000
00000000
,
01000000
00000000
00000000
00000000
,
00001000
00000000
00000000
00000000
,
00100000
00000000
00000000
00000000
,
00010000
00000000
00000000
00000000
,
02000000
00000000
00000000
00000000
,
03000000
00000000
00000000
00000000
,
00001000
00000000
00010000
00000000
,
00000010
00000000
00000000
00000000
,
00000100
00000000
00000001
00000000
,
00001000
00000000
00000000
00000000
,
00000100
00000000
00001000
00000000
,
00000010
00000000
00000000
00000000
,
00010000
00000000
00001000
00000000
,
01000000
00000000
00000000
00000000
,
00020000
00000000
00000000
00000000
,
00230000
00000000
00000000
00000000
,
00302000
00000000
00000000
00000000
,
00023000
00000000
00000000
00000000
,
00032000
00000000
00000000
00000000
,
02003000
00000000
00000000
00000000
,
03020000
00000000
00000000
00000000
,
00230000
00000000
02000000
03300000
,
00000000
00000000
00000000
00000000
,
00000000
00000000
00000000
00000000
,
00000000
00000000
00000000
00000000
,
00000000
00000000
00000000
00000000
,
00000000
000M0000
00000000
00000000
,
00000000
00000000
00000000
00000000
,
00000000
00000000
00000000
00000000
,
00000000
00000000
00000000
00000000
,
00000000
00000000
00000000
00000000
,
00000000
0000M000
00000000
00000000
,
00000000
10000000
00000000
01000000
,
00000000
00100000
00100000
00000000
,
00001000
00010000
00000000
00000100
,
00001000
00000020
00000000
00000230
,
00000000
00000310
00000000
00010000
,
00000000
00000100
00000100
00000000
,
00001000
00000010
00000000
00010000
,
00001000
02000000
03020000
02030000
,
03020000
01030000
00000000
00100000
,
00000000
10000000
10000000
00000000
,
00010000
01000000
00000000
00001000
,
00010000
00000200
00000000
00002300
,
00000000
00003100
00000000
00000010
,
00000000
00000001
00000001
00000000
,
00001000
00000010
00000000
00010000
,
00001000
00200000
00320000
00230000
,
00320000
00130000
00000000
00001000
,
00000000
00010000
00000100
00000000
,
00001000
00000001
00000000
00000100
,
00000000
00000020
00000000
00002030
,
00000000
00003010
00000000
00010000
,
00000000
00001000
01000000
00000000
,
00010000
10000000
00000000
00100000
,
00000000
01000000
00000000
00001000
,
00000000
01001000
00000000
00000000
;

//--------------- dance-double - [FG v1.00] NAOKI ----------------
#NOTEDATA:;
#STEPSTYPE:dance-double;
#DESCRIPTION:[FG v1.00] NAOKI;
#DIFFICULTY:Easy;
#METER:5;
#RADARVALUES:0.286,0.489,0.009,0.253,0;
#NOTES:
00000000
00000000
00000000
00000000
,
00000000
00000000
00000000
00000000
,
00000000
00000000
00000000
00000000
,
00000000
00000000
00000000
00000000
,
00000000
00000000
00000000
00000000
,
00000000
00000000
00000000
00000000
,
00000000
00000000
00000000
00000000
,
00000000
00000000
00000000
00000000
,
00010000
00000000
00000000
00000000
,
00001000
00000000
00000000
00000000
,
01000000
00000000
00000000
00000000
,
00010000
00000000
00000000
00000000
,
10000000
00000000
00000000
00000000
,
00100000
00000000
00000000
00000000
,
01000000
00000000
00001000
00000000
,
00020000
00000000
00000020
00000000
,
00030030
00000000
00000000
00000000
,
00010000
00010000
00000100
00000100
,
00001000
00000001
00000100
00000000
,
00000010
00000010
00001000
00001000
,
00000001
00000100
00000010
00000000
,
00010000
00010000
00001000
00001000
,
01000000
00100000
10000000
00000000
,
01000000
01000000
00100000
00100000
,
00010000
01000000
00001000
00000000
,
00200000
00310000
00200000
00310000
,
00200000
00310000
01000000
01000000
,
00002000
00013000
00002000
00013000
,
00002000
00013000
00000100
00000100
,
00002000
00003100
00002000
00003100
,
00002000
00003100
00010000
00010000
,
00000020
00001030
00000020
00001030
,
00000020
00001030
00000001
00000010
,
00000100
00000000
00000000
00000000
,
00010000
00000000
00000000
00000000
,
00001000
00000000
00000000
00000000
,
00100000
00000000
00000000
00000000
,
01000000
00000000
10000000
00000000
,
00010000
00000000
01000000
00000000
,
00100000
00000000
10000000
00000000
,
00020000
00000000
02000000
00000000
,
03030000
00000000
00000000
00000000
,
00001000
00000000
00010000
00000000
,
00000010
00000000
00001000
00000001
,
00000100
00000000
00000010
00000000
,
00001000
00000000
00000001
00000100
,
00000010
00000000
00010000
00000000
,
00001000
00000000
00100000
01000000
,
10000000
00000000
00010000
00000000
,
01000000
00000000
00001000
00000000
,
00020000
00000000
00000000
00030000
,
00000200
00000000
00000300
00000000
,
00002000
00000000
00003000
00000001
,
00000200
00000000
00000300
00000010
,
00020000
00000000
00000000
00030000
,
00002000
00000000
00003000
00000000
,
02000000
00000000
00000000
00000000
,
03200000
00000000
20000000
30300000
,
M0M00000
00000000
00000000
00000000
,
00000000
00000000
00000000
00000000
,
00000000
00000000
00000000
00000000
,
00000000
00000000
00000000
00000000
,
0M000000
M0000000
00M00000
0000M000
,
00000000
00000000
00000000
00000000
,
00000000
00000000
00000000
00000000
,
00000000
00000000
00000000
00000000
,
00000000
00000000
00000000
00000000
,
00000000
0000M000
00M00000
M0000000
,
00000000
00010000
01000000
00100000
,
10000000
00010000
00010000
00100000
,
00001000
00010000
00000000
00000100
,
00000000
00001000
00001000
00000001
,
00000001
00000010
00000100
00001000
,
00000010
00010000
00010000
00001000
,
00100000
01000000
00000000
10000000
,
00000000
02000000
23000000
32000000
,
23000000
31000000
00100000
00001000
,
00010000
00000100
00000100
00001000
,
00000001
00000100
00000000
00000010
,
00000000
00010000
00010000
00001000
,
00001000
01000000
00010000
00100000
,
00001000
00010000
00010000
00000010
,
00001000
00000001
00000000
00000010
,
00000000
00000100
00000100
00010000
,
00010000
00001000
00100000
00010000
,
10000000
01000000
01000000
00100000
,
00001000
00010000
00000000
00000010
,
00000000
00001000
00001000
00000001
,
00000001
00000100
00000010
00001000
,
00000100
00010000
00010000
00001000
,
01000000
00100000
10000000
00010000
,
00100000
00001000
00010000
00000100
,
00001000
00001010
00010000
00001000
,
01000000
01100000
00000000
00000000
;

//--------------- dance-double - [FG v1.00] NAOKI ----------------
#NOTEDATA:;
#STEPSTYPE:dance-double;
#DESCRIPTION:[FG v1.00] NAOKI;
#DIFFICULTY:Medium;
#METER:12;
#RADARVALUES:0.549,0.735,0.262,0.306,0.101;
#NOTES:
00000000
00000000
00000000
00000000
,
00000000
00000000
00000000
00000000
,
00000000
00000000
00000000
00000000
,
00000000
00000000
00000000
00000000
,
00000000
00000000
00000000
00000000
,
00000000
00000000
00000000
00000000
,
00000000
00000000
00000000
00000000
,
00000000
00000000
00000000
00000000
,
00011000
00000000
00000000
00000000
00000000
00010000
00000000
00000000
,
00000100
00000000
00000000
00000000
00000000
00000100
00000000
00000000
,
00001000
00000000
00000000
00000000
00000000
00001000
00000000
00000000
,
00000010
00000000
00000000
00000000
00000000
00000010
00000000
00000000
,
00010000
00000000
00000000
00000000
00000000
00010000
00000000
00000000
,
00001000
00000000
00000000
00000000
00000000
00001000
00000000
00000000
,
01000000
00000000
00010000
00000000
,
00100000
00000000
01000000
00000000
,
11000000
00000000
00000000
00000000
,
10000000
00000000
00100000
00000000
01000000
00001000
00010000
00000000
,
00000010
00000000
00000100
00000000
00000001
00001000
00000100
00001000
,
00000001
00000000
00000010
00000000
00000100
00010000
00001000
00000000
,
00100000
00000000
00010000
00000000
10000000
01000000
00100000
01000000
,
10000000
00000000
01000000
00000000
00100000
00001000
00010000
00000000
,
00000100
00000000
00001000
00000000
00000010
00010000
00000100
00010000
,
00001000
00000000
00100000
00000000
00010000
01000000
00001000
00000000
,
00010000
00000000
00000010
00001000
00000000
00000100
00010000
00000000
,
00002001
00003001
00010020
00010030
,
00101000
11000000
00101000
00010100
,
00001200
00001300
00020010
00030010
,
00000101
00010010
00101000
10010000
,
01002000
01003000
00210000
00310000
,
01001000
00010100
00001001
00010010
,
00020100
00030100
01002000
01003000
,
10100000
00110000
00011000
00001010
,
00000200
00000001
00000301
00000010
,
00000200
00001000
00001300
00000000
,
02000000
00010000
03010000
10000000
,
02000000
00100000
03100000
00000000
,
00002000
00100000
00103000
00001000
,
02000000
00010000
03010000
00000000
,
00200000
00001000
00301000
00100000
,
00020000
01000000
01030000
00001000
,
00010000
00000000
00000000
00000000
00000000
00000000
00000100
00000000
00000000
00001000
00000000
00000000
00000010
00000000
00000000
00000000
00000100
00000000
00000001
00000000
00001000
00000000
00000010
00000000
,
00020000
00000000
00030000
00001000
01000000
00010000
10000000
00000000
00000000
00100000
00000000
00000000
,
01000000
00000000
00000000
00001000
00000000
00000000
00010000
00000000
00000000
00000100
00001000
00000100
,
00010000
00001000
01000000
00010000
,
10000000
00000000
00000000
01000000
00000000
00000000
00100000
00000000
00000000
00001000
00010000
00000100
,
00001000
00000010
00010000
00000100
,
00000010
00000000
00000000
00000001
00000000
00000000
00000100
00000000
00000000
00000010
00001000
00000010
,
00010000
00000000
00000000
00001000
01000000
00010000
01000000
00000000
00000000
00010000
00100000
00001000
,
00010000
00000010
00000100
00000001
,
00001200
00000000
00000000
00010000
,
00020300
00000000
00030020
00000000
,
00000230
00000000
00000302
00002003
,
00003020
00000000
00020030
00032000
,
02003000
00000000
00000000
00010000
,
03020000
00000000
20030000
00000000
,
30200000
00000000
00000000
00000000
,
02300000
00000000
00020000
03030000
,
00000000
M0000000
00000000
00000000
00000000
00000000
00000000
00000000
,
00000000
M00M0000
00000000
00000000
00000000
00000000
00000000
00000000
,
00000000
MM0M0000
00000000
00000000
00000000
00000000
00000000
00000000
,
00000000
MMMM0000
00000000
00000000
00000000
00000000
00000000
00000000
,
00000000
00000000
000M0000
0M000000
MMMM0000
0M000000
000M0000
00000000
00000000
00000000
00000000
00000000
00000000
00000000
00000000
00000000
00000000
00000000
00000000
00000000
00000000
00000000
00000000
00000000
00000000
00000000
00000000
00000000
00000000
00000000
00000000
00000000
,
00000000
00M00000
00000000
00000000
00000000
00000000
00000000
00000000
,
00000000
0MM00000
00000000
00000000
00000000
00000000
00000000
00000000
,
00000000
0MMM0000
00000000
00000000
00000000
00000000
00000000
00000000
,
00000000
MMMM0000
00000000
00000000
00000000
00000000
00000000
00000000
,
00000000
00000000
0M000000
000M0000
MMMM0000
000M0000
0M000000
00000000
00000000
00000000
00000000
00000000
00000000
00000000
00000000
00000000
00000000
00000000
00000000
00000000
00000000
00000000
00000000
00000000
00000000
00000000
00000000
00000000
00000000
00000000
00000000
00000000
,
00000000
00000000
10000000
00010000
00100000
00001000
00010000
00000100
,
00001000
00000001
00000010
00000100
00000001
00000100
00001000
00000010
,
00010000
00001000
01000000
00010000
00100000
01000000
10000000
00100000
,
00010000
00100000
10000000
01000000
10000000
01000000
00010000
01000000
,
00010000
01000000
00100000
00001000
00010000
00000100
00001000
00000001
,
00000010
00000100
00010000
00001000
00000100
00001000
00010000
00000010
,
00001000
00000001
00000010
00000100
00001000
00000010
00010000
00001000
,
00000010
00001000
00010000
00000000
00010100
00000000
00001010
00000000
,
00011000
00000000
00001000
01000000
00100000
10000000
01000000
00100000
,
00001000
00010000
00000010
00000100
00001000
00000100
00000001
00001000
,
00000100
00010000
00001000
00100000
00010000
10000000
01000000
00100000
,
10000000
00100000
00010000
01000000
00010000
01000000
10000000
01000000
,
10000000
01000000
00010000
00100000
00001000
00010000
00000010
00001000
,
00000100
00000010
00000001
00000100
00001000
00000100
00000001
00001000
,
00000100
00010000
00001000
00100000
00010000
01000000
00001000
00010000
,
01000000
00010000
00002000
00000000
00003010
00000000
00002000
00000000
,
00003010
00000000
00001000
00000001
00000010
00000100
00010000
00001000
,
00100000
00010000
10000000
00100000
00010000
00100000
01000000
00001000
,
00010000
00000100
00001000
00000010
00010000
00001000
00100000
01000000
,
00010000
01000000
10000000
00100000
10000000
00100000
00010000
00100000
,
00010000
00100000
01000000
00001000
00010000
00000100
00001000
00000001
,
00000100
00000010
00010000
00001000
00000010
00001000
00010000
00000100
,
00001000
00000001
00000010
00001000
00000010
00000001
00000100
00001000
,
00000100
00000001
00001000
00000100
00010000
00001000
01000000
00010000
,
10000000
00100000
02000000
00000000
03000000
00000000
00000000
00000000
;

//--------------- dance-double - [FG v1.00] NAOKI ----------------
#NOTEDATA:;
#STEPSTYPE:dance-double;
#DESCRIPTION:[FG v1.00] NAOKI;
#DIFFICULTY:Hard;
#METER:18;
#RADARVALUES:1,1,0.253,0.192,1;
#NOTES:
00000000
00000000
00000000
00000000
,
00000000
00000000
00000000
00000000
,
00000000
00000000
00000000
00000000
,
00000000
00000000
00000000
00000000
,
00000000
00000000
00000000
00000000
,
00000000
00000000
00000000
00000000
,
00000000
00000000
00000000
00000000
,
00000000
00000000
00000000
00000000
,
00010000
00000000
00000100
00000000
00000000
00000000
00000000
01001000
00000000
00000000
00000000
00000000
,
00001000
00000000
00100000
00000000
00000000
00000000
00000000
01010000
00000000
00001000
00010000
00000010
,
00001000
00000000
00000010
00000000
00000000
00000000
00000000
00010100
00000000
00000000
00000000
00000000
,
00000100
00000000
00000010
00000000
00000000
00000000
00000000
00011000
00000000
00010000
00001000
00100000
,
00010000
00000000
10000000
00000000
00000000
00000000
00000000
11000000
00000000
00000000
00000000
00000000
,
00100000
00000000
00010000
00000000
00000000
00000000
00000000
01010000
00000000
00001000
01000000
00010000
,
10000000
00000000
00100000
00000000
01000000
00000000
00001000
00100000
00001000
00000000
01000000
00000000
,
00010000
01000000
00100000
10000000
00010000
00100000
01000000
10000000
00010000
00100000
01000000
10000000
,
00010000
00100000
00001000
00010000
00000100
00000000
00001000
00000010
00010000
00001000
00010000
00000100
00001000
00000000
00000000
00000000
,
00000101
00000000
00010000
00000000
00001000
00000000
00000001
00000010
00000100
00000000
00001000
00000000
00000010
00000000
00000100
00000001
,
00001000
00000010
00010000
00000000
00000100
00000000
00000010
00000000
00000001
00001000
00000000
00001000
00000100
00000000
00000010
00000000
,
00000001
00000000
00001000
00000000
00000010
00000000
00010000
00000100
00001000
00000000
00000001
00000000
00000100
00000000
00000010
00010000
,
00001000
01000000
00010000
00000000
10000000
00000000
00100000
00000000
01000000
00001000
00000000
00001000
00100000
00000000
00010000
01000000
,
00001000
00000000
00010000
00000000
00000010
00000000
00001000
00000100
00010000
00000000
00001000
00000000
01000000
00000000
00100000
10000000
,
00010000
01000000
00001000
00000000
00010000
00000000
00000100
00000000
00000010
00000001
00000000
00000001
00000100
00000000
00000010
00000000
,
00001000
00000000
00000100
00000000
00010000
00000000
00001000
00100000
00010000
00000000
10000000
00000000
01000000
00000000
00100000
00000000
,
00001000
00010000
00000100
00001000
00000001
00000000
00001000
00000010
00010000
00001000
01000000
00010000
10000000
01000000
00000000
00000000
,
00110000
01001000
00010100
00101000
,
00010010
00000000
00000000
00000000
00000101
00000000
00000000
00000000
00000010
00010000
00000000
00000100
00001000
00000000
00000000
00000000
,
00000101
00011000
00001100
00011000
,
01000000
00010000
10000000
00100000
01000000
00000000
00100000
10000000
00010000
01000000
00001000
01000000
00010000
00000000
00000000
00000000
,
10100000
01010000
11000000
00011000
,
01010000
00000000
00000000
00000000
00011000
00000000
00000000
00000000
00000010
00000100
00000000
00000001
00001000
00000000
00000000
00000000
,
00001010
00000110
00010100
00001010
,
00010000
00000100
00001000
00000100
00010000
00000000
00001000
00100000
00010000
00100000
00001000
00010000
00000100
00000000
00000000
00000000
,
00000020
00000001
00001000
00000130
,
00020000
00000000
00001000
00000000
00000010
00000000
00031000
01000000
,
00020000
00100000
01000000
00130000
,
02000000
00000000
00000000
00000000
00010000
00000000
00000000
00000000
13000000
00100000
00000000
01000000
00001000
00000000
00000000
00000000
,
00020000
00000000
00000100
00000000
00000010
00000000
00031000
00100000
,
00020000
00000000
00000000
00000000
10000000
00000000
00000000
00000000
00130000
00001000
00000000
01000000
00010000
00000000
00000000
00000000
,
00200000
10000000
01000000
00310000
,
10000000
00010000
10000000
00010000
00100000
00010000
00100000
00001000
00100000
00001000
00010000
00001000
00010000
00000010
00010000
00000010
,
00001000
00000000
00000000
00000000
00000000
00000000
00000010
00000000
00000000
00001000
00000000
00000000
00001010
00000000
00000000
00000000
00000001
00000000
00001000
00000000
00000010
00000000
00000100
00000000
,
00000101
00000001
00000010
00000100
00000001
00000100
00000010
00000001
00001000
00000010
00000100
00001000
,
00000100
00000010
00001000
00000001
00000010
00000100
00001000
00000001
00000100
00000001
00001000
00000010
,
00000010
00010000
00001000
00100000
00010000
01000000
00001000
01000000
00010000
10000000
01000000
00100000
,
10000000
00100000
01000000
10000000
00010000
01000000
00100000
10000000
00010000
01000000
00001000
00010000
,
00010000
00000100
00001000
00000001
00000010
00000100
00001000
00000001
00000100
00000010
00000001
00000010
,
00000100
00000001
00001000
00000010
00010000
00001000
01000000
00010000
10000000
00010000
01000000
00001000
,
00001000
00010000
00000010
00001000
00000100
00010000
00010000
00001000
00100000
00010000
10000000
00100000
,
01000000
10000000
00010000
00100000
10000000
01000000
00010000
10000000
00100000
01000000
10000000
00010000
,
02000000
00000000
00000000
03002000
,
00023000
00000000
00030020
00000000
,
00002030
00000000
00003200
00020300
,
00032000
00000000
00203000
00320000
,
02030000
00000000
00000000
03002000
,
00203000
00000000
00320000
00000000
,
01030000
00001000
00010000
00000100
00001000
00000100
00010000
00001000
01000000
00010000
01000000
00001000
,
00010000
00000100
00001000
00000100
00010000
00001000
01000000
00010000
01000000
00100000
10000000
00010000
,
00100000
0M000000
00000000
00000000
00000000
00000000
00000000
00000000
,
00000000
0M0M0000
00000000
00000000
00000000
00000000
00000000
00000000
,
00000000
0MMM0000
00000000
00000000
00000000
00000000
00000000
00000000
,
00000000
MMMM0000
00000000
00000000
00000000
00000000
00000000
00000000
,
00000000
00000000
000M0000
00M00000
MMMM0000
00M00000
000M0000
00000000
00000000
00000000
00000000
00000000
00000000
00000000
00000000
00000000
00000000
00000000
00000000
00000000
00000000
00000000
00000000
00000000
00000000
00000000
00000000
00000000
00000000
00000000
00000000
00000000
,
00000000
M0000000
00000000
00000000
00000000
00000000
00000000
00000000
,
00000000
M0M00000
00000000
00000000
00000000
00000000
00000000
00000000
,
00000000
M0MM0000
00000000
00000000
00000000
00000000
00000000
00000000
,
00000000
MMMM0000
00000000
00000000
00000000
00000000
00000000
00000000
,
00000000
00000000
00M00000
000M0000
MMMM0000
000M0000
00M00000
00000000
00000000
00000000
00000000
00000000
00000000
00000000
00000000
00000000
00000000
00000000
00000000
00000000
00000000
00000000
00000000
00000000
00000000
00000000
00000000
00000000
00000000
00000000
00000000
00000000
,
00000000
00000000
00000000
00000000
10000000
00010000
00100000
01000000
10000000
00010000
00100000
01000000
10000000
00010000
00100000
01000000
,
10000000
00010000
00100000
01000000
10000000
00010000
10000000
00010000
00100000
00001000
00100000
00001000
00010000
00000010
00001000
00000001
,
00000010
00000100
00001000
00000100
00000010
00000001
00001000
00000100
00010000
00001000
00010000
00000100
00001000
00000100
00010000
00001000
,
01000000
00010000
10000000
00100000
01000000
00010000
01000000
00001000
01000000
00010000
01000000
00001000
00010000
00000100
00001000
00000100
,
00010000
00000100
00001000
00000001
00000010
00000100
00001000
00000001
00000010
00000100
00001000
00000001
00000100
00000010
00001000
00000100
,
00000010
00000001
00001000
00000010
00010000
00001000
00010000
00001000
01000000
00010000
01000000
00010000
10000000
00100000
01000000
00010000
,
10000000
00010000
00100000
00001000
00010000
00000100
00001000
00000100
00010000
00001000
00010000
00000010
00001000
00000010
00000100
00000001
,
00001000
00000010
00000100
00000001
00001000
00000010
00001000
00000010
00010000
00001000
00010000
00001000
01000000
00010000
01000000
00010000
,
10000000
00100000
10000000
00100000
01000000
00010000
10000000
00100000
01000000
00010000
10000000
01000000
00100000
00010000
10000000
00100000
,
01000000
00010000
10000000
01000000
00100000
00010000
00100000
00010000
10000000
00100000
10000000
00100000
01000000
00010000
10000000
00100000
,
01000000
00100000
10000000
00010000
01000000
00001000
01000000
00001000
01000000
00001000
00010000
00000010
00001000
00000001
00001000
00000001
,
00000010
00000100
00001000
00000001
00000010
00000100
00001000
00000100
00010000
00000100
00001000
00000100
00010000
00001000
01000000
00010000
,
01000000
00001000
01000000
00010000
10000000
00100000
10000000
00100000
01000000
00010000
10000000
00100000
01000000
00100000
10000000
00010000
,
00100000
00001000
00010000
00000100
00001000
00000010
00001000
00000010
00010000
00001000
00010000
00001000
00100000
00010000
10000000
01000000
,
00100000
01000000
10000000
00010000
01000000
00001000
01000000
00001000
00010000
00000010
00001000
00000010
00010000
00001000
01000000
00010000
,
10000000
00100000
10000000
00010000
01000000
00001000
01000000
00001000
00010000
00000100
00010000
00000100
00001000
00000001
00001000
00000001
,
00000100
00000010
00000100
00000010
00001000
00000001
00000100
00000010
00001000
00000001
00000100
00000010
00001000
00000001
00001000
00000100
,
00000010
00000001
00001000
00000100
00010000
00001000
00010000
00001000
00100000
00010000
00100000
00010000
10000000
00100000
01000000
00100000
,
10000000
00010000
00100000
00001000
00010000
00000100
00001000
00000001
00000010
00000100
00001000
00000100
00010000
00001000
00100000
00010000
,
00100000
00001000
00010000
00001000
01000000
00010000
01000000
00001000
01000000
00010000
01000000
00001000
00010000
00000010
00001000
00000010
,
00010000
00000010
00001000
00000010
00010000
00001000
00100000
00010000
10000000
00100000
10000000
00010000
00100000
00001000
00010000
00001000
,
00100000
00001000
00010000
00000010
00001000
00000001
00001000
00000001
00000010
00000100
00000010
00000100
00001000
00000001
00000100
00000010
,
00001000
00000001
00000010
00000100
00001000
00000001
00000100
00000001
00001000
00000100
00010000
00000100
00010000
00001000
01000000
00010000
,
10000000
00010000
01000000
00001000
00010000
00000100
00010000
00000100
00001000
00000001
00000010
00000100
00000010
00000001
00001000
00000100
,
00010000
00001000
01000000
00010000
20000000
00000000
00000000
00000000
30000000
00000000
00000000
00000000
00000000
00000000
00000000
00000000
;

//--------------- dance-double - [FG v1.00] NAOKI ----------------
#NOTEDATA:;
#STEPSTYPE:dance-double;
#DESCRIPTION:[FG v1.00] NAOKI;
#DIFFICULTY:Challenge;
#METER:18;
#RADARVALUES:1,1,0.192,0.682,1;
#NOTES:
00000000
00000000
00000000
00000000
,
00000000
00000000
00000000
00000000
,
00000000
00000000
00000000
00000000
,
00000000
00000000
00000000
00000000
,
00000000
00000000
00000000
00000000
,
00000000
00000000
00000000
00000000
,
00000000
00000000
00000000
00000000
,
00000000
00000000
00000000
00000000
,
00021000
00000000
00030100
00001000
00000000
00000001
00000010
00000100
00000000
00010000
00000000
00001000
,
00100000
00000000
00010000
10000000
00000000
00010000
01000000
00001000
00000000
00010000
00000010
00001000
,
00000010
00000000
00000100
00000001
00000000
00001000
00000010
00020000
00030000
00000010
00000000
00000100
,
00000001
00000000
00001000
00000100
00000000
00001000
00000010
00010000
00000000
00001000
01000000
00010000
,
01000000
00000000
00100000
10000000
00000000
00010000
01000000
00002000
00003000
01000000
00000000
00010000
,
00100000
00000000
01000000
10000000
00000000
01000000
00100000
00000000
00010000
10000000
00100000
10000000
,
00020000
00100000
00130000
00001000
00010000
00001000
00200000
00010000
00310000
01000000
00001000
00010000
,
00000100
00001000
00000100
00010000
00001000
01000000
00010000
10000000
00100000
10000000
00010000
01000000
,
00100000
10000000
00010000
01000000
00001000
00000000
00010000
00000010
00001000
00000001
00001000
00000010
00010000
00000000
00000000
00000000
,
00001000
01000000
00010000
01000000
00001000
00000000
00010000
00000100
00001000
00000100
00010000
00000000
00001000
01000000
00010000
00000000
,
00100000
00001000
00010000
00000010
00001000
00000000
00000001
00000010
00000100
00000010
00000001
00001000
00000010
00010000
00000000
00000100
,
00001000
00000001
00001000
00000100
00010000
00000000
00001000
00100000
00010000
00100000
00001000
00000000
00010000
00000100
00001000
00000000
,
00000010
00010000
00001000
01000000
00010000
00000000
01000000
00000000
00010000
10000000
00010000
00100000
00001000
00010000
00000000
00001000
,
01000000
00010000
10000000
01000000
00100000
00000000
00001000
01000000
00010000
01000000
00001000
00000000
00010000
00000100
00001000
00000000
,
00000010
00000100
00000010
00000100
00000001
00000000
00000010
00000001
00001000
00000100
00010000
00001000
00100000
00010000
00000000
00000000
,
01000000
00001000
00010000
00000100
00001000
00000000
00000001
00000010
00000100
00001000
00000100
00000000
00000010
00000001
00000010
00000000
,
00000100
00010000
00001000
00100000
00010000
00000000
01000000
00100000
10000000
00010000
00100000
00001000
00020000
00000200
00030300
00000000
,
00001100
00010000
00001100
00100000
00001100
01000000
00001100
00100000
,
01010000
00000000
10000000
00000000
01010000
00000000
00100000
00000000
00010000
01000000
00001000
00010000
00000010
00000000
00010000
00000000
,
00001010
01000000
00001010
00010000
00001100
00100000
00001100
01000000
,
00001000
00100000
00010000
10000000
00100000
00000000
01000000
00000000
00010000
00100000
00001000
00010000
00000010
00001000
00000000
00000000
,
00001100
00000001
00001010
00000100
00001010
00000001
00001010
00000100
,
00011000
00000000
00000001
00000000
00011000
00000000
00000100
00000000
00010000
00001000
01000000
00010000
10000000
00000000
00010000
00000000
,
11000000
00100000
11000000
00010000
10100000
01000000
10100000
00001000
,
10000000
00010000
01000000
00001000
00010000
00001000
01000000
00010000
01000000
00001000
00010000
00001000
00010000
00000010
00001000
00000001
,
00000100
000000M0
00000100
000000M0
00000001
000000M0
00000010
0000M000
,
00000100
0000M000
00000100
0000M000
00001000
00000010
00010000
00000M00
,
00000100
0000M000
00000100
0000M000
00010000
0000M000
00001000
000000M0
,
01000000
00000000
00000M00
00000000
01000000
00000000
00000M00
00000000
00001000
00100000
000M1000
00100000
000M1000
00000000
0M000000
00000000
,
0M010000
0M000000
0M000000
0M010000
0M000000
0M000000
0M001000
0M000000
0M000000
0M100000
0M000000
0M000000
,
01000M00
00000000
00000000
000M0000
00000000
00000000
000M0000
00000000
00000000
000M0000
00000000
00000000
010M0000
00000000
00000000
000M0000
00000000
00000000
000M0000
00000000
00000000
000M0000
00000000
00000000
001M0000
00000000
00000000
00010M00
00000000
00000000
0010M000
00000000
00000000
0001M000
00000000
00000000
0010M000
00000000
0000M000
00000000
0000M000
00000000
0001M000
00000000
0000M000
00000000
0000M000
00000000
,
01000000
00001000
00010000
00000010
00001000
00000001
00001000
00000100
00010000
00001000
01000000
00010000
10000000
00100000
10000000
00010000
,
01000000
00001000
00010000
00000010
00001000
00000010
00010000
00001000
01000000
00010000
10000000
00010000
00100000
00001000
00010000
00000100
,
00004000
00000000
00000000
00003000
00000000
00000000
00000000
00000000
00000000
00000000
00000000
00000000
00000001
00000000
00000000
00000000
00000000
00000000
00000100
00000000
00000000
00000000
00000000
00000000
00000001
00000000
00000000
00000000
00000000
00000000
00000000
00000000
00000000
00000000
00000000
00000000
00000010
00000000
00000000
00000000
00000000
00000000
00000000
00000000
00000000
00000000
00000000
00000000
00000400
00000000
00000000
00000000
00000300
00000000
00000000
00000000
00000000
00000000
00000000
00000000
00000000
00000000
00000000
00000000
00001000
00000000
00000000
00000000
00000000
00000000
00000000
00000000
00000010
00000000
00000000
00000000
00000000
00000000
00000000
00000000
00000100
00000000
00000000
00000000
00000000
00000000
00000000
00000000
00000001
00000000
00000000
00000000
00000000
00000000
00000000
00000000
,
00001MM1
00001000
00000010
00000100
00001000
00000100
00000010
00001000
00000001
00000010
00000100
00000001
,
00000100
00000010
00000001
00000100
00000010
00001000
00000100
00000010
00001000
00000001
00000100
00000010
,
00000010
00000001
00000100
00000010
00000001
00000010
00000100
00000001
00001000
00000100
00000010
00001000
,
00000010
00000100
00001000
00000010
00000100
00000001
00000010
00000100
00000001
00001000
00000010
00000100
,
00000100
00010000
00001000
00100000
00010000
10000000
01000000
00100000
01000000
10000000
00010000
01000000
,
00100000
00010000
10000000
01000000
00100000
10000000
01000000
00010000
01000000
10000000
01000000
00100000
,
10000000
00100000
01000000
10000000
00010000
01000000
00100000
00010000
00100000
01000000
00010000
10000000
,
00010000
00100000
10000000
00100000
00010000
10000000
00010000
01000000
10000000
00010000
00100000
01000000
,
00020000
00000000
00000000
00230000
,
00302000
00000000
02003000
00000000
,
03020000
00000000
00230000
00302000
,
02003000
00000000
03020000
00230000
,
0M302000
000M0000
0M000000
00M00000
0M000000
000M0000
0M000000
00000000
00000000
00023000
00000000
00000000
,
00030020
0000M000
000M0000
00M00000
0000M000
000M0000
00002030
00000000
00M00000
000M0000
000000M0
000M0000
,
00003200
00000300
00000000
00000000
00000000
00000000
00000000
00000000
00020000
00030000
00000000
00000000
00000000
00000000
00000000
00000000
00002000
00003000
00000000
00000000
00000000
00000000
00000000
00000000
02000000
03000000
00000000
00000000
00000000
00000000
00000000
00000000
00020000
00030000
00000000
00000000
00000000
00000000
00000000
00000000
20000000
30000000
00000000
00000000
00000000
00000000
00000000
00000000
00020000
00000000
00030000
00000000
00000000
00000000
00000000
00000000
02000000
00000000
03000000
00000000
00000000
00000000
00000000
00000000
00002000
00000000
00003000
00000000
00000000
00000000
00000000
00000000
00020000
00000000
00030000
00000000
00000000
00000000
00000000
00000000
00000020
00000000
00000030
00000000
00000000
00000000
00000000
00000000
00002000
00000000
00003000
00000000
00000000
00000000
00000000
00000000
,
00000002
00000000
00000000
00000003
00000000
00000000
00000000
00000000
00002000
00000000
00000000
00003000
00000000
00000000
00000000
00000000
00000200
00000000
00000000
00000300
00000000
00000000
00000000
00000000
00000020
00000000
00000000
00000030
00000000
00000000
00000000
00000000
00000002
00000000
00000000
00000003
00000000
00000000
00000000
00000000
00002000
00000000
00000000
00003000
00000000
00000000
00000000
00000000
00000200
00000000
00000000
00000000
00000300
00000000
00000000
00000000
00020000
00000000
00000000
00000000
00030000
00000000
00000000
00000000
00002000
00000000
00000000
00000000
00003000
00000000
00000000
00000000
02000000
00000000
00000000
00000000
00000000
03000000
00000000
00000000
00020000
00000000
00000000
00000000
00000000
00030000
00000000
00000000
20000000
00000000
00000000
00000000
00000000
30000000
00000000
00000000
,
00100000
0M000000
00000000
00000000
00000000
00000000
00000000
00000000
,
00000000
0M0M0000
00000000
00000000
00000000
00000000
00000000
00000000
,
00000000
MM0M0000
00000000
00000000
00000000
00000000
00000000
00000000
,
00000000
MMMM0000
00000000
00000000
00000000
00000000
00000000
00000000
,
00000000
00000000
000M0000
M0000000
MMMM0000
M0000000
000M0000
00000000
00000000
00000000
00000000
00000000
00000000
00000000
00000000
00000000
00000000
00000000
00000000
00000000
00000000
00000000
00000000
00000000
00000000
00000000
00000000
00000000
00000000
00000000
00000000
00000000
,
00000000
00M00000
00000000
00000000
00000000
00000000
00000000
00000000
,
00000000
M0M00000
00000000
00000000
00000000
00000000
00000000
00000000
,
00000000
M0MM0000
00000000
00000000
00000000
00000000
00000000
00000000
,
00000000
MMMM0000
00000000
00000000
00000000
00000000
00000000
00000000
,
00000000
00000000
M0000000
000M0000
MMMM0000
000M0000
M0000000
00000000
00000000
00000000
00000000
00000000
00000000
00000000
00000000
00000000
00000000
00000000
00000000
00000000
00000000
00000000
00000000
00000000
00000000
00000000
00000000
00000000
00000000
00000000
00000000
00000000
,
00000000
00000000
00000000
00000000
01000000
00001000
00010000
00000100
00001000
00000001
00001000
00000100
00010000
00001000
00100000
00010000
,
10000000
00100000
01000000
00100000
10000000
00010000
00100000
00001000
00010000
00000010
00001000
00000001
00001000
00000100
00010000
00001000
,
00010000
00000010
00001000
00000001
00000100
00000010
00001000
00000001
00001000
00000100
00010000
00000100
00001000
00000100
00010000
00001000
,
01000000
00010000
00100000
01000000
10000000
00010000
01000000
00001000
01000000
00010000
01000000
00001000
00010000
00000010
00001000
00000010
,
00010000
00000010
00001000
00000010
00010000
00001000
01000000
00001000
00010000
00001000
00100000
00010000
00100000
00001000
00010000
00000010
,
00001000
00000100
00010000
00001000
01000000
00010000
01000000
00100000
10000000
00010000
01000000
00001000
01000000
00010000
01000000
00001000
,
00010000
00000100
00001000
00000001
00001000
00000100
00010000
00001000
00100000
00010000
10000000
00010000
00100000
00001000
00010000
00001000
,
00100000
00000000
00000000
00000000
00010000
00000000
00000000
00000000
10000000
00000000
00000000
00000000
00010000
00000000
00000000
00000000
02000000
03000000
00000000
00000000
00002000
00003000
00000000
00000000
00020000
00030000
00000000
00000000
00000200
00000300
00000000
00000000
00002000
00003000
00000000
00000000
00000002
00000003
00000000
00000000
00000020
00000030
00000000
00000000
00000002
00000003
00000000
00000000
00002000
00003000
00000000
00000000
00000020
00000030
00000000
00000000
00020000
00030000
00000000
00000000
00002000
00003000
00000000
00000000
,
02000000
03000000
00000000
00000000
00020000
00030000
00000000
00000000
20000000
30000000
00000000
00000000
00020000
00030000
00000000
00000000
00100000
00000000
00000000
00000000
00001000
00000000
00000000
00000000
00100000
00000000
00000000
00000000
00010000
00000000
00000000
00000000
00100000
00000000
00000000
00000000
00001000
00000000
00000000
00000000
00010000
00000000
00000000
00000000
00001000
00000000
00000000
00000000
01000000
00000000
00000000
00000000
00001000
00000000
00000000
00000000
00010000
00000000
00000000
00000000
00000010
00000000
00000000
00000000
,
00001000
00000001
00000010
00000100
00001000
00000100
00000010
00000001
00001000
00000100
00010000
00001000
01000000
00010000
10000000
00100000
,
01000000
00010000
01000000
00001000
00010000
00001000
01000000
00010000
01000000
00001000
00010000
00001000
00100000
00010000
10000000
00100000
,
10000000
00010000
00100000
00001000
00010000
00000100
00001000
00000100
00010000
00000100
00001000
00000100
00010000
00001000
01000000
00010000
,
01000000
00001000
01000000
00010000
10000000
00100000
01000000
00100000
10000000
00100000
01000000
00010000
01000000
00001000
01000000
00010000
,
10000000
01000000
00100000
00010000
10000000
00010000
00100000
00001000
00100000
00010000
00100000
01000000
10000000
00010000
01000000
00001000
,
01000000
00010000
10000000
00100000
10000000
00010000
00100000
00001000
00010000
00000100
00001000
00000001
00001000
00000010
00000100
00000001
,
00001000
00000000
00000000
00000000
00000100
00000000
00000000
00000000
00010000
00000000
00000000
00000000
00000100
00000000
00000000
00000000
00002000
00003000
00000000
00000000
00000002
00000003
00000000
00000000
00000020
00000030
00000000
00000000
00000002
00000003
00000000
00000000
00002000
00003000
00000000
00000000
00000200
00000300
00000000
00000000
00000020
00000030
00000000
00000000
00000002
00000003
00000000
00000000
00002000
00003000
00000000
00000000
00000020
00000030
00000000
00000000
00020000
00030000
00000000
00000000
00002000
00003000
00000000
00000000
,
02000000
03000000
00000000
00000000
00020000
00030000
00000000
00000000
20000000
30000000
00000000
00000000
00020000
00030000
00000000
00000000
00100000
00000000
00000000
00000000
00001000
00000000
00000000
00000000
00100000
00000000
00000000
00000000
00010000
00000000
00000000
00000000
00100000
00000000
00000000
00000000
00001000
00000000
00000000
00000000
00010000
00000000
00000000
00000000
00001000
00000000
00000000
00000000
00100000
00000000
00000000
00000000
00001000
00000000
00000000
00000000
00010000
00000000
00000000
00000000
00000010
00000000
00000000
00000000
,
00001000
00000001
00000010
00000100
00000010
00000001
00001000
00000100
00010000
00000100
00001000
00000001
00000010
00000100
00001000
00000001
,
00000010
00000001
00001000
00000100
00010000
00001000
01000000
00001000
00010000
00000010
00001000
00000010
00000100
00000001
00001000
00000100
,
00010000
00001000
01000000
00001000
00010000
00000010
00001000
00000010
00010000
00000010
00001000
00000010
00010000
00001000
01000000
00010000
,
01000000
00001000
01000000
00010000
10000000
01000000
00100000
01000000
10000000
01000000
00100000
00010000
00100000
00001000
00100000
00010000
,
10000000
01000000
00100000
01000000
10000000
00010000
01000000
00001000
00010000
00000100
00001000
00000001
00001000
00000100
00000010
00000001
,
00001000
00000010
00010000
00000010
00001000
00000001
00000100
00000010
00000100
00000001
00001000
00000010
00000100
00000001
00001000
00000100
,
00010000
00000100
00001000
00000001
00001000
00000100
00010000
00001000
01000000
00010000
01000000
00001000
00010000
00001000
00100000
00010000
,
10000000
00010000
00100000
00001000
00020000
00000000
00000000
00000000
00030000
00000000
00000000
00000000
00000000
00000000
00000000
00000000
;
