#TITLE:Departure of smile;
#SUBTITLE:-Say goodbye anymore-;
#ARTIST:橘 朋之;
#TITLETRANSLIT:;
#SUBTITLETRANSLIT:;
#ARTISTTRANSLIT:Tachibana Tomoyuki;
#GENRE:;
#CREDIT:;
#MUSIC:Departure of smile -Say goodbye anymore-.ogg;
#BANNER:Departure_of_smile-bn.png;
#BACKGROUND:Departure_of_smile-bg.png;
#CDTITLE:NAOKI_cdtitle.png;
#SAMPLESTART:29.157;
#SAMPLELENGTH:12.000;
#SELECTABLE:YES;
#OFFSET:-1.745;
#BPMS:0.000=140.000
,63.750=70.000
,63.875=140.000
,64.000=280.000
,64.250=140.000
;
#STOPS:;
#DISPLAYBPM:140.000;
#BGCHANGES:;
#FGCHANGES:;

//--------------- dance-single - NAOKI ----------------
#NOTES:
     dance-single:
     NAOKI:
     Beginner:
     3:
     0.173,0.23,0.014,0.127,0:
0000
0000
0000
0000
,
0020
0000
0000
0000
,
0030
0000
0000
0000
,
0000
0000
0000
0000
,
0000
0000
0000
0000
,
0000
0000
0000
0000
,
0000
0000
0000
0000
,
0000
0000
0000
0000
,
0000
0000
0000
0000
,
0000
1000
0000
0000
0000
0000
0000
0000
,
0000
0001
0000
0000
0000
0000
0000
0000
,
0000
0100
0000
0000
0000
0000
0000
0000
,
0000
0010
0000
0000
0000
0000
0000
0000
,
1000
1000
1000
0000
,
0001
0001
0001
0000
,
0100
0100
0010
0010
,
0000
0000
0000
0000
,
0001
0000
1000
0000
,
0010
0100
0010
0000
,
1000
0000
0001
0000
,
0100
0010
0100
0000
,
0001
0000
1000
0000
,
0100
0010
0100
0000
,
1000
0000
0001
0000
,
0010
0010
0100
0100
,
0010
0000
0001
0000
,
1000
0000
0010
0000
,
0100
0000
0001
0000
,
0010
0000
0100
0000
,
1000
0000
0001
0000
,
0100
0000
0010
0000
,
1000
0000
0100
0000
,
0020
0100
0000
0130
,
0010
0000
0000
0000
,
0001
0000
1000
0000
,
0010
0000
0000
0000
,
1000
0000
0001
0000
,
0100
0000
0000
0000
,
0001
0000
1000
0000
,
0100
0000
0000
0000
,
0001
0001
1000
1000
,
0010
0000
0000
0000
,
0100
0000
0001
0000
,
0010
0000
0000
0000
,
0100
0000
1000
0000
,
0010
0000
0000
0000
,
0100
0000
0001
0000
,
0010
0000
0000
0000
,
0200
0010
0000
0310
,
0002
0000
0003
0000
,
2000
0000
3000
0000
,
0020
0000
0030
0000
,
0200
0000
0300
0000
,
0002
0000
0003
0000
,
2000
0000
3000
0000
,
0200
0000
0300
0000
,
0020
0000
0030
0000
,
0000
0000
0002
0000
0000
0000
0000
0003
0000
0000
0000
0000
0000
0000
0000
0000
,
0000
0000
2000
0000
0000
0000
0000
3000
0000
0000
0000
0000
0000
0000
0000
0000
,
0000
0000
0020
0000
0000
0000
0000
0030
0000
0000
0000
0000
0000
0000
0000
0000
,
0000
0000
0200
0000
0000
0000
0000
0300
0000
0000
0000
0000
0000
0000
0000
0000
,
0001
0001
0001
0000
,
1000
1000
1000
0000
,
0010
0000
0100
0000
,
0020
0100
0130
0010
,
1000
0100
0010
0000
,
0001
0100
0010
0000
,
1000
0010
0100
0000
,
0001
0010
0100
0000
,
1000
0100
0010
0000
,
0001
0100
0010
0000
,
1000
0010
0100
0000
,
0010
0010
1000
0001
,
0100
0000
0010
0100
,
0010
0000
1000
0000
,
0100
0000
0010
0100
,
0010
0000
0001
0000
,
0100
0000
0010
0100
,
0010
1000
0100
0010
,
0001
0000
0100
0010
,
0100
0000
0110
0000
,
2002
0000
3003
0000
;

//--------------- dance-single - NAOKI ----------------
#NOTES:
     dance-single:
     NAOKI:
     Easy:
     6:
     0.318,0.345,0.162,0.388,0.007:
0000
0000
0000
0000
,
2002
0000
0000
0000
,
3003
0000
0000
0000
,
0000
0000
0000
0000
,
0000
0000
0000
0000
,
0000
0000
0020
0000
0000
0000
0000
0030
0000
0000
0000
0000
0000
0000
0000
0000
,
0000
0000
0200
0000
0000
0000
0000
0300
0000
0000
0000
0000
0000
0000
0000
0000
,
0000
0000
0002
0000
0000
0000
0000
0003
0000
0000
0000
0000
0000
0000
0000
0000
,
0000
0000
2000
0000
0000
0000
0000
3000
0000
0000
0000
0000
0000
0000
0000
0000
,
0000
0000
0022
0000
0000
0030
0000
0003
0000
0000
0000
0000
0000
0000
0000
0000
,
0000
0000
2020
0000
0000
0030
0000
3000
0000
0000
0000
0000
0000
0000
0000
0000
,
0000
0000
0202
0000
0000
0300
0000
0003
0000
0000
0000
0000
0000
0000
0000
0000
,
0000
0000
2200
0000
0000
0300
0000
3000
0000
0000
0000
0000
0000
0000
0000
0000
,
0010
0010
0100
0100
,
0001
0001
1000
1000
,
0100
0000
0000
0000
0100
0000
0000
0000
0010
0000
0000
0000
0010
0000
0000
0002
,
0000
0003
0002
0000
2000
0000
0000
0000
0000
0000
0003
0000
0000
0000
3000
0000
0000
0000
0000
0000
0000
0000
0000
0000
0000
0000
0000
0000
0000
0000
0000
0000
,
0010
1000
0100
0000
,
0010
0001
1000
0000
,
0100
1000
0010
0000
,
0100
0001
1000
0100
,
0010
0001
0100
0000
,
0010
1000
0001
0000
,
0100
0001
0010
0000
,
0100
1000
0001
0100
,
0020
0100
0130
0010
,
2001
3100
0010
0001
,
0200
0010
0310
0100
,
1002
0013
0100
1000
,
0200
0010
0310
0100
,
2001
3010
0100
0001
,
0020
0100
0130
0010
,
1002
0103
2001
3100
,
0010
0000
0010
0000
,
0001
0100
1000
0000
,
0010
0000
0010
0000
,
1000
0100
0001
0000
,
0100
0000
0100
0000
,
0001
0010
1000
0000
,
0100
0000
0100
0000
,
1000
0010
0001
0010
,
0100
0001
0100
1000
,
0100
0001
0100
1001
,
0100
1000
0100
0001
,
0100
1000
0100
1001
,
0010
0001
0010
1000
,
0010
0001
0010
1001
,
0010
1000
0010
0001
,
0020
0100
0130
0010
,
2000
0100
3100
0000
,
0002
0100
0103
0000
,
0200
0010
0310
0000
,
1000
0001
1000
0000
,
0002
0010
0013
0000
,
2000
0010
3010
0000
,
0200
0010
0310
0000
,
0001
1000
0001
0000
,
0000
0000
0202
0000
0000
0000
0000
0303
0000
0000
0000
0000
0000
0000
0000
0000
,
0000
0000
2200
0000
0000
0000
0000
3300
0000
0000
0000
0000
0000
0000
0000
0000
,
0000
0000
0022
0000
0000
0000
0000
0033
0000
0000
0000
0000
0000
0000
0000
0000
,
0000
0000
2020
0000
0000
0000
0000
3030
0000
0000
0000
0000
0000
0000
0000
0000
,
0100
0100
0001
1000
,
0100
0100
1000
0001
,
2000
3010
0002
0013
,
0200
0010
0310
0100
,
0010
0001
0100
0000
,
0010
1000
0001
0000
,
0100
0001
0010
0000
,
0100
1000
0001
0100
,
0010
1000
0100
0000
,
0010
0001
1000
0000
,
0100
1000
0010
0000
,
0100
0001
1000
0100
,
0020
0031
1000
0010
,
0120
0130
0001
1000
,
0020
1030
0001
0010
,
0120
0130
1000
0001
,
0200
0301
1000
0100
,
0210
0310
0001
1000
,
0200
1300
0001
0100
,
0201
0301
1020
1030
,
2002
0000
3003
0000
;

//--------------- dance-single - NAOKI ----------------
#NOTES:
     dance-single:
     NAOKI:
     Medium:
     10:
     0.453,0.517,0.296,0.352,0.187:
0000
0000
0000
0000
,
2002
0000
0000
0000
,
3003
0000
0000
0000
,
0000
0000
0000
0000
,
0000
0000
0000
0000
,
0000
0000
0010
0000
0000
0001
0000
1000
0000
0000
0000
0000
0000
0000
0000
0000
,
0000
0000
0010
0000
0000
1000
0000
0001
0000
0000
0000
0000
0000
0000
0000
0000
,
0000
0000
0100
0000
0000
0001
0000
1000
0000
0000
0000
0000
0000
0000
0000
0000
,
0000
0000
0100
0000
0000
1000
0000
0001
0000
0000
0000
0000
0000
0000
0000
0000
,
0000
0000
0020
0000
0000
0031
0000
0100
0000
0000
0000
0000
0000
0000
0000
0000
,
0000
0000
0020
0000
0000
1030
0000
0100
0000
0000
0000
0000
0000
0000
0000
0000
,
0000
0000
0200
0000
0000
1300
0000
0010
0000
0000
0000
0000
0000
0000
0000
0000
,
0000
0000
0200
0000
0000
0301
0000
0010
0000
0000
0000
0000
0000
0000
0000
0000
,
0002
0010
1003
0010
,
2000
3100
0010
1001
,
2000
0000
0000
0000
0010
0000
0000
0000
3001
0000
0000
0000
0010
0000
0000
2002
,
3003
0000
0210
0000
0000
0301
0000
1000
0000
0000
0001
0000
0010
0000
0100
0000
,
1000
0000
0001
0000
0100
0000
0000
0010
0000
0000
0100
0000
0001
0000
1000
0000
,
0010
0000
1000
0000
0100
0000
0000
0010
0000
0000
0100
0000
1000
0000
0001
0000
,
0100
0000
0001
0000
0010
0000
0000
0100
0000
0000
0010
0000
0001
0000
1000
0000
,
0100
0000
1000
0000
0010
0000
0000
0100
0000
0000
0010
0000
1000
0000
0001
0000
,
0010
0000
0001
0000
0100
0000
0000
0010
0000
0000
0100
0000
0001
0000
1000
0000
,
0010
0000
1000
0000
0100
0000
0000
0010
0000
0000
0100
0000
1000
0000
0001
0000
,
0100
0000
0001
0000
0010
0000
0000
0100
0000
0000
0010
0000
0001
0000
0000
0000
,
1001
0110
1001
0110
,
2010
3001
0010
0100
,
0220
0330
1000
0001
,
0012
1003
0010
0100
,
0220
0330
0001
1000
,
2100
3001
0100
0010
,
0220
0330
1000
0001
,
0102
0000
0000
0000
1003
0000
0000
0000
0100
0000
0000
0000
0020
0000
0000
0130
,
0000
0000
0010
0000
0000
0001
0000
1000
0000
0000
0010
0000
0000
0000
0000
0000
,
1000
1000
0100
0100
,
0001
0000
0001
0100
2000
0000
3010
0100
,
0001
0001
0100
0100
,
1000
0000
1000
0100
0002
0000
0013
0100
,
1000
1000
0010
0010
,
0001
0000
0001
0010
2000
0000
3100
0010
,
0001
0001
0010
0010
,
1001
0110
1001
0110
,
0001
0001
0100
0100
,
1000
0000
1000
0100
0002
0000
0013
0100
,
1000
1000
0100
0100
,
0001
0000
0001
0100
2000
0000
3010
0100
,
0001
0001
0010
0010
,
1000
0000
1000
0010
0002
0000
0103
0010
,
1000
0000
0000
0000
1000
0000
0000
0000
0010
0000
0000
0000
0200
0000
0000
0310
,
0000
0000
0100
0000
0000
0001
0000
1000
0000
0000
0100
0000
0000
0000
0000
0000
,
1002
0100
0000
0103
,
2001
0100
0000
3100
,
0010
0000
0000
0001
0000
0000
0100
0000
,
0000
1000
0000
0000
0100
0000
0001
0000
,
2001
0100
0000
3100
,
1002
0100
0000
0103
,
0010
0000
0000
1000
0000
0000
0100
0000
,
0000
0001
0000
0000
0100
1000
0001
0100
,
0000
0000
0020
0000
0000
1030
0000
0001
0000
0000
0000
0000
0000
0000
0000
0000
,
0000
0000
0020
0000
0000
0031
0000
1000
0000
0000
0000
0000
0000
0000
0000
0000
,
0000
0000
0200
0000
0000
0301
0000
1000
0000
0000
0000
0000
0000
0000
0000
0000
,
0000
0000
0200
0000
0000
1300
0000
0001
0000
0000
0000
0000
0010
0000
0000
0000
,
1000
0100
1000
0000
0001
0100
1000
0100
,
0002
0013
2000
3010
,
0001
0100
0001
0000
1000
0100
0001
0100
,
1000
0000
0010
0000
0000
1000
0000
0001
0000
0000
0010
0000
0000
0000
0000
0000
,
0100
0000
1000
0000
0010
0000
0000
0100
0000
0000
0001
0000
1000
0000
0100
0000
,
0010
0000
0001
0000
0100
0000
0000
0010
0000
0000
1000
0000
0001
0000
0100
0000
,
0010
0000
1000
0000
0100
0000
0000
0010
0000
0000
0001
0000
1000
0000
0010
0000
,
0100
0000
0001
0000
0010
0000
0000
0100
0000
0000
1000
0000
0001
0000
0000
0100
,
0000
0000
0010
0000
1000
0000
0000
0100
0000
0000
0010
0000
0001
0000
1000
0000
,
0010
0000
0100
0000
0001
0000
0000
0010
0000
0000
0100
0000
1000
0000
0001
0000
,
0100
0000
0010
0000
0100
0000
0000
0001
0000
0000
1000
0000
0100
0000
0000
0000
,
1001
0110
1001
0110
,
0102
0000
0013
0001
0100
0000
0110
0000
,
2001
0000
3010
1000
0100
0000
0011
0000
,
2100
0000
3010
1000
0100
0000
0110
0000
,
1002
0000
0013
0001
0100
0000
1010
0000
,
0012
0000
0103
0001
0010
0000
0110
0000
,
2001
0000
3100
1000
0010
0000
0101
0000
,
2010
0000
0000
0000
3100
0000
1000
0000
0010
0000
0000
0000
0120
0000
0000
0130
,
0000
0000
0010
0000
0000
1000
0000
0001
0000
0000
0010
0000
0000
0000
0100
0000
,
0220
0000
0330
0000
;

//--------------- dance-single - NAOKI ----------------
#NOTES:
     dance-single:
     NAOKI:
     Hard:
     13:
     0.592,0.574,0.437,0.409,0.307:
0000
0000
0000
0000
,
2002
0000
0000
0000
,
3003
0000
0000
0000
,
0000
0000
0000
0000
,
0000
0000
0000
0000
,
0000
0000
0010
0000
0001
0100
0000
0010
0000
0000
0000
0000
0000
0000
0000
0000
,
0000
0000
0010
0000
1000
0100
0000
0010
0000
0000
0000
0000
0000
0000
0000
0000
,
0000
0000
0100
0000
1000
0010
0000
0100
0000
0000
0000
0000
0000
0000
0000
0000
,
0000
0000
0100
0000
0001
0010
0000
0100
0000
0000
0000
0000
0000
0000
0000
0000
,
0000
0000
0012
0000
0000
0103
0000
0110
0000
0000
0000
0000
0000
0000
0000
0000
,
0000
0000
2010
0000
0000
3100
0000
0110
0000
0000
0000
0000
0000
0000
0000
0000
,
0000
0000
0102
0000
0000
0013
0000
0110
0000
0000
0000
0000
0000
0000
0000
0000
,
0000
0000
2100
0000
0000
3010
0000
0110
0000
0000
0000
0000
0000
0000
0000
0000
,
0002
0010
1000
0103
,
0220
0330
0001
1001
,
2000
0000
0000
0000
0010
0000
0000
0000
0001
0000
0000
0000
3100
0000
0000
0220
,
0330
0000
0012
0000
0000
0103
0000
2010
0000
0000
3100
0000
0010
0000
0001
1000
,
0010
0000
0100
0000
0001
1000
0000
0100
0000
1000
0001
0000
0010
0000
0100
0000
,
1000
0000
0010
0000
0100
0001
0000
1000
0000
0001
0010
0000
0100
0000
1000
0000
,
0001
0000
0100
0000
0010
1000
0000
0001
0000
1000
0100
0000
0010
0000
0001
0000
,
0100
0000
0010
0000
1000
0001
0000
0010
0000
0001
1000
0000
0010
0000
1000
0000
,
0100
0000
0010
0000
0001
1000
0000
0010
0000
1000
0001
0000
0010
0000
0001
0000
,
1000
0000
0010
0000
0100
0001
0000
1000
0000
0001
0010
0000
0100
0000
1000
0000
,
0001
0000
0100
0000
0010
1000
0000
0001
0000
1000
0100
0000
0010
0000
0001
0000
,
0100
1010
0011
1100
,
2010
0000
3100
0010
0001
1000
0001
0100
,
0210
0000
0310
1000
0100
0010
0001
0000
,
0102
0000
0013
0100
1000
0001
1000
0010
,
0120
0000
0130
0001
0010
0100
1000
0000
,
2100
0000
3010
0100
0001
1000
0001
0010
,
0120
0000
0130
1000
0010
0100
0001
0000
,
0012
0000
0000
0000
0103
0000
0010
0000
1000
0000
0001
0000
1000
0100
0000
2100
,
0000
0000
3010
0000
0000
0100
0000
0102
0000
0000
1003
0000
0100
0000
0010
0000
,
0001
1000
0001
0100
0000
0100
0010
0000
,
0100
0001
1000
0001
0010
0000
0010
0100
,
1000
0001
1000
0010
0000
0010
0100
0000
,
0010
1000
0001
1000
0100
0000
0100
0010
,
0001
1000
0001
0010
0000
0010
0100
0000
,
0010
0001
1000
0001
0100
0000
0100
0001
,
1000
0001
0010
0100
0000
0100
0010
0000
,
0011
1100
0101
1010
,
0100
0001
1000
0100
0000
0100
0010
0001
,
0100
0010
0000
0010
2000
0000
3001
0010
,
0100
1000
0001
0100
0000
0100
0010
1000
,
0100
0010
0000
0010
0002
0000
1003
0100
,
0010
0001
1000
0010
0000
0010
0100
0001
,
0010
0100
0000
0100
2000
0000
3001
0100
,
0010
0000
1000
0000
0001
0000
0010
0000
0000
0000
0010
0000
0100
0000
0000
1100
,
0000
0000
0012
0000
0000
0103
0000
1010
0000
0000
0101
0000
0000
0000
0000
0000
,
0012
0000
0000
0000
0010
0000
0000
1000
0000
0000
0103
0000
0010
0000
1000
0000
,
2010
0000
0000
0000
0010
0000
0000
0001
0000
0000
3100
0000
0010
0000
0001
0000
,
0200
0000
0310
2000
0000
3100
0020
0000
,
0031
0200
0000
0310
0110
0000
0010
1000
,
0200
0000
0310
0002
0000
0103
0020
0000
,
1030
0200
0000
0310
0110
0000
0010
0001
,
0200
0000
0310
2000
0000
3100
0020
0000
,
0031
0100
0000
0010
1000
0100
0010
0001
,
0100
0000
0002
0000
0000
0013
0000
1100
0000
0000
0000
0000
0000
0000
0000
0000
,
0000
0000
2000
0000
0000
3010
0000
0101
0000
0000
0000
0000
0000
0000
0000
0000
,
0000
0000
0002
0000
0000
0103
0000
1010
0000
0000
0000
0000
0000
0000
0000
0000
,
0000
0000
2000
0000
0000
3100
0000
0011
0000
0000
0000
0000
0000
0000
0000
0000
,
0010
0001
1000
0010
0100
0001
1000
0100
,
0020
1000
0031
0100
,
0010
1000
0001
0010
0100
1000
0010
0000
,
0000
0000
2010
0000
0000
3001
0000
0012
0000
0000
1003
0000
0000
0000
0001
0000
,
0100
0000
0010
0000
1000
0001
0000
0010
0000
0001
1000
0000
0010
0000
0100
0000
,
0001
0000
0010
0000
0100
1000
0000
0001
0000
1000
0010
0000
0100
0000
0001
0000
,
1000
0000
0100
0000
0010
0001
0000
1000
0000
0001
0100
0000
0010
0000
1000
0000
,
0100
0000
0010
0000
0001
1000
0000
0010
0000
1000
0001
0000
0010
0001
0100
0010
,
0000
1000
0010
0000
0100
0001
0000
1000
0000
0001
0010
0000
0100
0000
1000
0000
,
0001
0000
0100
0000
0010
1000
0000
0001
0000
1000
0100
0000
0010
0000
0001
0000
,
1000
0000
0010
0000
0100
0001
0000
1000
0000
0001
0010
0000
0100
0000
1000
0000
,
0010
0101
1100
0011
,
0102
0000
1003
0100
0100
0001
0010
0000
,
2001
0000
3010
1000
0100
0010
0011
0000
,
2100
0000
3001
0100
0100
1000
0010
0000
,
1002
0000
0013
0001
0100
0010
1010
0000
,
0012
0000
1003
0010
0010
0001
0100
0000
,
2001
0000
3100
1000
0010
0100
0101
0000
,
2010
0000
0000
0000
3001
0000
0100
0000
0100
0000
1000
0000
0010
0000
0000
0102
,
0000
0000
0013
0000
0000
0011
0000
1010
0000
0000
2100
0000
0000
0000
3010
0000
,
0220
0000
0330
0000
;

//--------------- dance-single - NAOKI ----------------
#NOTES:
     dance-single:
     NAOKI:
     Challenge:
     15:
     0.854,0.892,0.599,0.5,0.846:
0000
0000
0000
0000
,
2002
0000
0000
0000
,
3003
0000
0000
0000
,
0000
0000
0000
0000
,
0000
0000
0000
0000
,
0000
0000
0001
0000
1000
0010
0000
0100
0000
0000
0000
0000
0000
0000
0000
0000
,
0000
0000
0010
0000
1000
0001
0000
0010
0000
0000
0000
0000
0000
0000
0000
0000
,
0000
0000
0100
0000
1000
0001
0000
0100
0000
0000
0000
0000
0000
0000
0000
0000
,
0000
0000
0010
0000
0100
0001
0000
1000
0000
0000
0000
0000
0000
0000
0000
0000
,
0000
0000
1010
0000
0010
0100
0000
0101
0000
0000
0010
0000
1000
0000
0100
0000
,
0000
0000
0011
0000
0010
0100
0000
1100
0000
0000
0010
0000
0001
0000
0100
0000
,
0000
0000
0101
0000
0100
0010
0000
1010
0000
0000
0100
0000
0001
0000
0010
0000
,
0000
0000
1100
0000
0100
0010
0000
0011
0000
0000
0100
0000
1000
0000
0001
0000
,
0200
0000
1000
0000
0301
0010
0100
1000
,
2001
0000
0000
0000
3010
0000
0100
0000
0001
0000
0010
M00M
0010
0000
1000
0000
,
0001
0010
0100
1000
0001
0100
0010
0100
0001
1000
0001
0010
0100
1000
0001
0100
,
M00M
0000
0100
0000
2000
0000
3000
0000
0002
0000
0103
0000
0000
0000
0220
0000
0330
0000
0000
0000
2002
0000
0000
3003
0000
0000
0000
0010
1000
0000
0001
0000
,
0010
0000
0110
0000
0100
1000
0000
1001
0000
0001
0100
0010
0100
0001
1000
0100
,
0010
0000
0011
0000
0001
1000
0000
1010
0000
0010
0100
0001
1000
0100
0010
0001
,
1000
0000
1100
0000
0100
0010
0000
0011
0000
0001
0010
0100
1000
0001
0100
0010
,
1000
0000
1010
0000
0010
0100
0000
0101
0000
0001
0100
0010
1000
0100
0010
0002
,
0003
1000
0010
0000
0100
0001
0000
1001
0000
1000
0100
0010
0100
1000
0001
0100
,
0010
0000
1010
0000
1000
0001
0000
0011
0000
0010
0100
1000
0001
0100
0010
1000
,
0001
0000
0101
0000
0100
0010
0000
1010
0000
1000
0010
0100
0001
1000
0100
0010
,
0001
0000
0000
0000
0000
0000
0000
0000
1100
0000
0000
0000
0000
0000
0000
0000
0101
0000
0000
0000
0000
0000
0000
0000
1010
0000
0000
0000
0000
0000
0000
0010
,
0100
0000
0000
0000
0110
0000
0010
1000
0200
0300
0001
0100
0010
0001
1000
0010
,
0200
0000
0000
0000
1300
0000
0100
0000
0001
0000
0010
M00M
0010
0000
1000
0000
,
0100
0000
0000
0000
0110
0000
0010
0001
0200
0300
1000
0100
0010
1000
0001
0010
,
0200
0000
0000
0000
0301
0000
0100
0000
1000
0000
0010
M00M
0010
0000
0001
0000
,
0100
0000
0000
0000
0110
0000
0100
0001
0020
0030
1000
0010
0100
1000
0001
0100
,
0020
0000
0000
0000
0031
0000
0010
0000
1000
0000
0100
M00M
0100
0000
0001
0000
,
0010
0100
1000
0001
0100
0000
0010
0100
0020
0030
1000
0001
0010
0100
1000
0002
,
0000
0000
0000
0000
0103
0000
0000
0000
0000
0000
0110
0000
0000
0000
2020
0000
0000
3030
0000
0000
0022
0000
0033
0000
0100
0000
1000
0001
1000
0000
0010
0000
,
0200
0010
0310
1000
0100
0100
0002
0010
,
0013
0000
0100
0000
1000
0000
0001
0000
0100
0000
0000
0000
0010
1000
0001
0010
,
0200
0010
0310
0001
0100
0100
2000
0010
,
3010
0000
0100
0000
0001
0000
1000
0000
0100
0000
0000
0000
0010
0100
1000
0001
,
0200
0010
0310
1000
0100
0100
0002
0010
,
0013
0000
0100
0000
1000
0000
0001
0000
0100
0000
0000
0000
0010
1000
0001
0010
,
0200
0010
0310
0001
1000
0010
0100
0000
,
0110
0000
0000
0000
0000
0000
1001
0000
0000
0000
0000
0000
0110
0000
0000
1000
0001
1000
0001
0000
0000
0100
0000
0000
,
1010
0010
0100
1000
0100
0010
1000
0100
,
0010
0000
1000
0000
0010
0000
0100
0000
2000
0000
3000
0000
0001
0100
0010
1000
,
0001
0010
0100
0001
0100
0010
0001
0100
,
0010
0000
0001
0000
0010
0000
0100
0000
0002
0000
0003
0000
1000
0100
0010
0001
,
1000
0010
0100
1000
0100
0010
1000
0001
,
0010
0000
1000
0000
0010
0000
0001
0000
0200
0000
0300
0000
0010
1000
0001
0010
,
0100
1000
0001
0100
0010
0100
0001
1000
0001
0010
0100
0010
0001
1000
0010
0100
,
0000
0000
0000
0000
0000
0000
0000
0000
0000
0000
0000
0000
2001
0000
0000
0000
0000
0000
0000
0000
0000
0000
0000
0000
0000
0000
0000
0000
0000
0000
3100
0000
0000
0000
0000
0000
0000
0000
0000
0000
0000
0000
0220
0000
0000
0000
0000
0000
0000
0000
0000
0330
0000
0000
0000
0000
0000
0000
0000
0000
0010
0000
0000
0000
0001
0000
0000
0000
1000
0000
0000
0000
0010
0000
0000
0000
0000
0000
0000
0000
0000
0100
0000
0000
0001
0000
0000
0000
0000
0000
1000
0000
0000
0000
0000
0000
,
0200
0000
0300
0010
0002
0000
1000
0000
0003
1000
0010
0000
0200
0000
0300
0010
,
2000
0000
0001
0000
3000
0100
0010
0000
0002
0000
0003
0000
0010
0100
1000
0001
,
0200
0000
0300
0010
2000
0000
0001
0000
3000
0001
0010
0000
0200
0000
0300
0010
,
0002
0000
1000
0000
0003
0100
0010
0000
2000
0000
3000
0000
0001
0010
0100
1000
,
0020
0000
0030
0100
0002
0000
1000
0000
0003
1000
0100
0000
0020
0000
0030
0100
,
2000
0000
0001
0000
3000
0010
0100
0000
0002
0000
0003
0000
0010
0100
1000
0001
,
0100
0000
0010
1000
0001
0010
0100
0010
0001
1000
0010
1000
0001
0010
0100
1000
,
0001
0000
0000
0100
0000
0000
0010
0000
0000
1000
0000
0000
0001
0000
0000
0010
0000
0000
0001
0000
0000
1000
0000
0000
0010
0000
0000
0100
0000
0000
0001
0000
1000
0000
0001
0000
1000
0000
0000
0100
0000
0000
0010
0000
0000
0001
0000
0000
,
0100
0000
0000
0000
0000
0000
0101
0000
0000
0000
0000
0000
0000
0000
0000
1001
0000
0000
0000
0000
0000
2020
0000
0000
0030
0000
0000
3000
0000
0000
0001
0000
0100
0000
0001
0000
0100
0000
0000
0000
0000
0000
0010
0000
0000
0000
0000
0000
,
1000
0000
1100
0000
0000
0110
0000
0022
0000
0030
0003
0000
0100
0000
0000
0000
,
0001
0000
0011
0000
0010
0100
0000
2200
0000
0300
3001
0000
0100
0000
0010
0000
,
0000
0000
0000
0000
1010
0000
0000
0000
0000
0000
0110
0000
0000
0000
0100
0000
0001
0000
0000
0000
1000
0000
0000
0000
0110
0000
0000
0000
0000
0000
0010
0100
,
0010
0000
0000
0000
0000
0000
1000
0000
0000
0000
0000
0000
0001
0000
0000
0010
0000
0000
0000
0000
0000
0100
0000
0000
1000
0000
0000
0000
0000
0000
0001
0000
0100
0000
0010
0000
1000
0000
0000
0000
0000
0000
0010
0000
0000
0000
0000
0000
,
0110
0000
0100
0000
0010
1000
0000
0001
0010
0000
0100
0000
0001
0000
0100
0000
,
0010
0001
1000
0000
0010
0200
0300
0001
1000
0100
0010
0100
1000
0001
0100
0010
,
0000
0000
0000
0000
0000
0000
0000
0000
0000
0000
0000
0000
1002
0000
0000
0000
0000
0000
0000
0000
0000
0000
0000
0000
0000
0000
0000
0000
0000
0000
0103
0000
0000
0000
0000
0000
0000
0000
0000
0000
0000
0000
0220
0000
0000
0000
0000
0000
0000
0000
0000
0330
0000
0000
0000
0000
0000
0000
0000
0000
0010
0000
0000
0000
1000
0000
0000
0000
0001
0000
0000
0000
0010
0000
0000
0000
0000
0000
0000
0000
0000
0100
0000
0000
1000
0000
0000
0000
0000
0000
0001
0000
0000
0000
0000
0000
,
0100
0000
0020
0000
0130
0001
0000
1001
0000
1000
0010
0100
0010
1000
0001
0010
,
0100
0000
1100
0000
1000
0001
0000
0101
0000
0100
0010
1000
0001
1000
0100
0010
,
0001
0000
0011
0000
0010
0100
0000
1100
0000
1000
0100
0010
0001
1000
0010
0100
,
0001
0000
0101
0000
0100
0010
0000
1010
0000
1000
0010
0100
0001
0010
0100
2000
,
3000
0001
0100
0000
0010
1000
0000
1001
0000
0001
0010
0100
0010
0001
1000
0010
,
0100
0000
0101
0000
0001
1000
0000
1100
0000
0100
0010
0001
1000
0001
0100
0010
,
1000
0000
1010
0000
0010
0100
0000
0101
0000
0001
0100
0010
1000
0001
0010
0100
,
1000
0000
0000
0000
0011
0000
0000
0000
1010
0000
0000
0000
0001
0100
0010
1000
,
0002
0000
0000
0000
0000
0000
0013
0000
0000
0100
0000
0000
1100
0000
0000
1000
0100
0010
0001
0000
0000
0100
0000
0000
,
0201
0000
0000
0000
1300
0000
0100
0001
0010
M00M
0010
1000
0001
0010
0100
0000
,
2000
0000
0000
0000
3001
0000
0100
0000
0110
0000
0010
1000
0001
0010
0100
1000
,
0020
0000
0000
0000
0031
0000
0010
1000
0100
0000
0010
0100
1000
0001
0100
0010
,
2000
0000
0000
0000
0000
0000
3001
0000
0000
0100
0000
0000
0101
0000
0000
0001
0100
0010
1000
0000
0000
0100
0000
0000
,
1200
0000
0000
0000
0301
0000
0100
1000
0010
M00M
0010
0001
1000
0001
0100
0010
,
2000
0000
3100
0010
0001
1000
0010
0100
0010
1000
0001
1000
0100
0010
0100
1000
,
0000
0000
0000
0000
0021
0000
0000
0000
0000
0000
0130
0000
0000
0000
1100
0000
0000
0000
0000
0000
0101
0000
0000
0000
0100
0000
0000
0001
1000
0000
0100
0000
,
0020
0000
M000
0000
0000
000M
0000
0000
0M30
0000
0000
0000
0000
0000
0000
0000
;
