#TITLE:Departure To Hitech City;
#SUBTITLE:;
#ARTIST:Sick Noise;
#TITLETRANSLIT:;
#SUBTITLETRANSLIT:;
#ARTISTTRANSLIT:;
#GENRE:;
#CREDIT:NAOKI;
#MUSIC:Sick Noise - Departure To Hitech City.ogg;
#BANNER:Departure-To-Hitech-City-bn.png;
#BACKGROUND:Departure-To-Hitech-City-bg.png;
#CDTITLE:naokicdtitle.png;
#SAMPLESTART:126.361;
#SAMPLELENGTH:15.158;
#SELECTABLE:YES;
#OFFSET:-0.045;
#BPMS:0.000=190.000;
#STOPS:;
#BGCHANGES:;
#FGCHANGES:;

//--------------- dance-single - NAOKI 52*/12-8/14/7-14|15-7/12/32 ----------------
#NOTES:
     dance-single:
     NAOKI 52*/12-8/14/7-14|15-7/12/32:
     Challenge:
     17:
     0,0,0,0,0:
0000
0000
0000
0000
,
0000
0000
0000
0000
,
0000
0000
0000
0000
,
0000
0000
0000
0000
,
0000
0000
0000
0000
,
0000
0000
0000
0000
,
0000
0000
0000
0000
,
0000
0000
0000
0000
,
0000
0000
0000
0000
,
0000
0000
0000
0000
,
0000
0000
0000
0000
,
0000
0000
0000
0000
,
0000
0000
0000
0000
,
0000
0000
0000
0000
,
0000
0000
0000
0000
,
0000
0000
0000
0000
,
0002
0000
0003
0000
,
1000
0010
0100
0001
,
1000
0100
0010
0001
,
0100
0010
1000
0001
,
0020
0000
0130
1000
0001
0000
0100
0000
,
0010
1000
0001
1000
,
0100
0010
0001
1000
,
0001
0100
0010
1000
,
0001
0010
0100
1000
,
0010
0100
0001
1000
,
0100
0010
0001
1000
,
0001
0100
0010
1000
0001
0010
0100
1000
,
0010
0100
0001
1000
0100
0010
0001
0100
,
0001
1000
0100
1000
0001
0100
0010
1000
,
0100
1000
0001
0100
0001
1000
0100
0010
,
0001
0100
0001
1000
0100
1000
0010
0100
,
0001
0000
1000
0100
1000
0001
0000
1000
0010
0100
0001
1000
0000
0001
0010
0100
,
1000
0001
0100
0001
1000
0100
0010
0001
0000
0000
1000
0010
1000
0001
0000
1000
,
0100
0010
0001
1000
0010
1000
0001
0010
0100
1000
0000
0001
0100
0001
1000
0100
,
1000
0010
0100
0001
0010
0100
1000
0001
0100
0010
1000
0001
0000
1000
0100
0010
,
0001
0000
0000
0000
,
0000
0000
0000
0000
,
0000
0000
0000
0000
,
0000
0000
0000
0000
,
1000
0001
0010
0001
0100
0010
1000
0001
0010
0001
0100
0010
1000
0001
0010
0001
,
0100
0010
1000
0001
0010
0001
0100
0010
1000
0001
0010
0001
0100
0010
1000
0001
,
0010
0001
0100
0010
1000
0001
0010
0001
1000
0010
0100
0001
1000
0100
1000
0010
,
0100
0001
1000
0100
1000
0010
0100
0001
1000
0100
1000
0010
0100
0001
1000
0100
,
0010
0100
1000
0001
1000
0010
0100
0001
1000
0100
0010
0001
1000
0001
0100
0010
,
1000
0001
0010
0001
1000
0010
0100
0001
1000
0100
0010
0100
1000
0001
0100
0010
,
1000
0100
0010
0001
1000
0001
0100
0010
1000
0001
0010
0100
1000
0001
0100
0001
,
1000
0100
1000
0001
1000
0010
0100
0001
1000
0001
0010
0001
1000
0010
0100
0001
,
0010
0001
1000
0010
1000
0001
0010
0100
1000
0001
0100
0001
1000
0100
0010
0001
,
1000
0001
0100
0010
1000
0001
1000
0100
0010
0001
1000
0010
0100
0010
1000
0001
,
0010
0001
1000
0001
0100
0010
0100
0001
1000
0100
1000
0001
1000
0010
0100
0001
,
1000
0100
0010
0001
1000
0001
0100
0010
1000
0001
0010
0100
1000
0001
0100
0001
,
1000
0100
0010
0001
0010
0100
1000
0001
0100
0010
1000
0010
0100
0001
1000
0100
,
1000
0010
0100
0001
0100
0010
1000
0001
0010
0100
1000
0100
0010
0001
1000
0010
,
0100
0001
1000
0001
0010
0001
0100
0010
1000
0100
1000
0001
1000
0010
0100
0001
,
2000
0000
3100
0000
,
0010
0001
1000
0010
1000
0001
0010
0001
1000
0010
1000
0001
0010
0001
1000
0010
,
0100
0001
1000
0001
0010
0001
0100
0010
1000
0100
1000
0001
0100
0010
0100
0001
,
1000
0100
1000
0100
0010
0001
1000
0010
1000
0010
0100
0001
0100
0010
1000
0100
,
0010
0001
0010
0001
1000
0010
0100
0001
1000
0100
1000
0001
0100
0010
1000
0010
,
0100
0001
1000
0001
0010
0100
1000
0100
0010
0001
1000
0010
0100
0001
0100
0010
,
1000
0001
0010
0001
0100
0001
1000
0100
1000
0001
0100
0001
1000
0100
1000
0001
,
0100
0010
0100
0001
0010
0001
1000
0001
0100
0010
1000
0100
1000
0001
1000
0010
,
0100
0001
1000
0100
1000
0001
0100
0001
1000
0100
1000
0010
1000
0001
0100
0001
,
0010
0001
1000
0010
0100
0010
1000
0001
1000
0100
0010
0001
1000
0001
0100
0010
,
1000
0100
1000
0100
0010
0001
1000
0001
0100
0010
1000
0001
0010
0001
1000
0010
,
0100
0001
0100
0010
1000
0100
1000
0001
0100
0001
1000
0001
0010
0100
1000
0001
,
0100
0010
0100
0001
1000
0100
0010
0001
1000
0010
0100
0001
1000
0100
1000
0010
,
1000
0001
0010
0100
1000
0010
1000
0001
0010
0100
1000
0010
1000
0001
0010
0001
,
1000
0010
1000
0010
0100
0001
1000
0100
0010
0001
0010
0001
1000
0010
1000
0100
,
1000
0010
0100
0001
0100
0010
1000
0001
0010
0001
0100
0001
1000
0001
0010
0100
,
2000
0000
0000
3000
,
0001
0100
0001
1000
0100
0010
0001
1000
0010
1000
0001
0010
0001
1000
0001
0100
,
0010
1000
0010
0100
0001
1000
0100
0010
0100
1000
0001
1000
0010
1000
0001
0010
,
0001
1000
0010
0100
0001
0010
0100
1000
0001
1000
0010
0100
0001
1000
0001
0010
,
0100
1000
0100
1000
0001
0100
0010
1000
0001
0010
0001
1000
0010
1000
0001
0010
,
0100
1000
0010
0100
0001
0010
0001
1000
0010
1000
0001
0010
0100
1000
0001
0100
,
0001
1000
0100
1000
0001
0100
0010
1000
0100
0010
0001
1000
0010
1000
0001
0010
,
0100
1000
0010
1000
0100
0010
0001
0100
0001
0010
0100
1000
0010
0100
0001
1000
,
0100
0010
0001
1000
0020
0000
0030
0000
,
0100
0001
0100
0001
1000
0100
0010
0001
1000
0010
1000
0001
0010
0001
0100
0010
,
1000
0001
1000
0100
0010
0001
1000
0001
0100
0010
0100
0001
1000
0100
0010
0001
,
1000
0010
1000
0010
0100
0001
1000
0001
0010
0100
1000
0001
1000
0010
0100
0001
,
1000
0100
1000
0001
0100
0010
1000
0001
1000
0100
0010
0001
0100
0001
1000
0100
,
0010
0001
0010
0001
1000
0010
1000
0001
0010
0001
1000
0010
1000
0100
0010
0001
,
1000
0001
0100
0010
1000
0001
1000
0100
0010
0100
1000
0001
1000
0010
0100
0001
,
1000
0100
1000
0100
0010
0001
1000
0010
0100
0010
1000
0001
0010
0100
1000
0001
,
0100
0010
1000
0100
0010
0001
0100
0010
1000
0100
0010
0001
0100
0000
0001
0000
,
1000
0100
0010
0001
0100
0001
1000
0100
0010
0001
1000
0001
0100
0001
1000
0100
,
1000
0001
0100
0010
1000
0001
1000
0100
0010
0001
0100
0001
1000
0100
1000
0001
,
0100
0010
1000
0001
0010
0100
1000
0001
1000
0010
0100
0001
1000
0100
0010
0001
,
1000
0010
1000
0001
0010
0100
1000
0001
1000
0010
0100
0001
1000
0001
0010
0001
,
1000
0010
1000
0010
0100
0001
1000
0100
1000
0100
0010
0001
1000
0010
1000
0001
,
0010
0001
0010
0100
1000
0001
0100
0001
0100
0010
1000
0001
0010
0001
1000
0010
,
1000
0001
0010
0100
1000
0001
0100
0010
1000
0001
0010
0001
1000
0000
0000
0000
,
0010
0100
0001
0010
0001
1000
0010
1000
0001
0010
0100
1000
0001
0000
0100
0000
,
0010
0000
0000
0000
,
0000
0000
0000
0000
,
0000
0000
0000
0000
,
0000
0000
0000
0000
0000
0000
0000
0000
2000
0000
0000
3000
0000
0000
0000
0000
,
0001
1000
0010
1000
0100
0010
0001
1000
0010
1000
0100
0010
0001
1000
0010
1000
,
0100
0010
0001
1000
0010
1000
0100
0010
0001
1000
0010
1000
0100
0010
0001
1000
,
0010
0000
0000
1000
0000
0000
0100
0000
0000
1000
0000
0000
0001
0000
0000
0100
0000
0000
0010
0000
0000
1000
0000
0000
0001
0000
0000
0000
0010
0000
0000
0000
0001
0000
0000
0000
1000
0000
0000
0010
0000
0000
0100
0000
0000
0001
0000
0000
,
1000
0100
1000
0001
0100
0010
1000
0001
0010
0001
0100
0001
1000
0100
1000
0001
,
0100
0000
0000
0010
0000
0000
0100
0000
0000
0001
0000
0000
1000
0000
0000
0000
0100
0000
0000
0000
1000
0000
0000
0000
0010
0000
0000
0100
0000
0000
0001
0000
0000
0100
0000
0000
0010
0000
0000
1000
0000
0000
0010
0000
0000
1000
0000
0000
,
0001
0000
0000
0000
0010
0000
0000
0000
0001
0000
0000
0000
1000
0000
0000
0000
0010
0000
0000
0000
1000
0000
0000
0000
0100
0000
0000
0010
0000
0000
0001
0000
0000
0010
0000
0000
0100
0000
0000
1000
0000
0000
0100
0000
0000
1000
0000
0000
,
0001
0100
0010
1000
0010
1000
0001
0010
0100
1000
0100
1000
0001
0100
0010
1000
,
0010
1000
0000
0000
0001
0000
0000
0000
0020
0000
0000
0000
0130
1000
0100
1000
,
0001
0100
0010
1000
0001
0010
0001
1000
0010
0100
0001
1000
0100
1000
0001
0100
,
0010
1000
0001
0010
0100
1000
0001
0100
0010
0100
0001
1000
0001
0010
0001
1000
,
0010
1000
0100
1000
0001
0100
0001
0010
0100
1000
0100
1000
0001
0100
0010
1000
,
0001
0010
0001
0100
0001
1000
0100
1000
0001
0100
0001
0100
0010
1000
0001
0010
,
0001
1000
0010
0100
0001
1000
0100
1000
0001
0100
0010
1000
0010
0100
0001
0100
,
0001
1000
0001
0010
0100
1000
0001
1000
0010
0100
0001
0100
0010
1000
0010
1000
,
0001
0010
0001
1000
0010
0100
0001
0010
0001
1000
0010
0100
0001
0010
0001
1000
,
0010
0100
0010
1000
0001
0010
0100
1000
0001
0100
0001
1000
0100
0000
0010
0000
,
0100
1000
0001
0100
0001
1000
0100
1000
0001
0100
0010
1000
0001
0010
0100
1000
,
0010
0100
0001
1000
0100
1000
0001
0100
0010
1000
0001
1000
0100
0010
0001
1000
,
0010
1000
0001
0010
0001
1000
0010
1000
0001
0010
0100
1000
0001
0100
0010
1000
,
0100
0010
0001
1000
0010
1000
0001
0010
0001
0100
0001
1000
0100
0000
0000
0000
,
1000
0010
0100
0001
1000
0100
1000
0001
0100
0010
1000
0001
0010
0001
1000
0001
,
0100
0010
1000
0001
0010
0100
1000
0001
1000
0010
0100
0001
1000
0000
0000
0000
,
0001
1000
0010
1000
0001
1000
0100
0010
0001
1000
0001
0100
0010
0000
0000
0000
,
1000
0001
0010
0001
1000
0000
0000
0000
0020
0000
0000
0000
0000
0000
0030
0000
,
1000
0100
1000
0001
0100
0010
1000
0001
0010
0100
1000
0001
0100
0010
1000
0001
,
1000
0100
0010
0001
1000
0010
0100
0001
1000
0001
0010
0100
1000
0001
0100
0010
,
1000
0001
1000
0100
1000
0001
0100
0010
1000
0100
1000
0001
0100
0010
1000
0100
,
1000
0001
0100
0010
1000
0100
1000
0001
0100
0010
1000
0100
1000
0001
0100
0010
,
1000
0100
0010
0001
1000
0010
0100
0001
1000
0001
0010
0100
1000
0001
0100
0010
,
1000
0001
0010
0001
1000
0010
0100
0001
1000
0100
0010
0001
1000
0001
0100
0010
,
1000
0001
0010
0100
1000
0001
0100
0001
1000
0100
0010
0001
1000
0010
1000
0001
,
0010
0100
1000
0001
0100
0010
1000
0001
0010
0001
1000
0010
0100
0001
1000
0100
,
0010
0000
0000
0002
0000
0000
0003
0000
,
2000
3000
0020
0030
,
0200
0300
0002
0003
,
0020
0030
0200
0300
,
2000
3000
0020
0030
,
0200
0300
0002
0003
,
0020
0030
0200
0300
,
2000
0000
3000
0002
0000
0003
0200
0000
,
0310
0000
0000
0000
,
0000
0000
0000
0000
,
1000
0010
0100
0001
1000
0100
1000
0001
0100
0010
1000
0001
0010
0001
1000
0010
,
0100
0001
0010
0100
1000
0010
1000
0001
0010
0100
1000
0001
0100
0001
0010
0100
,
1000
0010
0100
0001
1000
0100
1000
0001
0100
0010
1000
0001
0010
0001
1000
0010
,
0100
0001
0010
0100
1000
0010
1000
0001
0010
0100
1000
0001
0100
0001
1000
0010
,
1000
0100
0010
0001
1000
0010
1000
0001
0010
0100
1000
0001
0100
0001
1000
0100
,
0010
0001
0100
0010
1000
0100
1000
0001
0100
0010
1000
0001
0010
0001
0100
0010
,
1000
0100
0010
0001
1000
0010
1000
0001
0010
0100
1000
0001
0100
0001
1000
0100
,
0010
0001
0100
0010
1000
0100
1000
0001
0100
0010
1000
0001
0010
0001
1000
0010
,
0100
0010
1000
0001
0010
0001
1000
0010
0100
0001
1000
0100
1000
0001
0100
0010
,
1000
0100
0010
0001
0100
0001
1000
0100
0010
0001
1000
0010
1000
0100
0010
0001
,
0100
0010
1000
0001
0010
0001
1000
0010
0100
0001
1000
0100
1000
0001
0100
0010
,
1000
0100
0010
0001
0100
0001
1000
0100
0010
0001
1000
0010
1000
0100
0010
0001
,
0100
0010
1000
0001
0010
0001
0100
0010
1000
0001
0010
0100
1000
0010
1000
0001
,
0010
0100
1000
0001
0100
0001
0010
0100
1000
0001
0100
0010
1000
0100
1000
0001
,
0200
0000
0000
0000
,
0000
0000
0000
0300
,
0001
0010
0100
1000
0001
0100
0001
1000
0100
0010
0001
1000
0100
1000
0001
0100
,
0010
1000
0010
0100
0001
0010
0001
1000
0010
0100
0001
1000
0010
1000
0001
0010
,
0001
0100
0001
1000
0100
1000
0010
0100
0001
1000
0100
0010
0001
0100
0001
1000
,
0100
1000
0010
1000
0001
0010
0001
1000
0010
0100
0001
1000
0100
1000
0001
0100
,
0010
1000
0001
0010
0001
1000
0010
0100
0001
0010
0100
1000
0001
0100
0010
1000
,
0001
0010
0001
1000
0001
0100
0010
1000
0100
1000
0001
1000
0010
0100
0001
0100
,
0010
1000
0001
0010
0001
0100
0001
1000
0010
1000
0100
1000
0001
0000
0000
0000
,
0100
0010
1000
0100
0010
0001
0100
0010
1000
0100
0010
0001
0000
0000
0000
0000
,
1000
0010
1000
0001
0010
0001
1000
0001
0100
0010
1000
0010
1000
0001
1000
0100
,
0010
0001
0010
0001
1000
0001
0100
0010
1000
0001
1000
0100
0010
0001
0100
0001
,
1000
0100
1000
0100
0010
0001
1000
0010
1000
0001
0010
0100
1000
0001
1000
0010
,
0100
0001
1000
0001
0010
0100
1000
0001
0100
0001
1000
0100
1000
0000
0001
0000
,
1000
0010
0100
0001
1000
0010
0100
0001
1000
0100
1000
0001
0100
0010
1000
0010
,
0100
0001
1000
0100
1000
0001
1000
0010
0100
0010
1000
0001
0010
0001
1000
0010
,
1000
0100
1000
0100
0010
0001
1000
0001
0100
0001
0100
0010
1000
0001
1000
0100
,
1000
0001
0100
0001
1000
0100
1000
0001
0200
0000
0000
0000
0310
0000
1000
0000
,
0001
0010
0100
1000
0001
0100
0001
1000
0100
1000
0001
1000
0010
0100
0010
1000
,
0001
0010
0001
0010
0100
1000
0001
1000
0010
0100
0010
1000
0100
1000
0001
0100
,
0001
1000
0100
0010
0001
1000
0001
0100
0001
1000
0100
0010
0001
0100
0001
1000
,
0100
1000
0001
0100
0010
1000
0001
1000
0010
1000
0001
0010
0001
1000
0010
0100
,
0001
1000
0100
1000
0001
1000
0100
0010
0001
0100
0001
1000
0001
0100
0010
1000
,
0001
0010
0001
1000
0010
0100
0001
1000
0100
1000
0001
0100
0010
0000
0000
0000
,
0100
0001
1000
0100
1000
0001
0100
0001
1000
0100
0010
0001
0100
0010
1000
0100
,
1000
0000
0000
0000
0001
0000
0000
0000
0100
0000
0000
0000
0001
0000
0000
0000
1000
0000
0000
0000
0001
0000
0000
0000
0010
0000
0000
0000
0100
0000
0000
0000
1000
0000
0000
0000
0001
0000
0000
0000
0100
0000
0000
0000
0000
0000
0000
0000
0040
0000
0000
0000
0000
0000
0000
0000
0000
0000
0000
0030
0000
0000
0000
0000
,
1001
0000
0000
0000
,
0000
0000
0000
0000
,
0000
0000
0000
0000
,
0000
0000
0000
0000
,
0000
0000
0000
0000
,
0000
0000
0000
0000
,
1000
0000
0000
0000
,
0001
0000
1000
0100
,
0010
0000
0001
0000
1000
0000
0010
0100
,
0001
0000
1000
0000
0100
0000
0010
0001
,
1000
0000
0010
0000
0100
0000
0001
1000
,
0100
0000
0010
0000
0001
0000
0100
0010
,
1000
0001
0010
0100
,
1000
0001
0100
0010
,
1000
0001
0010
0001
1000
0010
0100
0001
,
1000
0100
0010
0001
0000
0000
0000
0000
,
1000
0001
0100
0010
1000
0100
1000
0001
0100
0010
1000
0100
1000
0001
0100
0010
,
1000
0100
1000
0001
0100
0010
1000
0100
1000
0001
0100
0010
1000
0100
1000
0001
,
0100
0010
1000
0100
1000
0001
0100
0001
1000
0100
0010
0001
0100
0001
1000
0001
,
0010
0100
1000
0001
0100
0001
1000
0100
0010
0001
1000
0010
0100
0010
1000
0001
,
0010
0100
1000
0001
0100
0001
1000
0001
0100
0010
1000
0001
0010
0001
1000
0001
,
0010
0100
1000
0001
0100
0001
1000
0001
0100
0010
1000
0001
0010
0000
0000
0000
,
0200
0000
0310
0000
0002
0003
2000
3000
0020
0000
0000
0030
2000
3000
0002
0003
,
0010
0010
0010
0010
,
0001
0100
0001
1000
0100
1000
0010
1000
0001
0100
0001
1000
0100
1000
0010
1000
,
0001
0010
0001
1000
0001
0010
0100
1000
0001
0100
0001
1000
0001
0100
0010
1000
,
0001
0010
0001
1000
0010
1000
0100
1000
0001
0010
0001
1000
0010
1000
0100
1000
,
0001
0100
0001
1000
0001
0100
0010
1000
0001
0010
0001
1000
0010
0100
0010
1000
,
0100
1000
0001
0100
0001
0010
0001
1000
0100
1000
0001
0100
0001
0010
0001
1000
,
0010
1000
0001
1000
0010
0100
0001
1000
0100
1000
0001
1000
0100
0010
0001
1000
,
0010
1000
0100
1000
0001
0100
0001
0010
0001
1000
0100
1000
0010
1000
0001
0010
,
0001
0100
0001
1000
0100
1000
0010
1000
0001
0010
0001
0100
0001
0000
1000
0000
,
0001
0010
0001
1000
0010
0100
0001
1000
0100
0010
0001
1000
0010
0100
0001
1000
,
0100
0010
0001
1000
0010
1000
0001
0010
0100
1000
0001
0100
0010
1000
0001
1000
,
0100
0010
0001
1000
0010
0100
0001
1000
0100
0010
0001
1000
0010
0100
0001
1000
,
0100
1000
0001
0100
0010
1000
0001
0010
0100
1000
0001
0000
0100
0000
0010
0000
,
1000
0010
1000
0001
0010
0100
1000
0001
0100
0010
1000
0001
0010
0100
1000
0001
,
0100
0001
1000
0100
0010
0001
1000
0010
0100
0001
1000
0100
0010
0001
1000
0001
,
0100
0010
1000
0001
0010
0100
1000
0001
0100
0010
1000
0001
0010
0100
1000
0001
,
0100
0100
0010
0010
1000
0001
1000
0001
,
0010
0100
1000
0010
0100
0001
0010
0001
1000
0010
1000
0001
0010
0001
1000
0001
,
0100
0010
1000
0001
0010
0001
1000
0010
0100
0001
0100
0001
1000
0100
1000
0001
,
1000
0010
0100
0001
0010
0001
0100
0010
1000
0100
1000
0010
0100
0001
1000
0100
,
0010
0001
0010
0001
1000
0010
0100
0001
1000
0000
1000
0000
0001
0000
0100
0000
,
0010
1000
0010
1000
0001
0010
0001
1000
0010
1000
0010
0100
0001
1000
0100
1000
,
0001
0100
0010
1000
0100
1000
0001
0100
0001
1000
0100
1000
0001
0100
0001
1000
,
0100
0010
0001
0010
0001
1000
0010
1000
0001
0010
0001
0010
0100
1000
0001
0100
,
0010
1000
0001
0010
0001
1000
0010
1000
0001
0010
0000
0000
0200
0000
0300
0000
,
1000
0100
1000
0001
0100
0001
0010
0001
1000
0010
1000
0100
1000
0001
0100
0001
,
1000
0100
1000
0100
0010
0001
1000
0001
0100
0010
1000
0001
0010
0001
1000
0010
,
0100
0001
0100
0010
1000
0100
1000
0001
0100
0010
0100
0001
0100
0010
1000
0001
,
0010
0100
0010
0001
1000
0010
1000
0001
0020
0000
0000
0000
0130
0000
1000
0000
,
0001
0100
0001
1000
0100
1000
0010
1000
0001
0010
0001
0100
0001
1000
0100
1000
,
0001
0100
0001
0100
0010
1000
0001
1000
0100
0010
0001
1000
0010
0000
0010
0000
,
1000
0100
1000
0000
0000
0000
0001
0100
0001
0000
0000
0000
1000
0100
1000
0000
,
0000
0000
0001
0100
0001
0000
0000
0000
1000
0000
0002
0000
0000
0000
0003
0000
,
1000
0100
0010
0001
1000
0100
0010
0001
1000
0010
1000
0001
0010
0001
1000
0001
,
0100
0010
1000
0001
0010
0001
1000
0010
0100
0001
1000
0001
0010
0001
1000
0010
,
0100
0001
0100
0001
1000
0100
1000
0001
0100
0010
1000
0001
0010
0001
1000
0010
,
0100
0001
1000
0100
1000
0010
1000
0001
0010
0001
0100
0001
1000
0000
0001
0000
,
1000
0010
0100
0001
1000
0001
0010
0001
0100
0010
0100
0001
1000
0100
0010
0001
,
0100
0001
1000
0100
1000
0001
0100
0001
1000
0100
1000
0001
0100
0010
1000
0001
,
1000
0100
1000
0100
0010
0001
1000
0001
0100
0001
0100
0010
1000
0001
1000
0100
,
0010
0100
1000
0001
0100
0010
1000
0001
0010
0100
1000
0100
0010
0001
0010
0001
,
1000
0010
0100
0001
1000
0100
0010
0001
0100
0010
1000
0001
0010
0100
1000
0001
,
0100
0001
1000
0100
1000
0001
0100
0010
1000
0001
1000
0001
0010
0100
1000
0001
,
0100
0010
1000
0010
0100
0001
1000
0100
0010
0001
0010
0001
1000
0010
0100
0001
,
0010
0001
1000
0010
1000
0001
0010
0100
1000
0001
1000
0001
0100
0000
0010
0000
,
1000
0100
0010
0000
0001
1000
0010
0000
0100
0001
1000
0000
0100
0010
0001
0000
,
1000
0002
0200
0003
0320
2000
0030
3002
,
0020
0003
0230
2000
0300
3002
0200
0003
,
0310
0000
0000
0000
,
1000
0100
1000
0001
0100
0010
1000
0100
1000
0001
0100
0010
1000
0100
1000
0001
,
0100
0010
1000
0001
0010
0001
0100
0001
1000
0100
0010
0001
0100
0001
1000
0100
,
0010
0001
0100
0001
1000
0100
0010
0001
0100
0001
1000
0100
0010
0001
0100
0001
,
1000
0001
0010
0100
1000
0010
1000
0001
0010
0100
1000
0010
1000
0001
0010
0100
,
1000
0010
1000
0001
0010
0100
1000
0010
1000
0001
0010
0100
1000
0010
1000
0001
,
0010
0100
1000
0001
0100
0001
0010
0001
1000
0010
0100
0001
0010
0000
0000
0000
,
0001
0010
0001
1000
0010
0100
0001
0010
0001
1000
0010
0100
0001
0010
0001
1000
,
0010
0000
0100
0000
0010
0000
0100
0000
0001
1000
0001
0100
0001
0010
0001
1000
,
0010
1000
0001
0010
0100
1000
0001
1000
0010
0100
0001
0100
0010
1000
0100
1000
,
0001
0100
0001
0010
0100
1000
0100
1000
0001
0100
0010
1000
0001
0010
0001
1000
,
0010
1000
0100
1000
0001
0100
0001
0100
0010
1000
0001
0010
0100
1000
0001
1000
,
0020
0030
0000
0000
0100
0000
0000
0000
0001
0000
0000
0000
0020
0030
0000
0000
0100
0000
0000
0000
1000
0000
0000
0000
0020
0030
0000
0000
0100
0000
0000
0000
0001
0000
0000
0000
0020
0030
0000
0000
0100
0000
0000
0000
1000
0000
0000
0000
0020
0000
0000
0000
0000
0000
0000
0000
0030
0000
0000
0000
0000
0000
0000
0000
,
0100
0001
1000
0001
0010
0100
1000
0001
1000
0010
0100
0001
1000
0100
1000
0001
,
0100
0001
1000
0100
0010
0001
1000
0001
0100
0010
1000
0010
0100
0001
1000
0001
,
0010
0100
1000
0001
0100
0001
1000
0100
0010
0001
1000
0001
0100
0010
1000
0001
,
0010
0001
0100
0001
1000
0100
1000
0001
0100
0010
0100
0001
1000
0000
0001
0000
,
0010
0100
1000
0001
1000
0100
1000
0001
0100
0010
1000
0001
1000
0010
1000
0001
,
0010
0001
1000
0001
0010
0100
1000
0001
0100
0001
1000
0001
0100
0010
1000
0001
,
0010
0100
1000
0001
1000
0100
1000
0001
0100
0010
1000
0001
1000
0010
1000
0001
,
0010
0001
1000
0001
0010
0100
1000
0001
0100
0001
1000
0001
0100
0000
0000
0000
,
0010
0100
0001
1000
0001
0100
0001
1000
0100
0010
0001
1000
0001
0010
0001
1000
,
0010
1000
0001
1000
0010
0100
0001
1000
0100
1000
0001
1000
0100
0010
0001
1000
,
0010
0100
0001
1000
0001
0100
0001
1000
0100
0010
0001
1000
0001
0010
0001
1000
,
0010
1000
0001
1000
0010
0100
0001
1000
0200
0000
0000
0300
1000
0000
0001
0000
,
1000
0100
1000
0001
0100
0001
0010
0001
1000
0010
1000
0001
0010
0001
0100
0001
,
1000
0100
1000
0001
0100
0001
0010
0100
1000
0001
0100
0001
0010
0100
1000
0001
,
0100
0001
1000
0001
0010
0100
1000
0001
1000
0010
0100
0001
1000
0100
0010
0001
,
1000
0010
1000
0001
0010
0100
1000
0001
0100
0010
1000
0001
0010
0001
1000
0001
,
0100
0010
0100
0001
1000
0100
0010
0001
1000
0010
0100
0001
1000
0001
0010
0100
,
1000
0001
0100
0001
1000
0100
0010
0001
1000
0010
0100
0001
1000
0100
1000
0001
,
0100
0010
1000
0001
0010
0100
1000
0001
1000
0010
0100
0001
1000
0100
0010
0001
,
0100
0010
1000
0001
0010
0100
1000
0001
1000
0010
0100
0001
1000
0100
0010
0001
,
0100
0001
1000
0001
0010
0100
1000
0001
0100
0010
1000
0001
0010
0001
1000
0010
,
1000
0100
0010
0001
1000
0010
0100
0001
1000
0100
1000
0001
0100
0010
1000
0001
,
0010
0001
1000
0001
0100
0010
1000
0100
1000
0001
0100
0010
1000
0100
1000
0001
,
0100
0010
1000
0001
1000
0100
1000
0001
0100
0010
1000
0001
0010
0001
1000
0010
,
0100
0001
1000
0001
0010
0100
1000
0001
0100
0001
1000
0100
0010
0001
1000
0010
,
1000
0001
0010
0100
1000
0001
1000
0010
0100
0001
1000
0001
0010
0100
1000
0001
,
0100
0010
0100
0001
1000
0100
0010
0001
1000
0001
0100
0010
1000
0001
1000
0100
,
0010
0001
1000
0010
0100
0010
1000
0001
0010
0100
1000
0001
1000
0010
1000
0001
,
0010
0000
0000
0000
,
0000
0000
0000
0000
,
0000
0000
0000
0000
,
0000
0000
0000
0000
,
0M00
0000
0000
0000
;
