#TITLE:DECISION;
#SUBTITLE:;
#ARTIST:CHiNTOMO;
#TITLETRANSLIT:;
#SUBTITLETRANSLIT:;
#ARTISTTRANSLIT:;
#GENRE:;
#CREDIT:;
#MUSIC:DECISION.ogg;
#BANNER:DECISION-bn.png;
#BACKGROUND:DECISION-bg.png;
#CDTITLE:NAOKI_cdtitle.png;
#SAMPLESTART:45.011;
#SAMPLELENGTH:12.000;
#SELECTABLE:YES;
#OFFSET:-1.432;
#BPMS:0.000=176.070
,127.000=352.140
,127.500=176.070
,127.750=88.035
,128.000=352.140
,128.500=88.035
,128.750=352.140
,129.250=88.035
,129.500=352.140
,130.000=88.035
,130.250=352.140
,130.750=88.035
,131.000=176.070
,192.000=352.140
,192.500=88.035
,192.750=352.140
,193.250=88.035
,193.500=352.140
,194.000=88.035
,194.250=352.140
,194.750=88.035
,195.000=176.070
,255.000=352.140
,255.500=176.070
,255.750=88.035
,256.000=352.140
,256.500=88.035
,256.750=352.140
,257.250=88.035
,257.500=352.140
,258.000=88.035
,258.250=352.140
,258.750=88.035
,259.000=176.070
,288.000=352.140
,288.500=88.035
,288.750=352.140
,289.250=88.035
,289.500=352.140
,290.000=88.035
,290.250=352.140
,290.750=88.035
,291.000=176.070
,291.250=352.140
,292.000=176.070
,351.000=352.140
,351.500=176.070
,351.750=88.035
,352.000=176.070
;
#STOPS:291.250=0.021
,291.375=0.021
,291.500=0.021
,291.625=0.021
,291.750=0.021
,291.875=0.021
;
#DISPLAYBPM:176.000;
#BGCHANGES:;
#FGCHANGES:;

//--------------- dance-single - NAOKI ----------------
#NOTES:
     dance-single:
     NAOKI:
     Beginner:
     3:
     0.193,0.212,0.007,0.013,0:
0000
0000
0000
0000
,
1000
0000
1000
0000
,
1000
0000
1000
0000
,
0001
0000
0001
0000
,
0001
0000
0001
0000
,
0100
0000
0100
0000
,
0100
0000
0100
0000
,
0010
0000
0010
0000
,
0010
0000
0010
0000
,
0100
0000
0100
0000
,
0001
0000
0001
0000
,
1000
0000
1000
0000
,
0100
0000
0100
0000
,
0010
0000
0010
0000
,
0001
0000
0001
0000
,
1000
0000
1000
0000
,
0010
0000
0000
0000
,
0100
0000
0000
0000
,
0010
0000
0000
0000
,
1000
0000
1000
0000
,
0001
0000
0001
0000
,
0010
0000
0000
0000
,
0100
0000
0000
0000
,
1000
0000
1000
0000
,
0001
0000
0001
0000
,
0100
0000
0100
0000
,
0100
0000
0000
0000
,
0010
0000
0010
0000
,
0010
0000
0000
0000
,
1000
0000
1000
0000
,
0001
0000
0001
0000
,
1000
0000
0001
0000
,
0100
0000
0000
0000
,
0010
0000
1000
0000
,
0001
0000
0010
0000
,
0100
0000
1000
0000
,
0001
0000
0100
0010
,
0100
0000
0001
0000
,
1000
0000
0100
0000
,
0010
0000
0001
0000
,
1000
0000
0010
0100
,
0010
0000
1000
0000
,
0001
0000
0010
0000
,
0100
0000
1000
0000
,
0001
0000
0100
0010
,
0100
0000
0001
0000
,
1000
0000
0100
0000
,
0010
0000
0001
0000
,
1000
0000
0010
0100
,
0010
0000
0000
0000
,
0100
0000
0000
0000
,
0001
0000
0001
0000
,
1000
0000
1000
0000
,
0100
0000
0000
0000
,
0010
0000
0000
0000
,
0001
0000
0001
0000
,
1000
0000
1000
0000
,
0010
0000
0010
0000
,
0010
0000
0000
0000
,
0100
0000
0100
0000
,
0100
0000
0000
0000
,
0001
0000
0001
0000
,
1000
0000
1000
0000
,
0001
0000
1000
0000
,
0010
0000
0000
0000
,
0100
0000
0001
0000
,
1000
0000
0100
0000
,
0010
0000
0001
0000
,
1000
0000
0010
0100
,
0010
0000
1000
0000
,
0001
0000
0010
0000
,
0100
0000
1000
0000
,
0001
0000
0100
0010
,
0100
0000
0000
0000
,
0010
0000
0000
0000
,
1000
0000
1000
0000
,
0001
0000
0001
0000
,
0010
0000
0000
0000
,
0100
0000
0000
0000
,
1000
0000
1000
0000
,
0001
0000
0001
0000
,
0100
0000
0100
0000
,
0100
0000
0000
0000
,
0010
0000
0010
0000
,
0010
0000
0000
0000
,
1000
0000
1000
0000
,
0001
0000
0001
0000
,
1000
0000
0001
0000
,
0100
0000
0000
0000
,
0010
0000
1000
0000
,
0001
0000
0010
0100
,
0010
0000
0001
0000
,
1000
0000
0010
0100
,
0010
0000
1000
0000
,
0001
0000
0010
0100
,
0010
0000
0001
0000
,
1000
0000
0010
0000
,
0100
0000
0001
0000
,
1000
0000
0100
0010
,
0100
0000
1000
0000
,
0001
0000
0100
0010
,
0100
0000
0001
0000
,
1000
0000
0100
0010
,
0100
0000
1000
0000
,
0001
0000
0100
0000
,
2002
0000
3003
0000
;

//--------------- dance-single - NAOKI ----------------
#NOTES:
     dance-single:
     NAOKI:
     Easy:
     7:
     0.353,0.388,0.06,0.067,0:
0000
0000
0000
0000
,
1000
1000
0010
0100
,
0001
0001
0010
0100
,
1000
1000
0100
0010
,
0001
0001
1000
0010
,
0100
0100
0001
0010
,
0100
0100
1000
0001
,
0010
0010
0001
0100
,
0010
0010
1000
0100
,
0010
0001
0000
0001
,
0100
0010
0000
0010
,
1000
0100
0000
0100
,
0010
0001
0000
0100
,
0010
1000
0000
1000
,
0100
0010
0000
0010
,
0001
0100
0000
0100
,
0010
1000
0000
0100
,
0020
0000
0000
0000
,
0032
0000
0000
0000
,
0203
0000
0000
0000
,
0320
0000
0000
0000
,
2030
0000
0000
0000
,
3200
0000
0000
0000
,
0320
0000
0000
0000
,
0032
0000
0000
0000
,
0103
0100
0010
0010
,
1000
1000
0001
0001
,
0010
0100
0000
0100
,
1000
0010
0000
0010
,
1000
1000
0001
0001
,
0010
0010
0100
0100
,
1000
0010
0000
0110
,
1001
0000
0100
0000
,
0010
0010
1000
0100
,
0010
0010
0001
0100
,
0010
1000
0100
0010
,
0001
1000
0010
0010
,
0100
0100
0001
0010
,
0100
0100
1000
0010
,
0100
0001
0010
0100
,
1000
0010
0100
0001
,
0010
0010
0001
0100
,
0010
0010
1000
0100
,
0010
0001
0100
0010
,
1000
0001
0010
0010
,
0100
0100
1000
0010
,
0100
0100
0001
0010
,
0100
1000
0010
0100
,
0001
0010
0100
1000
,
0010
0000
0010
0000
,
0100
0000
0100
0000
,
0001
0010
0000
0010
,
0001
0100
0000
0100
,
0010
0000
0010
0000
,
1000
0000
0001
0000
,
1000
0010
0000
0010
,
1000
0100
0000
0100
,
0010
0010
0100
0100
,
1000
1000
0001
0001
,
0100
0010
0000
0010
,
1000
0100
0000
0100
,
1000
1000
0001
0001
,
0100
0100
0010
0010
,
1000
0100
0000
0110
,
1001
0000
0010
0000
,
0100
0100
0001
0010
,
0100
0100
1000
0010
,
0100
0001
0010
0100
,
1000
0001
0100
0100
,
0010
0010
1000
0100
,
0010
0010
0001
0100
,
0010
1000
0100
0010
,
0001
1000
0010
0010
,
0100
0001
0000
0001
,
0010
0100
0000
0100
,
1000
0010
0100
0001
,
1000
0100
0010
0010
,
0100
1000
0000
1000
,
0010
0100
0000
0100
,
0001
0010
0100
1000
,
0001
0100
0010
0010
,
1000
1000
0001
0001
,
0010
0010
0100
0100
,
1000
0010
0000
0010
,
1000
0100
0000
0100
,
0010
0000
0001
0000
,
1000
0000
0010
0000
,
0100
0100
0010
0110
,
1001
0000
0100
0000
,
0010
0010
1000
0001
,
0010
0010
0001
1000
,
0010
0010
1000
0001
,
0010
0100
1000
0001
,
0100
0100
0001
1000
,
0100
0100
1000
0001
,
0100
0100
0001
1000
,
0100
0010
1001
1001
,
0010
0010
0001
1000
,
0010
0010
1000
0001
,
0010
0010
0001
1000
,
0010
0100
0001
1000
,
0100
0100
1000
0001
,
0100
0100
0001
1000
,
0100
0100
1000
0001
,
0100
0010
1000
0100
,
2002
0000
3003
0000
;

//--------------- dance-single - NAOKI ----------------
#NOTES:
     dance-single:
     NAOKI:
     Medium:
     11:
     0.546,0.529,0.201,0.08,0.077:
0000
0000
0000
0000
,
0001
1000
0000
0010
0000
0100
0000
0001
,
0000
1000
0000
0100
0000
0010
0000
0001
,
0000
0100
0000
0010
0000
1000
0000
0001
,
0000
0010
0000
0100
0000
1000
0000
0001
,
0000
1000
0000
0010
0000
0100
0000
0001
,
0000
1000
0000
0100
0000
0010
0000
0001
,
0000
0100
0000
0010
0000
1000
0000
0001
,
0000
0010
0000
0100
0000
1000
0000
0001
,
0100
0010
0000
1000
0000
0100
0000
0010
,
0000
0001
0000
0100
0000
0010
0000
1000
,
0100
0010
0000
0001
0000
0100
0000
0010
,
0000
1000
0000
0010
0000
0100
0000
0001
,
0010
0100
0000
1000
0000
0010
0000
0100
,
0000
0001
0000
0010
0000
0100
0000
1000
,
0010
0100
0000
0001
0000
0010
0000
0100
,
0000
1000
0000
0001
0000
0100
0000
0000
,
0020
0000
0000
0000
,
2030
0000
0000
0000
,
3002
1000
0000
1000
,
0023
0100
0000
0100
,
0032
0000
0000
0000
,
2003
0000
0000
0000
,
3020
0100
0000
0100
,
2030
0001
0000
3001
,
0011
0011
1010
1010
,
0101
0101
1100
1100
,
0010
0001
1000
0010
,
0100
0001
1000
0100
,
0010
0010
0001
1000
,
0010
0010
0100
0001
,
0010
0100
1000
0001
0100
0000
0110
0000
,
0010
0000
0000
1000
0000
0000
0001
0000
0000
0010
0000
0000
0100
0000
0000
0000
,
0010
0001
1000
0010
0100
0001
0010
0000
,
0100
1000
0001
0100
0010
1000
0100
0000
,
0010
0001
0010
0000
0001
0100
0001
0000
,
1000
0100
1000
0000
0010
1000
0010
0000
,
0100
0001
1000
0100
0010
0001
0100
0000
,
0010
1000
0001
0010
0100
1000
0010
0000
,
0100
0001
0100
0000
0001
0010
0001
0000
,
1000
0010
1000
0000
0100
1000
0100
0000
,
0010
0001
1000
0010
0100
0001
0010
0000
,
0100
1000
0001
0100
0010
1000
0100
0000
,
0010
0001
0010
0000
0001
0100
0001
0000
,
1000
0100
1000
0000
0010
1000
0010
0000
,
0100
0001
1000
0100
0010
0001
0100
0000
,
0010
1000
0001
0010
0100
1000
0010
0000
,
0100
0001
0100
0000
0001
0010
0001
0000
,
1000
0010
1000
0000
0100
1000
0001
0100
,
0010
1000
0000
1000
,
0001
0010
0000
0010
,
0100
1000
0001
0100
0000
0010
1000
0001
,
0000
0010
0100
1000
0000
0001
0100
0010
,
1000
0001
0000
0001
,
1000
0100
0000
0100
,
0010
0001
1000
0010
0000
0100
0001
1000
,
0000
0100
0010
0001
0000
1000
0010
0100
,
0001
1100
0110
0011
,
1001
1010
0110
0101
,
0100
0001
1000
0100
0000
0010
0001
1000
,
0000
0010
0100
0001
0000
1000
0100
0010
,
0001
1000
0000
1000
,
0010
0100
0000
0100
,
0001
0010
0100
1000
0010
0000
0110
0000
,
0100
0000
0000
0001
0000
0000
1000
0000
0000
0100
0000
0000
0010
0000
0000
0000
,
0001
0010
0100
1000
0001
0100
0010
0000
,
1000
0100
0010
0001
1000
0010
0100
0000
,
0010
1000
0010
0000
1000
0100
1000
0000
,
0001
0100
0001
0000
0010
0001
0010
0000
,
0001
0100
0010
1000
0001
0010
0100
0000
,
1000
0010
0100
0001
1000
0100
0010
0000
,
0100
1000
0100
0000
1000
0010
1000
0000
,
0001
0000
0000
0010
0000
0000
0100
0000
0000
1000
0000
0000
0000
2002
0000
0000
,
3003
0001
0000
0001
,
0100
0010
0000
0010
,
0100
0001
1000
0100
0000
0010
0001
1000
,
0000
0010
0100
0001
0000
1000
0100
0010
,
0001
1000
0000
1000
,
0010
0100
0000
0100
,
0010
1000
0001
0010
0000
0100
1000
0001
,
0000
0100
0010
1000
0000
0001
0010
0100
,
1000
0011
0110
1100
,
1001
0101
0110
1010
,
0100
0001
1000
0100
0000
0010
0001
0100
,
0000
0010
1000
0100
0000
0001
0100
1000
,
0010
0000
0100
0001
0000
0001
0010
0000
,
0110
0000
0100
1000
0000
1000
0010
0000
,
1000
0100
0010
0001
0100
0000
0110
0000
,
0010
0000
0000
1000
0000
0000
0001
0000
0000
0010
0000
0000
0100
0000
0000
0000
,
0010
0001
1000
0010
0100
0001
0010
0000
,
0100
0000
0000
1000
0000
0000
0001
0000
0000
0100
0000
0000
0010
0000
0000
0000
,
1000
0001
0010
0100
1000
0001
0100
0000
,
0010
0000
0000
1000
0000
0000
0001
0000
0000
0010
0000
0000
0100
0000
0010
0000
,
0001
1000
0010
0100
0001
1000
0100
0000
,
0010
0000
0000
0001
0000
0000
1000
0000
0000
0010
0000
0000
0100
0000
0000
0000
,
0010
1000
0100
0000
0010
0001
0100
0000
,
0010
0000
0000
1000
0000
0000
0100
0000
0000
0010
0000
0000
1001
0000
0000
0000
,
0010
1000
0001
0010
0100
1000
0010
0000
,
0100
0000
0000
0001
0000
0000
1000
0000
0000
0100
0000
0000
0010
0000
0100
0000
,
1000
0001
0100
0010
1000
0001
0010
0000
,
0100
0000
0000
1000
0000
0000
0001
0000
0000
0100
0000
0000
0010
0000
0000
0000
,
1000
0000
0001
0000
0010
0000
0001
0000
1000
0000
0000
0010
0000
0000
0100
0000
,
0001
0000
1000
0000
0100
0000
1000
0000
0001
0000
0000
0100
0000
0000
0010
0000
,
1000
0100
0010
0000
0001
0100
0010
0000
,
1000
0100
0010
0001
0100
0000
0110
0000
,
2002
0000
3003
0000
;

//--------------- dance-single - NAOKI ----------------
#NOTES:
     dance-single:
     NAOKI:
     Hard:
     14:
     0.78,0.811,0.308,0.114,0.552:
0000
0000
0000
0000
,
0010
0100
0001
1000
0100
0010
0001
0000
,
0010
0100
1000
0001
0100
0010
1000
0001
,
0010
0100
1000
0001
0100
0010
1000
0000
,
0010
0100
0001
1000
0100
0010
0001
1000
,
0010
0100
0001
1000
0100
0010
0001
0000
,
0010
0100
1000
0001
0100
0010
1000
0001
,
0010
0100
1000
0001
0100
0010
1000
0000
,
0010
0100
0001
1000
0100
0010
0001
1000
,
0010
0100
0001
0010
0000
0100
1000
0010
,
0000
0100
0001
1000
0100
0100
0010
0001
,
0100
0010
1000
0100
0000
0010
0001
0100
,
0000
0010
1000
0001
0010
0010
0100
1000
,
0100
0010
0001
0100
0000
0010
1000
0100
,
0000
0010
0001
1000
0010
0010
0100
0001
,
0010
0100
1000
0010
0000
0100
0001
0010
,
0000
0100
1000
0010
0000
1000
0100
0010
,
0002
0000
0000
0000
,
0203
0000
0000
0000
,
0310
1000
0001
0010
0000
0100
1000
0001
,
0000
0100
0010
1000
0000
0001
0010
0100
,
2000
0000
0000
0000
,
3020
0000
0000
0000
,
0130
0001
1000
0100
0000
0010
0001
1000
,
0000
0010
0100
0001
0000
1000
0100
0010
,
0001
1100
0101
1001
,
1010
0011
1100
0110
,
0010
0001
1000
0010
0000
0100
0001
0010
,
0000
0100
1000
0010
0000
0100
0001
1000
,
0100
0000
0010
0001
0000
0001
0100
0000
,
0110
0000
0010
1000
0001
1000
0100
0000
,
0010
0001
1000
0010
0100
0000
0220
0330
,
1010
0000
0000
0011
0000
0000
1100
0000
0000
0101
0000
0000
0010
0000
1000
0000
,
0001
0010
0000
0100
0010
0000
0001
0010
0000
0100
0010
0000
0001
0000
1000
0000
,
0010
0100
0000
0010
1000
0000
0010
0100
0000
0010
1000
0000
0010
0000
0100
0000
,
0001
0100
0000
0010
0100
0000
0001
0100
0000
0010
0100
0000
0001
0000
1000
0000
,
0100
0010
0000
0100
1000
0000
0100
0010
0000
0100
1000
0000
0001
1000
0001
0000
,
1000
0010
0000
0100
0001
0000
1000
0100
0000
0010
0001
0000
0010
0000
0100
0000
,
1000
0100
0000
0010
0001
0000
1000
0010
0000
0100
0001
0000
0100
0000
0010
0000
,
1000
0001
0000
0010
0100
0000
1000
0001
0000
0100
0010
0000
1000
0000
0001
0000
,
0010
0100
0000
1000
0001
0000
0100
0010
0000
0100
0001
1000
0001
0000
1000
0001
,
1000
0010
0000
0100
0010
0000
1000
0010
0000
0100
0010
0000
1000
0000
0001
0000
,
0010
0100
0000
0010
0001
0000
0010
0100
0000
0010
0001
0000
0010
0000
0100
0000
,
1000
0100
0000
0010
0100
0000
1000
0100
0000
0010
0100
0000
1000
0000
0001
0000
,
0100
0010
0000
0100
0001
0000
0100
0010
0000
0100
0001
0000
1000
0001
1000
0000
,
0001
0010
0000
0100
1000
0000
0001
0100
0000
0010
1000
0000
0010
0000
0100
0000
,
0001
0100
0000
0010
1000
0000
0001
0010
0000
0100
1000
0000
0100
0000
0010
0000
,
0001
1000
0001
0000
0100
0000
0010
0000
1000
0001
1000
0000
0100
0000
0010
0000
,
0001
0000
0000
0011
0000
0000
1010
0000
0000
0101
0000
0000
0010
0000
1000
0000
,
0002
0100
0000
0103
,
2000
0100
0000
3100
,
0001
0100
0010
1000
0000
0100
0010
0001
,
0000
0100
0010
1000
0000
0001
0010
0100
,
2000
0010
0000
3010
,
0002
0010
0000
0013
,
1000
0010
0100
0001
0000
0010
0100
1000
,
0000
0010
0100
0001
0000
1000
0100
0010
,
0001
1010
0101
1001
,
1100
0101
1010
0110
,
0100
0001
1000
0100
0000
0010
0001
1000
,
0000
0010
0100
0001
0000
1000
0100
0010
,
0001
0000
0100
0001
0000
0001
0010
0000
,
0110
0000
0100
1000
0000
1000
0010
0000
,
0100
0001
1000
0100
0010
0000
2002
3003
,
1100
0000
0000
0101
0000
0000
1010
0000
0000
0011
0000
0000
0100
0000
1000
0000
,
0001
0100
0000
0010
0100
0000
0001
1000
0000
0100
0010
0000
0001
0000
1000
0000
,
0010
0100
0000
0001
0100
0000
1000
0100
0000
0010
0100
0000
0001
1000
0001
0000
,
1000
0100
0000
0010
0100
0000
1000
0001
0000
0100
0010
0000
1000
0000
0001
0000
,
0010
0100
0000
1000
0100
0000
0001
0100
0000
0010
0100
0000
1000
0001
1000
0000
,
0001
0100
0000
0010
1000
0000
0001
0010
0000
0100
1000
0000
0100
0000
0010
0000
,
0001
0010
0000
0100
1000
0000
0001
0100
0000
0010
1000
0000
0010
0000
0100
0000
,
0001
1000
0001
0000
0010
0000
0100
0000
1000
0001
1000
0000
0010
0000
0100
0000
,
0001
0000
0000
0101
0000
0000
1010
0000
0000
0011
0000
0000
0001
2000
0000
0000
,
3100
0010
0000
0010
,
0001
0100
0000
0100
,
0010
1000
0001
0010
0000
0100
1000
0001
,
0000
0100
0010
1000
0000
0100
0010
0001
,
0100
0010
0000
0010
,
1000
0100
0000
0100
,
0010
0001
1000
0010
0000
0100
0001
1000
,
0000
0100
0010
0001
0000
0100
0010
1000
,
0100
0011
1010
1001
,
0011
1010
0101
0110
,
0010
1000
0001
0010
0000
0100
1000
0010
,
0000
0100
0001
0010
0000
0100
1000
0001
,
0100
0000
0010
1000
0000
1000
0100
0000
,
0110
0000
0010
0001
0000
0001
0100
0000
,
0010
1000
0001
0010
0100
0000
2002
3003
,
0101
0000
0000
1100
0000
0000
0011
0000
0000
1010
0000
0000
0100
0000
0001
0000
,
1000
0100
0000
0010
0100
0000
1000
0010
0000
0100
0010
0000
1000
0000
0001
0000
,
0010
0100
0000
0010
0001
0000
0100
0001
0000
0100
0010
0000
1000
0001
1000
0000
,
0001
0010
0000
0100
0010
0000
0001
0100
0000
0010
0100
0000
0001
0000
1000
0000
,
0100
0010
0000
0100
1000
0000
0010
1000
0000
0010
0100
0000
0001
1000
0001
0000
,
1000
0010
0000
0100
0001
0000
1000
0100
0000
0010
0001
0000
0010
0000
0100
0000
,
1000
0100
0000
0010
0001
0000
1000
0010
0000
0100
0001
0000
1000
0001
1000
0000
,
0001
0100
0000
0010
1000
0000
0001
0010
0000
0100
1000
0000
0100
0000
0010
0000
,
0001
0010
0000
0100
1000
0000
0001
0100
0000
0010
1000
0000
0010
0000
0100
0000
,
0001
0100
0000
0100
0001
0000
1000
0100
0000
0100
1000
0000
0100
0000
0010
0000
,
0001
0010
0000
0010
0001
0000
1000
0010
0000
0010
1000
0000
0001
1000
0001
0000
,
1000
0100
0000
0100
1000
0000
0001
0100
0000
0100
0001
0000
0100
0000
0010
0000
,
1000
0010
0000
0010
1000
0000
0001
0010
0000
0010
0001
0000
0010
0000
0100
0000
,
1000
0100
0000
0100
0010
0000
0010
0001
0000
0001
0100
0000
0010
0000
1000
0000
,
0001
0100
0000
0100
0010
0000
0010
1000
0000
1000
0100
0000
0010
0000
0001
0000
,
1000
0010
1000
0000
0010
0000
0100
0000
0001
0010
0001
0000
0010
0000
0100
0000
,
1000
0100
1000
0000
0100
0000
0010
0000
0001
0100
0001
0000
0100
0000
0010
0000
,
2002
0000
3003
0000
;

//--------------- dance-single - NAOKI ----------------
#NOTES:
     dance-single:
     NAOKI:
     Challenge:
     17:
     0.983,1,0.254,0.194,1:
0000
0000
0000
0000
,
1000
0010
0100
0010
1000
0001
0010
0100
,
1000
0001
0100
0010
0100
0001
1000
0100
,
0010
0001
1000
0001
0100
0010
1000
0001
,
0010
0100
0010
0001
1000
0010
0100
0001
,
1000
0100
0010
0100
1000
0001
0100
0010
,
1000
0001
0010
0100
0010
0001
1000
0010
,
0100
0010
1000
0001
0010
0100
1000
0001
,
0100
0010
0100
0001
1000
0100
0010
0001
,
1000
0001
0010
0010
0001
1000
0010
0010
,
1000
0001
0010
0010
0001
1000
0010
0100
,
0001
1000
0010
0010
1000
0001
0010
0010
,
0001
1000
0010
0010
1000
0001
0010
0100
,
1000
0001
0100
0100
0001
1000
0100
0100
,
1000
0001
0100
0100
0001
1000
0100
0010
,
0001
1000
0100
0100
1000
0001
0100
0100
,
0010
1000
0001
0010
0100
0010
0001
1000
0010
0100
0010
1000
0001
0010
0100
1000
,
0002
0100
0000
0100
,
2003
0100
0000
0100
,
3001
0100
0010
1000
0000
0001
0010
0100
,
0000
1000
0010
0100
0000
0001
0010
0100
,
2000
0010
0000
0010
,
3002
0010
0000
0010
,
1003
0010
0100
0001
0000
1000
0100
0010
,
0000
0001
0100
0010
0000
1000
0001
0010
,
1100
0101
1010
1001
,
0011
1010
0101
0110
,
0001
1000
0010
0010
1000
0001
0010
0010
,
0001
1000
0010
0010
0100
0001
1000
1100
,
0010
0000
0001
1000
0001
0000
0100
0000
0000
0000
0001
1000
0001
0000
0010
0000
,
0100
0000
1000
0001
1000
0000
0010
0000
0000
0000
1000
0001
1000
0000
0100
0000
,
0010
0001
1000
0010
0100
0001
0010
0100
1000
0001
0100
0000
0220
0000
0330
0000
,
1010
0000
0000
0011
0000
0000
1100
0000
0000
0101
0000
0000
0010
0100
0001
1000
,
0100
0010
0000
0001
1000
0000
0010
0100
0000
0001
0010
0000
0100
1000
0001
0000
,
0100
0010
0000
1000
0100
0000
0010
0001
0000
0100
0010
1000
0001
0010
0100
0000
,
1000
0001
0000
0100
0010
0000
0100
0001
0000
1000
0100
0010
0001
1000
0010
0100
,
0010
1000
0000
0001
0010
0000
0100
1000
0001
0100
0010
0100
0001
1000
0100
0010
,
0001
0100
0000
0010
1000
0000
0001
0010
0000
0100
1000
0000
0010
0100
0001
1000
,
0100
0010
0000
0001
0100
0000
0010
1000
0000
0001
0010
0100
1000
0001
0100
0010
,
0100
0001
0000
1000
0100
0000
0010
0001
0000
0100
0010
1000
0001
0010
0100
0000
,
1000
0001
0000
0100
0010
0000
1000
0001
0000
1000
0010
0100
0010
0000
0100
0010
,
0100
0001
0000
1000
0010
0000
0100
0001
0000
1000
0100
0000
0010
0001
1000
0000
,
0010
0100
0000
0001
0100
0000
0010
1000
0000
0001
0010
0100
1000
0001
0100
0000
,
0010
1000
0000
0001
0010
0000
0100
1000
0000
0001
0100
0010
0100
0001
1000
0100
,
0010
0001
0000
1000
0010
0000
0100
0001
1000
0100
0010
0100
1000
0001
0100
0010
,
1000
0000
1000
0000
0001
0000
0001
0000
0010
0000
0010
0000
0100
1000
0001
0100
,
0010
1000
0000
0001
0010
0000
0100
1000
0000
0001
0100
0010
1000
0001
1000
0100
,
0010
0001
1000
0010
1000
0001
0010
0100
1000
0001
0100
0001
0010
0100
1000
0001
,
0100
0000
0000
1010
0000
0000
0101
0000
0000
1100
0000
0000
0010
0001
1000
0010
,
0100
0001
0000
0001
0000
1000
0000
1000
,
0100
0010
0000
0010
0000
0100
0000
0100
,
1000
0001
0100
0100
0001
1000
0100
0100
,
0010
0002
1000
1003
0010
0100
0001
0010
,
0100
1000
0000
1000
0000
0001
0000
0001
,
0100
0010
0000
0010
0000
0100
0000
0100
,
0001
1000
0100
0100
1000
0001
0100
0100
,
0010
2000
0001
3001
0010
0100
1000
0010
,
0101
0000
1100
0000
0011
0000
0001
1002
,
0000
0203
0000
0320
0000
2030
0000
3001
,
1000
0100
0010
0010
0001
1000
0010
0010
,
0100
0002
1000
1003
0100
0010
0001
0100
,
0010
0000
1000
0001
1000
0000
0100
0000
0000
0000
1000
0001
1000
0000
0010
0000
,
0100
0000
0001
1000
0001
0000
0010
0000
0000
0000
0001
1000
0001
0000
0100
0000
,
0010
1000
0001
0010
0001
1000
0010
0100
0001
1000
0100
0000
0220
0000
0330
0000
,
1100
0000
0000
0011
0000
0000
1010
0000
0000
0101
0000
0000
0100
0010
1000
0001
,
0010
0100
0000
1000
0001
0000
0100
0010
0000
1000
0001
0000
0010
0100
1000
0000
,
0001
0100
0000
0010
1000
0000
0001
0010
0000
0100
1000
0001
0100
0010
0100
0001
,
1000
0100
0000
0010
0001
0000
1000
0010
0000
0100
0001
1000
0100
0010
0100
1000
,
0001
0100
0000
0010
1000
0000
0100
0010
0001
0100
0010
1000
0100
0010
0001
0100
,
0010
1000
0000
0001
0010
0000
0100
1000
0000
0001
0100
0000
0010
1000
0001
0010
,
0100
1000
0000
0001
0100
0000
0010
1000
0000
0001
0010
0100
0010
0001
1000
0010
,
1000
0001
0010
0001
1000
0010
0100
0001
1000
0010
0100
0010
1000
0001
0010
0100
,
1000
0000
0000
0101
0000
0000
1010
0000
0000
0011
0000
0000
0001
4000
0000
0000
,
3020
0100
0000
0100
,
2030
0001
0000
0001
,
3100
0000
0010
0000
0001
0000
1000
0000
0001
0000
0100
0000
0010
M00M
0010
0000
,
0001
0000
1000
0000
0010
M00M
0010
0000
0100
0000
2000
0000
0001
0000
3001
0000
,
0020
0100
0000
0100
,
0032
1000
0000
1000
,
0103
0000
0010
0000
1000
0000
0001
0000
1000
0000
0100
0000
0010
M00M
0010
0000
,
1000
0000
0001
0000
0010
M00M
0010
0000
0100
0000
0001
0000
1000
0000
0100
0000
,
0010
0011
1100
0101
,
1001
1010
0011
0110
,
1000
0000
0100
0000
0010
0000
0001
0000
1000
0000
0010
0000
0100
M00M
0100
0000
,
1000
0000
0001
0000
0100
M00M
0100
0000
0010
0000
0002
0000
1000
0000
1003
0000
,
0010
0000
1000
0001
1000
0000
0100
0000
0000
0000
1000
0001
1000
0000
0010
0000
,
0100
0000
0001
1000
0001
0000
0010
0000
0000
0000
0001
1000
0001
0000
0100
0000
,
0010
0100
0001
1000
0100
0010
0001
1000
0010
0100
0001
0000
2002
0000
3003
0000
,
0110
0000
0010
1000
0000
0001
0010
0000
0100
1000
0000
0001
0100
0010
1000
0001
,
0010
0100
0000
0010
0001
0000
1000
0010
0000
0100
0010
1000
0001
0010
0100
1000
,
0001
0100
0000
0010
1000
0000
0001
0010
0000
0100
1000
0001
0100
0010
1000
0001
,
0010
0100
0000
1000
0001
0000
0100
0010
0000
0100
0001
1000
0100
0010
0001
1000
,
0010
0100
0000
0010
1000
0000
0001
0010
0000
0100
1000
0001
0100
0010
0100
0001
,
1000
0100
0000
0010
0100
0000
1000
0001
0000
0100
0010
1000
0001
0010
0100
1000
,
0001
0100
0000
0010
1000
0000
0001
0010
0000
0100
1000
0001
0100
0010
1000
0001
,
0010
0100
0000
1000
0001
0000
0100
0010
0000
1000
0001
0100
0010
1000
0100
0010
,
0001
1000
0000
0010
0100
0000
0100
0001
0000
1000
0100
0010
0100
0000
0010
0100
,
0010
0001
0000
1000
0010
0000
0100
0001
0000
1000
0010
0100
0010
1000
0001
0100
,
0010
1000
0000
0001
0010
0000
0100
1000
0000
0001
0100
0010
0100
0001
1000
0100
,
0010
0001
0000
1000
0010
0000
0010
0100
0000
0001
0010
0100
0010
0001
1000
0010
,
0100
0001
0000
1000
0010
0000
0100
0001
0000
1000
0100
0010
0100
1000
0001
0100
,
0010
0000
0010
0000
0100
0000
0100
0000
0001
0000
0001
0000
1000
0100
0010
0001
,
1000
0000
1000
0000
0010
0000
0010
0000
0100
0000
0100
0000
0001
0010
0100
1000
,
0001
0100
0001
1000
0100
0010
0100
1000
0001
0100
0010
0100
0001
1000
0100
1000
,
0001
0100
0010
1000
0100
0010
0001
1000
0010
0100
0010
1000
0001
0010
0100
2000
,
0002
0000
0000
0000
0000
0000
0000
0000
3000
0003
0000
0000
0000
M000
0M00
00M0
,
000M
0000
0000
0000
;
