#VERSION:0.83;
#TITLE:Chrome VOX;
#SUBTITLE:;
#ARTIST:t+pazolite;
#TITLETRANSLIT:;
#SUBTITLETRANSLIT:;
#ARTISTTRANSLIT:;
#GENRE:;
#CREDIT:;
#MUSIC:ChromeVOX.ogg;
#BANNER:chrome_vox-bn.png;
#BACKGROUND:ChromeVOX-bg.png;
#CDTITLE:eternal_tune-cdtitle.png;
#SAMPLESTART:113.153;
#SAMPLELENGTH:10.098;
#SELECTABLE:YES;
#OFFSET:-0.022;
#BPMS:0.000=205.000
,66.000=410.000
,66.500=102.500
,66.750=205.001
,86.000=307.500
,88.000=205.001
,100.000=205.000
,413.000=410.000
,413.500=205.000
,413.750=102.500
,414.000=410.000
,414.500=205.000
,414.750=102.500
,415.000=307.500
,416.000=205.000
,479.000=307.500
,479.500=205.000
,552.000=410.000
,552.250=205.000
,552.375=102.500
,552.625=205.000
,552.750=410.000
,553.250=205.000
,553.375=102.500
,553.625=205.000
,553.750=410.000
,554.250=205.000
,554.375=102.500
,554.625=205.000
,554.750=410.000
,555.250=205.000
,555.375=102.500
,555.625=205.000
,555.750=410.000
,556.000=205.000
,568.000=410.000
,568.250=205.000
,568.375=102.500
,568.625=205.000
,568.750=410.000
,569.250=205.000
,569.375=102.500
,569.625=205.000
,569.750=410.000
,570.250=205.000
,570.375=102.500
,570.625=205.000
,570.750=410.000
,571.250=205.000
,571.375=102.500
,571.625=205.000
,571.750=410.000
,572.000=205.000
,584.000=410.000
,584.250=205.000
,584.375=102.500
,584.625=205.000
,584.750=410.000
,585.250=205.000
,585.375=102.500
,585.625=205.000
,585.750=410.000
,586.250=205.000
,586.375=102.500
,586.625=205.000
,586.750=410.000
,587.250=205.000
,587.375=102.500
,587.625=205.000
,587.750=410.000
,588.000=205.000
,702.000=102.500
,702.250=205.000
,702.500=410.000
,705.000=205.000
;
#STOPS:86.125=0.024
,86.375=0.024
,86.625=0.024
,86.875=0.024
,87.125=0.024
,87.375=0.024
,87.625=0.024
,87.875=0.024
,108.000=0.293
,116.000=0.293
,124.000=0.293
,132.000=0.293
,140.000=0.293
,148.000=0.293
,156.000=0.293
,164.000=0.293
,172.000=0.293
,180.000=0.293
,188.000=0.293
,196.000=0.293
,204.000=0.293
,212.000=0.293
,220.000=0.293
,228.000=0.293
,236.000=0.146
,244.000=0.146
,252.000=0.293
,260.000=0.146
,268.000=0.146
,276.000=0.293
,284.000=0.146
,292.000=0.146
,300.000=0.293
,308.000=0.146
,316.000=0.146
,324.000=0.293
,332.000=0.585
,339.000=0.293
,415.000=0.098
,479.000=0.024
,479.250=0.024
;
#WARPS:100.000=8.000,
108.000=8.000,
116.000=8.000,
124.000=8.000,
132.000=8.000,
140.000=8.000,
148.000=8.000,
156.000=8.000,
164.000=8.000,
172.000=8.000,
180.000=8.000,
188.000=8.000,
196.000=8.000,
204.000=8.000,
212.000=8.000,
220.000=8.000,
228.000=8.000,
236.000=8.000,
244.000=8.000,
252.000=8.000,
260.000=8.000,
268.000=8.000,
276.000=8.000,
284.000=8.000,
292.000=8.000,
300.000=8.000,
308.000=8.000,
316.000=8.000,
324.000=8.000,
332.000=7.000,
374.021=8.000
;
#SPEEDS:0.000=1.000=0.000=0;
#SCROLLS:0.000=1.000;
#TICKCOUNTS:0.000=4;
#TIMESIGNATURES:0.000=4=4;
#LABELS:0.000=Song Start;
#COMBOS:0.000=1;
#DISPLAYBPM:205.000;
#ORIGIN:;
#PREVIEWVID:;
#JACKET:ChromeVox-jacket.png;
#CDIMAGE:;
#DISCIMAGE:;
#BGCHANGES:;
#FGCHANGES:;

//--------------- dance-single - NAOKI ----------------
#NOTEDATA:;
#STEPSTYPE:dance-single;
#DESCRIPTION:NAOKI;
#DIFFICULTY:Challenge;
#METER:14;
#RADARVALUES:0.979778,1.97429,0.298495,0.853835,1.121092,988,936,43,123,85,9,37,0,57,0.979778,1.97429,0.298495,0.853835,1.121092,988,936,43,123,85,9,37,0,57;
#OFFSET:-0.022;
#BPMS:0.000=205.000
,27.000=307.500
,27.500=153.750
,28.000=205.000
,66.000=410.000
,66.500=102.500
,66.750=205.001
,86.000=307.500
,88.000=205.000
,413.000=410.000
,413.500=205.000
,413.750=102.500
,414.000=410.000
,414.500=205.000
,414.750=102.500
,415.000=307.500
,416.000=205.000
,479.000=307.500
,479.500=205.000
,552.000=410.000
,552.250=205.000
,552.375=102.500
,552.625=205.000
,552.750=410.000
,553.250=205.000
,553.375=102.500
,553.625=205.000
,553.750=410.000
,554.250=205.000
,554.375=102.500
,554.625=205.000
,554.750=410.000
,555.250=205.000
,555.375=102.500
,555.625=205.000
,555.750=410.000
,556.000=205.000
,568.000=410.000
,568.250=205.000
,568.375=102.500
,568.625=205.000
,568.750=410.000
,569.250=205.000
,569.375=102.500
,569.625=205.000
,569.750=410.000
,570.250=205.000
,570.375=102.500
,570.625=205.000
,570.750=410.000
,571.250=205.000
,571.375=102.500
,571.625=205.000
,571.750=410.000
,572.000=205.000
,584.000=410.000
,584.250=205.000
,584.375=102.500
,584.625=205.000
,584.750=410.000
,585.250=205.000
,585.375=102.500
,585.625=205.000
,585.750=410.000
,586.250=205.000
,586.375=102.500
,586.625=205.000
,586.750=410.000
,587.250=205.000
,587.375=102.500
,587.625=205.000
,587.750=410.000
,588.000=205.000
,703.000=820.000
;
#STOPS:86.125=0.024
,86.375=0.024
,86.625=0.024
,86.875=0.024
,87.125=0.024
,87.375=0.024
,87.625=0.024
,87.875=0.024
,108.000=0.293
,116.000=0.293
,124.000=0.293
,132.000=0.293
,140.000=0.293
,148.000=0.293
,156.000=0.293
,164.000=0.293
,172.000=0.293
,180.000=0.293
,188.000=0.293
,196.000=0.293
,204.000=0.293
,212.000=0.293
,220.000=0.293
,228.000=0.293
,236.000=0.146
,244.000=0.146
,252.000=0.293
,260.000=0.146
,268.000=0.146
,276.000=0.293
,284.000=0.146
,292.000=0.146
,300.000=0.293
,308.000=0.146
,316.000=0.146
,324.000=0.293
,332.000=0.585
,339.000=0.293
,415.000=0.098
,479.000=0.024
,479.250=0.024
;
#WARPS:100.000=8.000,
108.000=8.000,
116.000=8.000,
124.000=8.000,
132.000=8.000,
140.000=8.000,
148.000=8.000,
156.000=8.000,
164.000=8.000,
172.000=8.000,
180.000=8.000,
188.000=8.000,
196.000=8.000,
204.000=8.000,
212.000=8.000,
220.000=8.000,
228.000=8.000,
236.000=8.000,
244.000=8.000,
252.000=8.000,
260.000=8.000,
268.000=8.000,
276.000=8.000,
284.000=8.000,
292.000=8.000,
300.000=8.000,
308.000=8.000,
316.000=8.000,
324.000=8.000,
332.000=7.000,
374.021=8.000
;
#SPEEDS:0.000=1.000=0.000=0,
415.000=-1000000.000=0.000=0,
415.063=1.000=0.000=0,
448.000=0.010=0.010=0,
448.125=0.250=4.000=0,
476.000=1.000=2.000=0,
539.750=0.010=0.020=0,
539.813=1.000=1.500=0,
604.000=0.050=0.020=0,
604.063=1.000=1.500=0,
672.000=-100.000=15.500=0,
687.500=100.000=15.500=0
;
#SCROLLS:0.000=1.000,
32.000=0.700,
33.000=0.600,
34.000=0.500,
35.000=1.000,
96.000=0.900,
97.000=0.800,
98.000=0.700,
99.000=0.600,
100.000=1.000,
342.000=0.600,
342.500=0.700,
343.000=0.800,
343.500=0.900,
344.000=1.000,
444.000=0.900,
445.000=0.800,
446.000=0.700,
447.000=0.600,
448.000=1.000,
477.000=0.700,
478.000=0.800,
479.000=0.900,
480.000=1.000,
672.000=0.000,
702.000=0.025,
702.979=0.000,
703.000=0.050
;
#TICKCOUNTS:0.000=4;
#TIMESIGNATURES:0.000=4=4;
#LABELS:0.000=Song Start;
#ATTACKS:TIME=38.688:LEN=4.390:MODS=Dizzy, Beat, Overhead :TIME=38.102:LEN=0.293:MODS=-100% Mini, Overhead :TIME=66.786:LEN=0.585:MODS=Dizzy, Twirl, Overhead :TIME=66.764:LEN=0.585:MODS=Confusion, Overhead :TIME=141.397:LEN=0.293:MODS=Confusion, -100% Mini, Overhead
;
#COMBOS:0.000=1;
#DISPLAYBPM:205.000;
#CHARTNAME:NAOKI;
#CHARTSTYLE:;
#CREDIT:NAOKI;
#NOTES:
0000
0000
0000
0000
,
0000
0000
0000
0000
,
0000
0000
0000
0000
,
0000
0000
0000
0000
,
0000
0000
0000
0000
,
4000
3000
0000
0000
0000
0000
0000
0000
0004
0003
0000
0000
0000
0000
0000
0000
0010
0000
0000
0000
0100
0000
0000
0000
1000
0000
0000
0000
0000
0000
0000
0000
0010
0000
0000
0000
0100
0000
0000
0000
0001
0000
0000
0000
1000
0000
0000
0000
0200
0000
0000
0000
0000
0000
0000
0000
0300
0000
0000
0000
0000
0000
0000
0000
,
0010
M00M
0010
0000
1000
0001
0010
0000
0100
0000
1000
0000
2001
0000
0000
0000
,
3020
0030
0000
0000
0000
0000
0000
0000
0020
0030
0000
0000
0000
0000
0000
0000
0100
0000
0000
0000
0001
0000
0000
0000
1000
0000
0000
0000
0100
0000
0000
0000
0010
0000
0000
0000
0001
0000
0000
0000
1000
0000
0000
0000
0010
0000
0000
0000
0100
0000
0000
0000
0000
0000
0000
0000
0010
0000
0000
0000
0000
0000
0000
0000
,
2000
0000
0000
0000
0002
0000
0200
0000
0020
3333
0000
0000
1111
0000
0000
0000
,
0200
0300
0000
0000
0000
0000
0000
0000
0200
0300
0000
0000
0000
0000
0000
0000
0001
0000
0000
0000
1000
0000
0000
0000
0001
0000
0000
0000
0000
0000
0000
0000
0040
0030
0000
0000
0000
0000
0000
0000
0040
0030
0000
0000
0000
0000
0000
0000
0100
0000
0000
0000
0000
0000
0000
0000
1000
0000
0000
0000
0000
0000
0000
0000
,
0010
0000
0010
0000
0010
0000
0100
0000
0002
0000
0013
0000
4000
300M
0000
0000
,
0020
0030
0000
0000
0000
0000
0000
0000
0020
0030
0000
0000
0000
0000
0000
0000
0001
0000
0000
0000
1000
0000
0000
0000
0010
0000
0000
0000
0000
0000
0000
0000
0100
0000
0000
0000
0000
0000
0000
0000
0001
0000
0000
0000
0000
0000
0000
0000
1002
0000
0000
0000
0000
0000
0000
0000
0000
0000
0000
0000
0000
0000
0000
0000
,
0013
0000
0100
1000
0010
M00M
0010
0001
0100
0000
0000
0000
0111
0000
0000
0000
,
0001
0000
0000
0000
0100
0000
M00M
0000
0100
0000
0000
0000
1000
0000
0000
0000
0010
0000
0000
0000
0000
0000
0000
0000
2022
3033
0000
0000
0000
0000
0000
0000
,
0100
0000
0100
0000
0100
0000
0010
0000
1000
0000
0001
0000
0020
0030
0100
0010
,
0004
0003
0000
0000
0000
0000
0000
0000
4000
3000
0000
0000
0000
0000
0000
0000
0010
0000
0000
0000
0100
0000
0000
0000
0001
0000
0000
0000
0000
0000
0000
0000
2000
0000
0000
0000
0000
0000
0000
0000
3100
0000
0000
0000
0000
0000
0000
0000
0004
0000
0000
0000
M003
0000
0000
0000
0100
0000
0000
0000
0000
0000
0000
0000
,
0010
0000
0100
1000
0010
M00M
0010
0001
0200
0000
03M0
0001
1000
0000
0000
0000
,
0020
0030
0000
0000
0000
0000
0000
0000
0020
0030
0000
0000
0000
0000
0000
0000
0100
0000
0000
0000
0001
0000
0000
0000
1000
0000
0000
0000
0100
0000
0000
0000
0040
0030
0000
0000
0000
0000
0000
0000
0040
0030
0000
0000
0000
0000
0000
0000
0100
0000
0000
0000
1000
0000
0000
0000
0001
0000
0000
0000
0100
0000
0000
0000
,
0010
0000
0010
0000
0010
0000
1000
0000
2100
0000
000M
3000
0012
0000
M000
0003
,
0200
0300
0000
0000
0000
0000
0000
0000
0200
0300
0000
0000
0000
0000
0000
0000
0010
0000
0000
0000
0100
0000
0000
0000
0001
0000
0000
0000
1000
0000
0000
0000
02M0
0000
0000
0000
0000
0000
0000
0000
0310
0000
0000
0000
0000
0000
0000
0000
M002
0000
0000
0000
0000
0000
0000
0000
1003
0000
0000
0000
0000
0000
0000
0000
,
0010
0000
0100
0010
1000
0000
0100
0010
0001
0000
0100
0000
1010
0000
0000
0000
,
0010
0000
0000
0000
0010
0000
0000
0000
0100
0000
0010
0000
0100
0000
0001
0000
2000
00M0
0100
00M0
0000
00M0
0000
00M0
3002
00M0
0100
00M0
0000
00M0
0000
00M0
,
1003
0000
0100
M00M
0100
0000
0001
0000
1000
0000
0100
0010
0002
0000
1003
0010
,
0200
0300
0010
0000
M004
0003
0010
0000
1000
0001
0010
0100
2000
3000
0001
0100
,
0020
M000
000M
M030
0100
0000
0001
0000
1000
0100
0010
0001
0200
0000
0000
0000
,
M30M
0000
0000
0000
,
0000
0000
0000
0000
,
0000
000M
0000
0000
0000
0000
0000
0000
0000
0000
0000
0000
0000
0000
0000
0000
,
0000
0000
0000
0000
,
0000
000M
M000
0000
0000
0000
0000
0000
0000
0000
0000
0000
0000
0000
0000
0000
,
0000
0000
0000
0000
,
0000
000M
M000
000M
0000
0000
0000
0000
0000
0000
0000
0000
0000
0000
0000
0000
,
0000
0000
0000
0000
,
0000
000M
M000
000M
M000
0000
0000
0000
0000
0000
0000
0000
0000
0000
0000
0000
,
0000
0000
0000
0000
,
0001
0000
0000
0000
,
0000
0000
0000
0000
,
1000
0000
0000
0000
,
0000
0000
0000
0000
,
0001
0000
0000
0000
,
0000
0000
0000
0000
,
1000
0000
0000
0000
,
0000
0000
0000
0000
,
0000
0M00
0000
0000
0000
0000
0000
0000
0000
0000
0000
0000
0000
0000
0000
0000
,
0000
0000
0000
0000
,
0000
0M00
0M00
0000
0000
0000
0000
0000
0000
0000
0000
0000
0000
0000
0000
0000
,
0000
0000
0000
0000
,
0000
0M00
0M00
00MM
0000
0000
0000
0000
0000
0000
0000
0000
0000
0000
0000
0000
,
0000
0000
0000
0000
,
0000
0M00
0M00
00MM
M0M0
0000
0000
0000
0000
0000
0000
0000
0000
0000
0000
0000
,
0000
0000
0000
0000
,
0100
0000
0000
0000
,
0000
0000
0000
0000
,
0100
0000
0000
0000
,
0000
0000
0000
0000
,
0011
0000
0000
0000
,
0000
0000
0000
0000
,
1010
0000
0000
0000
,
0000
0000
0000
0000
,
0000
0M00
0000
0000
0000
0000
0000
0000
0000
0000
0000
0000
0000
0000
0000
0000
,
0000
0000
0000
0000
,
0000
0000
0M00
000M
0000
0000
0000
0000
0000
0000
0000
0000
0000
0000
0000
0000
0000
0000
0000
0000
0000
0000
0000
0000
0000
0000
0000
0000
0000
0000
0000
0000
,
0000
0000
0000
0000
,
0000
0000
0M00
000M
0M00
0000
0000
0000
0000
0000
0000
0000
0000
0000
0000
0000
0000
0000
0000
0000
0000
0000
0000
0000
0000
0000
0000
0000
0000
0000
0000
0000
,
0000
0000
0000
0000
,
0000
0000
0M00
000M
0M00
0000
00M0
0000
0000
0000
0000
0000
0000
0000
0000
0000
0000
0000
0000
0000
0000
0000
0000
0000
0000
0000
0000
0000
0000
0000
0000
0000
,
0000
0000
0000
0000
,
0000
0000
0M00
000M
0M00
0000
00M0
M000
0000
0000
0000
0000
0000
0000
0000
0000
0000
0000
0000
0000
0000
0000
0000
0000
0000
0000
0000
0000
0000
0000
0000
0000
,
0000
0000
0000
0000
,
0000
0000
0M00
000M
0M00
0000
00M0
M000
0M00
0000
0000
0000
0000
0000
0000
0000
0000
0000
0000
0000
0000
0000
0000
0000
0000
0000
0000
0000
0000
0000
0000
0000
,
0000
0000
0000
0000
,
0100
0000
0000
0000
,
0000
0000
0000
0000
,
0001
0000
0000
0000
,
0000
0000
0000
0000
,
0100
0000
0000
0000
,
0000
0000
0000
0000
,
0010
0000
0000
0000
,
0000
0000
0000
0000
,
1000
0000
0000
0000
,
0000
0000
0000
0000
,
0100
0000
0000
0000
,
0000
0000
0000
0000
,
0000
MMMM
0000
0000
0000
0000
0000
0000
,
0000
0000
0000
0000
,
0000
0000
1111
0000
,
1000
0001
0010
0100
,
0010
0000
0000
0000
0000
0000
0000
0000
0001
0000
0000
0000
0000
0000
0000
0000
1000
0000
0000
0000
0000
0000
0000
0000
0010
0000
0000
0000
0200
0300
0000
0000
,
0001
1000
0100
0010
,
0100
0000
1000
0000
0001
0000
0200
0300
,
0020
0030
0000
0000
0000
0000
0000
0000
0020
0030
0000
0000
0000
0000
0000
0000
1000
0000
0000
0000
0000
0000
0000
0000
0100
0000
0000
0000
0000
0000
0000
0000
0020
0030
0000
0000
0000
0000
0000
0000
0020
0030
0000
0000
0000
0000
0000
0000
0004
0003
0000
0000
0000
0000
0000
0000
0400
0300
0000
0000
0000
0000
0000
0000
,
0020
0030
0000
0000
0000
0000
0000
0000
0020
0030
0000
0000
0000
0000
0000
0000
1000
0000
0000
0000
0100
0000
0000
0000
0010
0000
0000
0000
0100
0000
0000
0000
1000
0000
0000
0000
0000
0000
0000
0000
0001
0000
0000
0000
0100
0000
0000
0000
0020
0000
0000
0000
0000
0000
0000
0000
1030
0000
0000
0000
0000
0000
0000
0000
,
0001
0010
0100
0010
0001
1000
0001
0100
0010
0100
0001
1000
0100
1000
0001
0100
,
0020
2030
3200
0000
M310
0000
MMM0
0000
,
0000
0000
0000
0000
,
0000
0000
0000
0000
0000
0000
0000
0000
0000
0000
0000
0000
0000
0000
0000
0000
0000
0000
0000
0000
0000
0000
0000
0000
0000
0000
0000
0000
0000
0000
0000
0000
0000
0000
0000
0000
0000
0000
0000
0000
0000
0000
0000
0000
0000
0000
0000
0000
2220
3330
0000
0000
0000
0000
0000
0000
0000
0000
0000
0000
0000
0000
0000
0000
,
0001
0000
0010
0000
0100
0000
1000
0000
0001
0000
0000
0000
0100
0000
0000
0000
0020
0000
0030
0000
2000
0000
3000
0000
0200
0000
0000
0300
0010
0000
0001
0000
,
0000
0000
1010
0000
0100
0000
1010
0000
0002
0000
0003
0000
2100
0000
0000
3000
,
0001
0000
0100
0000
0010
0000
0100
0000
0001
0000
0000
0000
0010
0000
0000
0000
0100
0000
0000
0000
1000
0000
0001
0000
0100
0000
0010
0000
4000
3000
0004
0003
,
0020
0000
0130
0000
0010
0001
0000
1000
0020
0030
0200
0300
4000
3000
0200
0300
,
0010
1000
0001
0010
0100
0000
0010
0000
0001
0000
1000
0010
0100
0000
0001
1000
,
0000
0000
0011
0000
0100
0000
0011
0000
2000
3000
0100
0000
0004
0003
0100
0000
,
0010
0001
1000
0010
0100
0010
1000
0001
0010
0100
1000
0001
0100
0000
0010
0000
,
1100
0000
0000
0000
0000
0000
0000
0000
0001
0000
0000
0000
0000
0000
0000
0000
2010
0000
0000
0000
0000
0000
0000
0000
0000
0000
0000
0000
0000
0000
0000
0000
3102
0000
0000
0000
0000
0000
0000
0000
0000
0000
0000
0000
0000
0000
0000
0000
M023
0030
0000
0000
0000
0000
0000
0000
0000
0000
0000
0000
0000
0000
0000
0000
,
0100
1000
0001
0100
0010
0000
1000
0000
0001
0010
0001
1000
0010
0000
0100
0001
,
0000
0000
1100
0000
0010
0000
1100
0000
0002
0003
0010
0000
4000
3000
0010
0000
,
0100
0000
1000
0000
0001
0000
0100
0000
0010
0000
0000
0000
1000
0000
0000
0000
0001
0000
0010
0000
0100
0000
0010
0000
0001
0000
0000
0000
4000
3000
0004
0003
,
0200
0000
0310
0000
1000
0100
0010
0000
0002
0003
0200
0300
4000
3000
0200
0300
,
0010
0000
0000
0000
0100
0000
0000
0000
0001
0000
0000
0000
1000
0000
0000
0000
0200
0300
0000
0000
M0M0
0000
0000
0000
0200
0300
0000
0000
0000
0000
0000
0000
0001
0000
0000
0000
0010
0000
0000
0000
0100
0000
0000
0000
1000
0000
0000
0000
0040
0030
0000
0000
0M0M
0000
0000
0000
0040
0030
0000
0000
0000
0000
0000
0000
,
0100
1000
0001
0100
0010
0100
0001
1000
0100
0010
0100
1000
0004
0003
0100
0000
,
0010
0100
0001
1000
0100
0010
0100
1000
0001
0100
0010
1000
0100
0010
0001
0100
,
0010
0000
1000
0001
1000
0000
0100
M00M
0100
0000
0001
0000
0010
0000
0100
0000
,
1000
0000
000M
0000
,
0000
0000
0000
0000
,
0000
0000
0000
0000
,
0000
0000
0000
0000
,
0000
0000
0000
0000
,
0000
0000
0000
0000
,
0000
0000
0000
0000
,
0000
0000
0000
0000
0000
0000
0000
0000
0000
0000
0000
0000
0004
M003
0000
0000
,
0010
0000
0010
0000
0100
1000
0001
0200
,
0000
0320
0000
1030
0100
0010
0002
0003
,
0100
0010
1000
0001
0020
0000
0130
2000
,
0000
3002
0000
0103
0010
1000
0100
0010
,
0001
1000
0010
0100
0002
0003
0010
0100
,
2000
0000
3001
0100
0010
1000
0200
0300
,
0010
0001
1000
0010
0200
0000
0310
2000
,
0000
3001
0010
0200
0000
0310
0001
0000
,
1000
0000
0001
0010
0001
0000
1000
0000
0001
0000
1000
0100
1000
0000
0001
0000
,
0100
0000
0010
1000
0010
0000
0100
0001
0100
0000
0010
1000
0001
0000
0010
0000
,
0100
0000
1000
0010
1000
0000
0001
0000
1000
0000
0001
0100
0001
0000
1000
0000
,
0100
0000
0010
0001
0010
0000
0100
1000
0100
0000
1000
0001
1000
0000
0001
0000
,
0100
00M0
01M0
00M0
00M1
00M0
10M0
00M0
01M0
00M0
10M0
00M1
10M0
00M0
01M0
00M0
,
10M0
00M0
00M1
00M0
01M0
00M0
00M1
00M0
10M0
00M0
01M0
10M0
01M0
00M0
10M0
00M0
,
0M01
0M10
0M01
1M00
0M01
0M10
0M01
1M00
0M10
1M00
0M01
1M00
0M10
1M00
0M01
0010
,
0000
0000
0000
0000
0000
0001
2002
3003
,
1000
0010
0100
0001
1000
0100
1000
0001
0010
0100
1000
0001
0010
0001
1000
0010
,
0100
0001
1000
0100
1000
0001
0100
0010
1000
0100
0010
0001
0000
0000
1000
0000
,
0001
0000
0000
0000
4100
3000
0000
0000
0010
0000
0000
0000
4100
3000
0000
0000
0001
0000
0000
0000
4100
3000
0000
0000
0010
0000
0000
0000
4100
3000
0000
0000
,
0001
0000
0000
0000
0000
0000
1000
0000
0100
0000
0010
0000
0002
0000
0000
0003
0000
0000
1000
0000
0000
0010
0000
0000
0100
0000
0000
0000
0000
0000
0010
0000
0000
0000
0000
0000
0001
0000
0000
0000
0000
0000
0010
0000
0000
0000
0000
0000
,
0100
0001
1000
0100
0010
0001
1000
0010
1000
0001
0010
0100
1000
0001
0100
0010
,
0100
0000
0001
0000
1000
0000
0100
0000
1000
0000
0001
0000
0100
0000
0010
0000
1000
0000
0002
0003
0020
0030
0200
0300
2000
3000
0000
0000
0001
0000
0000
0000
,
0100
0000
0000
0000
0041
0030
0000
0000
1000
0000
0000
0000
0041
0030
0000
0000
0100
0000
0000
0000
0041
0030
0000
0000
1000
0000
0000
0000
0041
0030
0000
0000
,
0100
0000
0000
0010
0000
0000
1000
0000
0000
0001
0000
0000
0010
0000
0000
0000
0000
0000
0100
0000
0000
0000
0000
0000
0010
0000
0000
0000
0000
0000
0001
0000
1000
0000
0001
0000
1000
0000
0000
0000
0000
0000
0010
0000
0000
0000
0000
0000
,
1000
0001
0010
0100
1000
0001
0100
0010
0100
0001
1000
0100
1000
0001
0100
0010
,
1000
0001
0010
0100
2000
0000
3001
0000
0100
0010
1000
0001
0010
0000
0100
0000
,
1000
0000
0000
0000
0104
0003
0000
0000
0010
0000
0000
0000
0104
0003
0000
0000
1000
0000
0000
0000
0104
0003
0000
0000
0010
0000
0000
0000
0100
0000
0000
0000
,
1000
0000
0000
0001
0100
0010
1000
0000
0000
0001
0000
0000
0010
0000
0000
0100
0000
0000
1000
0000
0000
0001
0000
0000
,
1001
0000
2000
0000
3001
0000
0020
0000
0130
0000
2000
3001
0100
0000
0002
1003
,
0100
0000
0000
0000
0020
0000
0000
0000
0130
0000
0000
0000
2000
0000
0000
3000
0001
0000
0100
0000
0010
0000
1000
0000
0000
0000
0001
0000
1000
0000
0000
0000
,
0001
0010
0100
0010
0001
1000
0001
0100
0010
0100
0001
1000
0100
0010
0001
0000
,
1001
0000
0000
0000
0000
1000
2002
3003
,
0001
0000
0010
0000
0100
0000
1000
0000
0001
0000
0100
0000
0010
0000
0100
0000
0002
0003
1000
0000
0100
0000
1000
0000
0001
0000
0010
0000
0100
0000
1000
0000
,
0001
0100
0010
1000
0001
0010
0001
1000
0010
0000
0100
0000
1000
0000
0100
0000
,
0010
0000
1000
0000
0001
0000
0010
0000
0100
0000
1000
0000
0001
0000
0010
0000
0200
0300
0010
0000
0001
0000
1000
0000
0010
0000
0100
0000
0001
0000
1000
0000
,
0100
1000
0001
0100
0010
0100
0001
1000
0100
0000
0010
0000
1000
0000
0010
0000
,
0100
0000
1000
0000
0001
0000
0100
0000
0010
0000
1000
0000
0001
0000
0010
0000
0200
0300
0010
0000
0001
0000
1000
0000
0010
0000
0100
0000
0001
0000
1000
0000
,
0100
1000
0001
0010
0100
1000
0001
0100
0010
0000
1000
0000
0001
0000
0010
0000
,
0200
0000
0000
0300
2000
0000
0000
3000
0002
0000
0000
0003
0200
0000
0000
0300
0020
0000
0000
0030
2000
0000
0000
3000
0200
0000
0000
0300
0020
0000
0000
0030
,
0004
0000
0000
0000
0000
0000
0000
0000
0000
0000
0000
0000
0003
0000
0000
0000
0000
0000
0000
0000
0000
0000
0000
0000
0200
0000
0000
0000
0000
0000
0000
0000
0000
0000
0000
0000
0000
0000
0000
0000
0000
0000
0000
0000
0000
0000
0000
0000
0000
0000
0000
0000
0000
0000
0000
0000
0000
0000
0000
0000
0000
0000
0000
0000
0000
0000
0000
0000
0000
0000
0000
0000
0320
0000
0000
0000
0000
0000
0000
0000
0000
0000
0000
0000
0000
0000
0000
0000
0000
0000
0000
0000
0000
0000
0000
0000
2030
0000
0000
0000
0000
0000
0000
0000
0000
0000
0000
0000
0000
0000
0000
0000
0000
0000
0000
0000
0000
0000
0000
0000
0000
0000
0000
0000
0000
0000
0000
0000
0000
0000
0000
0000
3000
0000
0000
0000
0000
0000
0000
0000
0000
0000
0000
0000
0001
0000
0000
0000
0000
0000
0000
0000
0000
0000
0010
0000
0000
0000
0000
0000
0000
0000
0000
0100
0000
0000
0000
0000
0000
0000
0000
0000
0000
1000
0000
0000
0000
0000
0000
0000
0000
0000
0001
0000
0000
0000
0000
0000
0000
0000
0000
0000
,
0100
0000
0010
0000
1000
0000
0001
0000
0010
0000
0100
0000
0010
0000
0001
0000
2000
3000
0001
0000
0100
0000
0010
0000
1000
0000
0100
0000
0010
0000
0001
0000
,
1000
0001
0100
0010
0100
0001
1000
0001
0010
0000
0100
0000
0001
0000
0100
0000
,
0010
0000
0001
0000
1000
0000
0010
0000
0100
0000
0010
0000
1000
0000
0001
0000
0020
0030
0100
0000
1000
0000
0001
0000
0010
0000
0100
0000
0010
0000
0001
0000
,
1000
0010
1000
0001
0010
0100
1000
0001
0100
0000
0010
0000
1000
0000
0100
0000
,
0110
0010
0001
0001
0100
0100
0010
1000
,
1001
0000
0001
0000
0010
0000
0010
0000
0100
1000
0001
0100
0010
0000
1000
0001
,
0010
0100
0010
0001
1000
0001
0100
0010
1000
0001
0010
0001
1000
0010
0100
0001
,
2000
0000
0000
3000
0000
0000
0200
0000
0000
0300
0000
0000
0020
0000
0000
0030
0000
0000
0002
0000
0000
0003
0000
0000
0200
0000
0000
0300
0000
0000
0020
0000
0000
0030
0000
0000
2000
0000
0000
3000
0000
0000
0200
0000
0000
0300
0000
0000
0020
0000
0000
0000
0000
0000
0030
0000
0000
0000
0000
0000
0001
0000
0000
0000
1000
0000
0000
0000
0001
0000
0000
0000
1000
0000
0000
0000
0000
0000
0000
0000
0000
0000
0000
0000
0010
0000
0000
0000
0000
0000
0000
0000
0000
0000
0000
0000
,
0110
0000
0000
0000
,
0000
0000
0000
0000
,
0000
0000
0000
0000
,
0000
0000
0000
0000
,
0000
0000
0000
0000
,
0000
0000
0000
0000
,
0000
0000
0000
0000
,
0000
0000
0000
2112
,
0000
0000
0000
0000
,
3003
0000
0000
0000
;
