#TITLE:Cell division;
#SUBTITLE:;
#ARTIST:Tachibana Tomoyuki;
#TITLETRANSLIT:;
#SUBTITLETRANSLIT:;
#ARTISTTRANSLIT:;
#CREDIT:;
#BANNER:cell_division-bn.png;
#BACKGROUND:cell_division-bg.png;
#LYRICSPATH:Cell_division.lrc;
#CDTITLE:NAOKI_cdtitle.png;
#MUSIC:Cell division.mp3;
#OFFSET:-0.542;
#SAMPLESTART:80.580;
#SAMPLELENGTH:12.000;
#SELECTABLE:YES;
#BPMS:0.000=120.000;
#STOPS:128.000=0.250
,159.500=0.250
;
#BGCHANGES:;

//---------------dance-single - ----------------
#NOTES:
     dance-single:
     :
     Hard:
     13:
     0.596,0.694,0.601,0.360,0.245: // measure 1
0000
0000
0000
0000
,  // measure 2
0000
0000
0000
0000
,  // measure 3
0000
0000
0000
0000
,  // measure 4
0000
0000
0000
0000
,  // measure 5
0010
0000
1000
0001
0010
0000
0100
1000
0001
0000
0102
0000
0023
0000
0130
0000
,  // measure 6
0010
0000
0001
1000
0010
0000
0100
0001
1000
0000
2100
0000
3020
0000
0130
0000
,  // measure 7
0010
0000
1000
0001
0100
0000
0010
1000
0001
0000
0012
0000
0203
0000
0310
0000
,  // measure 8
0110
0000
0001
1000
0010
0000
0100
0001
1000
0000
2010
0000
3200
0000
0310
0000
,  // measure 9
0110
0001
1000
0010
0100
0010
1000
0100
,  // measure 10
0020
0100
0130
0000
0110
0000
1001
0000
,  // measure 11
1100
0010
0001
0101
0100
0010
1001
0010
,  // measure 12
0100
2000
0001
3001
0100
0000
1001
0000
,  // measure 13
0110
1000
0001
0010
0100
0010
0001
1000
,  // measure 14
0020
0100
0130
0000
0110
0000
1001
0000
,  // measure 15
0101
0010
1000
1100
0100
0010
1001
0010
,  // measure 16
0100
0002
1000
1003
0100
0000
0011
0000
,  // measure 17
2010
0010
0000
0001
0000
0100
0000
0001
,  // measure 18
0000
3010
0000
0100
0101
0000
0011
0000
,  // measure 19
1100
0010
0001
0101
0100
0010
1010
0100
,  // measure 20
0001
0011
0000
0100
0000
1000
0110
0000
,  // measure 21
1002
0010
1000
0100
,  // measure 22
0000
0003
0001
1000
,  // measure 23
1010
0000
0000
0000
0000
0000
0011
0000
0000
0000
0000
0000
2200
0000
0000
0300
,  // measure 24
0000
0000
0002
0000
0000
3000
0000
0000
0203
0000
0000
0000
0310
0000
0000
0000
,  // measure 25
0110
0000
0010
0000
1000
0000
0100
0000
0001
0000
0100
0000
1000
0001
1000
0001
,  // measure 26
0010
0000
0010
0000
0001
0000
0100
0000
1000
0000
0100
0000
0001
1000
0001
1000
,  // measure 27
0100
0000
0010
0001
0100
0000
0010
1000
0200
0000
0310
0000
0001
1000
0001
1000
,  // measure 28
0020
0100
2030
0100
3002
0010
0203
1000
,  // measure 29
0301
0010
0100
0001
0100
0010
0001
0000
,  // measure 30
1010
0010
0100
1000
0100
0010
1000
0000
,  // measure 31
0101
0001
0011
0000
1100
1000
1010
0000
,  // measure 32
0011
0000
0000
0001
0100
0000
0000
0100
0010
0000
0000
0000
2200
0000
0000
0000
,  // measure 33
3300
0012
0010
2003
0010
3010
0000
0110
,  // measure 34
0100
0001
0010
0000
0100
1000
0001
0000
0100
0010
0100
0000
0000
0000
2010
0000
,  // measure 35
0001
3100
0000
0012
1000
0103
0000
0101
,  // measure 36
0001
1000
0100
0000
0010
0001
0100
0000
0010
1000
0001
0000
0100
0000
0210
0000
,  // measure 37
0010
0000
0310
1000
0100
0110
0000
0011
,  // measure 38
0001
1000
0010
0000
1000
0100
0010
0000
0100
1000
0001
0000
0000
0000
1010
0000
,  // measure 39
1000
1100
0000
0011
0001
0101
0000
1010
,  // measure 40
0000
1000
0100
0000
0000
0100
0010
0000
0001
0200
0002
0000
0000
0000
0303
0000
,  // measure 41
2010
0000
0010
0000
3002
0000
0010
0000
0013
0000
0000
0000
0110
0000
0100
1000
,  // measure 42
0010
0000
0100
0001
1000
0000
0010
0100
0010
0000
0000
0000
0102
0000
1000
0000
,  // measure 43
0013
0000
0000
0000
2100
0000
0001
0000
3010
0000
0000
0000
1010
0000
1000
0001
,  // measure 44
0010
0000
0100
1000
0010
0000
0100
0001
1000
0000
0010
0000
0120
0000
0100
0000
,  // measure 45
0000
0000
0130
0000
0001
0000
0010
0000
0110
0000
0000
0000
1100
0000
1000
0001
,  // measure 46
0100
0000
0001
0010
0100
0000
0010
0001
1000
0000
0100
0000
1000
0010
1000
0010
,  // measure 47
1000
0100
1000
0100
0010
0001
0010
0001
0100
0001
0100
0001
0010
0000
0100
1000
,  // measure 48
0010
0000
0100
0001
0020
0000
0031
1000
0010
0000
0100
0010
0200
0000
0001
0000
,  // measure 49
0000
1000
0000
0010
0310
0000
1000
0020
,  // measure 50
0000
0001
0000
0100
0130
0000
2010
0000
,  // measure 51
3100
0012
0103
0110
,  // measure 52
0001
0000
0000
0000
0010
0000
0000
0000
1000
0000
0000
0000
1010
0000
0000
0010
,  // measure 53
0100
0000
0000
0100
1000
0000
0000
0000
0101
0000
0000
0000
0011
0000
0000
0010
,  // measure 54
0100
0000
0000
0100
0001
0000
0000
0000
0011
0000
0000
0000
1100
0000
0000
1000
,  // measure 55
0010
0000
0000
0000
0101
0000
0000
0001
0010
0000
0000
0000
0110
0000
0000
0000
,  // measure 56
1000
0010
0001
0100
;

//---------------dance-single - ----------------
#NOTES:
     dance-single:
     :
     Medium:
     8:
     0.429,0.430,0.480,0.429,0.000:
0000
0000
0000
0000
,
0000
0000
0000
0000
,
0000
0000
0000
0000
,
0000
0000
0000
0000
,
1000
0010
0200
0001
0301
0010
0100
0000
,
1000
0100
0010
1000
0010
0100
1000
0000
,
0001
0100
0020
1000
1030
0100
0010
0000
,
0001
0010
0100
0001
0100
0010
0002
1000
,
1003
0010
0100
0001
,
0010
0100
0100
0000
1001
0000
0110
0000
,
0101
0000
0001
0010
0000
0010
0100
0000
,
0100
1000
0001
0100
0010
0000
1010
0000
,
1001
0010
0100
1000
,
0010
0100
0100
0000
1001
0000
0110
0000
,
1100
0000
1000
0010
0000
0010
0100
0000
,
0100
0001
1000
0100
0010
0000
0110
0000
,
1002
0100
0000
0103
,
0010
2000
0100
3100
,
0021
0000
0000
1030
0000
0000
0201
0000
,
0000
1300
0000
0001
0000
0100
0010
0000
,
1020
0001
1000
0031
,
0000
0000
0010
0110
,
1001
0000
0000
0000
0000
0000
1010
0000
0000
0000
0000
0000
0022
0000
0000
0030
,
0000
0000
2000
0000
0000
0003
0000
0000
3020
0000
0000
0000
0130
0000
0000
0000
,
0110
0010
1000
0000
0100
1000
0010
0000
,
0100
0001
0010
0000
0100
0010
0001
0000
,
2000
0010
3010
0000
0002
0010
0013
0000
,
1000
0100
0001
0100
1000
0100
0010
0001
,
0102
0000
1000
0000
0013
0001
0100
0000
,
2010
0000
0001
0000
3100
1000
0010
0000
,
0120
1030
0210
0301
,
0011
1010
0101
2200
,
3300
0010
0001
0200
0000
0310
0000
0100
,
0001
0020
0000
0130
0000
0110
0000
1002
,
0000
0103
0000
2001
0000
3100
0000
0010
,
0001
1000
0001
0100
0010
1000
0100
0020
,
0000
1000
0000
0031
1000
0010
0000
0120
,
0000
0001
0000
1030
0001
0010
0000
2100
,
0000
3010
0000
0102
0000
0013
0000
1100
,
0000
0101
0000
1010
0000
0022
0000
0033
,
0100
1000
0020
0000
0130
0000
0010
1000
,
0200
0310
0110
2001
,
3010
0000
1002
0000
0013
0000
0100
1000
,
0001
1000
0010
0100
0001
0010
0200
0000
,
0001
0000
1300
0001
0100
0000
0210
0000
,
1000
0000
0301
1000
0100
0000
0012
0000
,
0103
2010
3100
0011
,
1010
0101
1100
2002
,
0000
3003
1010
0220
,
0000
0330
0101
0022
,
0033
2200
3300
0010
,
0001
0100
1000
0120
,
0001
1030
0100
2100
,
0001
3010
0100
0102
,
0013
2100
3010
0100
,
0001
0010
1000
0100
;

//---------------dance-single - ----------------
#NOTES:
     dance-single:
     :
     Easy:
     5:
     0.299,0.430,0.172,0.377,0.000:
0000
0000
0000
0000
,
0000
0000
0000
0000
,
0000
0000
0000
0000
,
0000
0000
0000
0000
,
0010
1000
0100
0100
,
0010
0001
0100
0100
,
0001
1000
0010
0010
,
0100
0001
0010
0010
,
0100
1000
0010
0100
,
0002
0000
1000
1003
,
0001
0000
0000
0010
0000
0000
0100
0000
,
0000
1000
0000
0000
0010
0000
0100
0000
,
0110
0001
0010
0100
,
2000
0000
0001
3001
,
1000
0000
0000
0010
0000
0000
0100
0000
,
0000
0001
0000
0000
0010
0000
0100
0000
,
0220
0000
0000
0000
,
0330
0000
0001
1000
,
0001
0000
0000
0100
0000
0000
0010
0000
,
0000
1000
0000
0000
0000
0000
0100
0000
,
0200
0000
0300
0000
,
0000
0000
1000
0001
,
1000
0000
0000
0100
0000
0000
0010
0000
,
0000
0001
0000
0000
0100
0000
0010
0000
,
0110
1000
0100
0001
,
1000
0010
0001
0100
,
0002
0013
2000
3010
,
1000
0100
0010
0001
,
0202
0303
0010
1000
,
2200
3300
1000
0010
,
2020
3030
0022
0033
,
0101
0101
1100
2200
,
3300
0002
0000
1000
0000
1003
0000
0020
,
0000
0100
0000
0130
0000
0010
0000
2000
,
0000
3100
0000
0002
0000
0103
0000
0001
,
0000
0010
0000
0100
0000
1000
0000
2000
,
0000
0001
0000
3001
0000
1000
0000
0200
,
0000
0010
0000
0310
0000
0001
0000
0002
,
0000
0103
0000
2000
0000
3100
0000
1010
,
0000
1010
0000
0011
0000
0022
0000
0033
,
2000
0001
3001
0200
,
0010
0310
0100
0002
,
0013
2000
3010
1000
,
0100
0010
0001
0002
,
1000
1003
0001
0020
,
0100
0130
1000
2000
,
3100
0002
0103
0001
,
0011
1000
1010
0220
,
0000
0330
1000
0002
,
0010
0013
0100
2000
,
3010
0200
0301
1000
,
0100
0010
0001
0102
,
0010
0103
0010
2010
,
0100
3010
0100
0002
,
0013
0200
1300
0010
,
0001
0100
1000
0010
;

//---------------dance-single - ----------------
#NOTES:
     dance-single:
     :
     Beginner:
     2:
     0.142,0.215,0.017,0.137,0.000:
0000
0000
0000
0000
,
0000
0000
0000
0000
,
0000
0000
0000
0000
,
0000
0000
0000
0000
,
1000
0000
1000
0000
,
0001
0000
0001
0000
,
0100
0000
0100
0000
,
0010
0000
0010
0000
,
1000
0000
0100
0000
,
0010
0000
0001
0000
,
0100
0000
0100
0000
,
0010
0000
0010
1000
,
0001
0000
0010
0000
,
0100
0000
1000
0000
,
0010
0000
0010
0000
,
0100
0000
0100
0001
,
2000
0000
3000
0000
,
0020
0000
0030
0000
,
0200
0000
0300
0000
,
0002
0000
0003
0000
,
0020
0000
0030
0000
,
0200
0000
0300
0000
,
2000
0000
0000
0001
0000
0000
0001
0000
,
0000
0001
0000
0000
3002
0000
0003
0000
,
1001
0000
0010
0000
,
1001
0000
0100
0000
,
0001
0000
0010
0000
,
0100
0000
1000
0000
,
0010
0000
0100
0000
,
0001
0000
1000
0000
,
0010
0000
0100
0000
,
0001
0001
1000
2000
,
3000
0010
0000
0000
0000
0000
0000
0010
,
0000
0000
0000
0000
0000
0100
0000
0000
,
0000
0000
0000
0100
0000
0000
0000
0001
,
0000
0000
0000
1000
0000
0000
0000
0010
,
0000
0000
0000
0100
0000
0000
0000
0001
,
0000
0000
0000
1000
0000
0000
0000
0010
,
0000
0000
0000
0010
0000
0000
0000
1000
,
0000
1000
0000
0001
0000
0002
0000
0003
,
0100
0000
0000
0100
,
0000
0000
0010
0000
,
0000
0010
0000
1000
,
0000
0001
0000
0100
,
0000
0010
0000
1000
,
0000
0001
0000
0100
,
0000
0100
0000
0001
,
1000
0001
1000
0020
,
0000
0030
0000
0200
,
0000
0300
0000
0002
,
0000
0003
0000
2000
,
0000
3000
0000
0200
,
0000
0300
0000
0020
,
0000
0030
0000
0001
,
0000
1000
0000
0010
,
0000
0100
0000
0010
;

//---------------dance-single - Copied from----------------
#NOTES:
     dance-single:
     Copied from:
     Challenge:
     15:
     0.754,0.789,0.515,0.515,0.643: // measure 1
0000
0000
0000
0000
,  // measure 2
0000
0000
0000
0000
,  // measure 3
0000
0000
0000
0000
,  // measure 4
0000
0000
0000
0000
,  // measure 5
0010
1000
0001
0010
0100
1000
0001
0100
0010
0000
0102
0000
0023
0000
0130
0000
,  // measure 6
0010
0001
1000
0010
0100
0001
1000
0100
0010
0000
2100
0000
3020
0000
0130
0000
,  // measure 7
0010
1000
0001
0100
0010
1000
0001
0010
0100
0000
0012
0000
0203
0000
0310
0000
,  // measure 8
0100
0001
1000
0100
0010
0001
1000
0010
0100
0010
2000
0001
3001
0010
0100
0010
,  // measure 9
0002
0103
0010
0100
0001
1000
0100
0010
,  // measure 10
0100
1000
0001
0100
0010
0000
1000
0000
2100
0000
3001
0000
0102
0000
0013
0000
,  // measure 11
0110
0000
0100
1000
0010
0000
1010
0000
0100
0001
0010
0000
0011
0000
0100
1000
,  // measure 12
0010
0000
0110
0000
0100
0000
0001
0000
0010
0100
1000
0001
0100
0000
0010
0000
,  // measure 13
2000
3100
0010
0100
1000
0001
0100
0010
,  // measure 14
0100
0001
1000
0100
0010
0000
0001
0000
0102
0000
1003
0000
2100
0000
3010
0000
,  // measure 15
0110
0000
0100
0001
0010
0000
0011
0000
0100
1000
0010
0000
1010
0000
0100
0001
,  // measure 16
0010
0000
0110
0000
0100
0000
1000
0000
0010
0100
0001
1000
0100
0000
1000
0000
,  // measure 17
2010
0010
0000
0001
0000
3100
0010
0001
,  // measure 18
0200
1000
0000
0301
0101
0000
0011
0000
,  // measure 19
1100
0010
0001
0101
0100
0010
1010
0100
,  // measure 20
0001
0012
0000
1000
0000
0103
0101
0000
,  // measure 21
2100
0001
0020
3000
,  // measure 22
0030
0000
0010
0100
,  // measure 23
0101
0000
0000
0000
0000
0000
1100
0000
0000
0000
0000
0000
0022
0000
0000
0030
,  // measure 24
0000
0000
2000
0000
0000
0003
0000
0000
3020
0000
0000
0000
0130
0000
0000
0000
,  // measure 25
1001
0000
1000
0001
0020
0000
0130
1000
0001
0000
0102
0000
0103
0010
1000
0001
,  // measure 26
0010
0000
0001
1000
0020
0000
0130
0001
1000
0000
2100
0000
3100
0010
0001
1000
,  // measure 27
0100
0000
1000
0001
0200
0000
0310
1000
0001
0000
0012
0000
0013
0100
1000
0001
,  // measure 28
0200
0000
0310
0000
0102
0000
1003
0000
2010
0000
3001
0100
0020
0000
1030
0000
,  // measure 29
0001
0010
0100
0010
0001
0100
0010
0100
0001
1000
0100
0010
0002
0000
0000
0000
,  // measure 30
1003
0010
0100
0010
1000
0100
0010
0100
1000
0001
0100
0010
2000
0000
3100
0000
,  // measure 31
1002
0000
0013
0100
1000
0001
0100
0000
2001
0000
3010
0100
0001
1000
0100
0000
,  // measure 32
0012
0000
0000
0203
0010
0000
0000
0320
1000
0000
0000
2030
0200
0000
0000
0000
,  // measure 33
3300
0000
0011
0000
0100
1000
0001
0100
0001
1000
0200
0000
0310
0000
1100
0000
,  // measure 34
0100
1000
0001
0100
0010
1000
0001
0010
0001
1000
0020
0000
0130
0000
0010
1000
,  // measure 35
0001
1000
0100
0000
0110
0000
0010
0001
1000
0001
0100
0000
0010
0000
1000
0100
,  // measure 36
0010
0100
1000
0010
0100
0010
1000
0001
0010
0100
1000
0000
0001
0100
0010
0000
,  // measure 37
0100
0001
1000
0100
1000
0001
0100
0010
1000
0000
2001
0000
3100
0000
0110
0000
,  // measure 38
0010
0001
1000
0010
1000
0001
0010
0100
1000
0000
2001
0000
3010
0000
0110
0000
,  // measure 39
0100
0001
1000
0001
0010
0000
0100
0000
0010
0001
1000
0001
0100
0000
2010
0000
,  // measure 40
0000
3200
0010
0000
0000
0320
0001
0000
0000
0032
0200
0000
0000
0000
0303
0000
,  // measure 41
1010
0000
0100
0001
1000
0100
1000
0001
0200
0000
0310
0000
0101
0000
0100
0001
,  // measure 42
1000
0100
0010
0001
1000
0010
1000
0001
0020
0000
0130
0000
0010
0001
1000
0001
,  // measure 43
0100
0000
0110
0000
0010
1000
0001
1000
0100
0000
0010
0000
0001
0100
0010
0100
,  // measure 44
0001
0010
0100
0010
0001
1000
0010
0100
0001
0000
1000
0100
0010
0000
0100
1000
,  // measure 45
0001
0100
0001
1000
0100
0010
0001
0000
1002
0000
0103
0000
0110
0000
0010
1000
,  // measure 46
0001
0010
0001
1000
0010
0100
0001
0000
1002
0000
0013
0000
0100
1000
0001
0100
,  // measure 47
0001
0000
1000
0000
0100
0000
0010
0000
0001
0000
1000
0000
0010
0000
1000
0000
0001
0000
0010
0000
0100
0000
1000
0000
0010
0000
0100
0000
0001
0000
1000
0001
,  // measure 48
1000
0010
0100
0001
1000
0100
1000
0001
0100
0010
1000
0001
0020
0000
1000
0000
,  // measure 49
0000
0001
0000
0100
0130
0000
1000
0020
,  // measure 50
0000
0001
0000
0100
0130
0000
0102
0000
,  // measure 51
0013
2100
3010
0110
,  // measure 52
1000
0000
0000
0000
0100
0000
0000
0000
0001
0000
0000
0000
0011
0000
0000
0010
,  // measure 53
0100
0000
0000
0100
0001
0000
0000
0000
1100
0000
0000
0000
1010
0000
0000
0010
,  // measure 54
0100
0000
0000
0100
1000
0000
0000
0000
0101
0000
0000
0000
0012
0000
0000
0103
,  // measure 55
0010
0000
0000
0000
2010
0000
0000
3100
0010
0000
0000
0000
0110
0000
0000
0000
,  // measure 56
0001
0100
1000
0010
;
