#TITLE:Belfegore;
#SUBTITLE:;
#ARTIST:KanzakiTomoyuki;
#TITLETRANSLIT:;
#SUBTITLETRANSLIT:;
#ARTISTTRANSLIT:;
#GENRE:;
#CREDIT:;
#MUSIC:Belfegore -short ver-.ogg;
#BANNER:Belfegore-bn.png;
#BACKGROUND:Belfegore-bg.png;
#CDTITLE:NAOKI_cdtitle.png;
#SAMPLESTART:87.974;
#SAMPLELENGTH:12.000;
#SELECTABLE:YES;
#OFFSET:-0.351;
#BPMS:0.000=191.000
,7.000=382.000
,7.500=191.000
,7.750=95.500
,8.000=191.000
,36.000=382.000
,39.000=191.000
,68.000=382.000
,71.500=191.000
,72.000=382.000
,76.000=191.000
,104.000=382.000
,104.500=95.500
,104.750=382.000
,105.250=95.500
,105.500=191.000
,136.000=286.500
,139.000=191.000
,200.000=382.000
,208.000=95.500
,224.000=191.000
,290.000=382.000
,290.500=95.500
,290.750=382.000
,291.250=95.500
,291.500=382.000
,292.000=95.500
,292.250=382.000
,292.750=95.500
,293.000=191.000
;
#STOPS:36.000=0.079
,36.500=0.079
,37.000=0.079
,37.500=0.079
,38.000=0.039
,38.250=0.039
,38.500=0.039
,38.750=0.039
,68.000=0.079
,68.500=0.079
,69.000=0.079
,69.500=0.079
,70.000=0.039
,70.250=0.039
,70.500=0.039
,70.750=0.039
,71.000=0.079
,72.000=0.628
,136.125=0.026
,136.375=0.026
,136.625=0.026
,136.875=0.026
,137.125=0.026
,137.375=0.026
,137.625=0.026
,137.875=0.026
,138.125=0.026
,138.375=0.026
,138.625=0.026
,138.875=0.026
,200.000=0.079
,200.500=0.079
,201.000=0.079
,201.500=0.079
,202.000=0.039
,202.250=0.039
,202.500=0.039
,202.750=0.039
,203.000=0.079
,203.500=0.707
,256.000=0.157
,257.000=0.157
,258.500=0.157
,260.500=0.157
;
#BGCHANGES:;
#FGCHANGES:;

//--------------- dance-single - NAOKI ----------------
#NOTES:
     dance-single:
     NAOKI:
     Beginner:
     1:
     0.14,0.216,0.018,0.097,0:
0000
0000
0000
0000
,
0000
0000
0000
0000
,
0010
0000
0000
0000
,
0010
0000
0000
0000
,
0010
0000
0000
0000
,
0000
0000
0000
0000
,
0100
0000
0000
0000
,
0100
0000
0000
0000
,
0100
0000
0000
0000
,
0000
0000
0000
0000
,
0001
0000
0000
0000
,
0001
0000
0000
0000
,
1000
0000
0000
0000
,
1000
0000
0000
0000
,
0100
0000
0000
0000
,
0100
0000
0000
0000
,
0010
0000
0000
0000
,
0010
0000
0000
0000
,
0002
0000
0000
0000
,
0003
0000
0000
0000
,
1000
0000
0000
0000
,
0010
0000
0000
0000
,
0100
0000
0000
0000
,
0001
0000
0000
0000
,
0010
0000
0000
0000
,
0100
0000
0000
0000
,
1000
0000
0001
0000
,
0100
0000
0000
0000
,
0001
0000
0000
0000
,
0010
0000
0000
0000
,
0100
0000
0000
0000
,
1000
0000
0000
0000
,
0010
0000
0000
0000
,
0100
0000
0000
0000
,
0001
0000
1000
0000
,
0020
0000
0000
0000
,
0030
0000
0000
0000
,
0200
0000
0000
0000
,
0300
0000
0000
0000
,
0002
0000
0000
0000
,
0003
0000
0000
0000
,
2000
0000
0000
0000
,
3000
0000
0000
0000
,
0010
0000
1000
0000
,
0100
0000
0000
0000
,
0010
0000
0001
0000
,
0100
0000
0000
0000
,
0100
0000
0001
0000
,
0010
0000
0000
0000
,
0100
0000
1000
0000
,
2001
0000
0001
0000
,
0000
0000
0000
0000
,
3000
0000
0001
0000
,
0100
0000
0010
0000
,
1000
0000
0100
0000
,
0010
0000
0001
0000
,
1000
0000
1000
0000
,
1000
0000
0000
0000
,
0001
0000
0001
0000
,
0001
0000
0000
0000
,
0100
0000
0100
0000
,
0100
0000
0000
0000
,
0010
0000
0010
0000
,
0010
0000
0000
0000
,
2000
0000
0000
0000
,
0000
3000
0010
0000
,
1000
0000
0001
0000
,
0000
0000
0010
0000
,
0001
0000
1000
0000
,
0000
0000
0100
0000
,
1000
0000
0001
0000
,
0000
0000
0100
0000
,
0001
0000
1000
0000
,
0000
0000
0010
0000
,
0100
0000
0002
0000
,
0013
0000
0010
0000
,
0100
0000
2000
0000
,
3010
0000
0010
0000
,
0100
0000
0002
0000
,
0103
0000
0100
0000
,
0010
0000
2000
0000
,
3100
0000
1001
0000
;

//--------------- dance-single - NAOKI ----------------
#NOTES:
     dance-single:
     NAOKI:
     Easy:
     6:
     0.28,0.325,0.009,0.194,0:
0000
0000
0000
0000
,
0000
0000
0000
0000
,
0010
0000
1000
0000
,
0001
0000
0100
0000
,
0010
0000
1000
0000
,
0200
0000
0300
0000
,
0010
0000
0001
0000
,
1000
0000
0100
0000
,
0010
0000
0001
0000
,
0200
0000
0300
0000
,
0001
0100
0001
0010
,
0001
0100
0010
0000
,
1000
0100
1000
0010
,
1000
0100
0010
0000
,
0001
0100
0001
0010
,
0001
0100
0010
0000
,
1000
0100
1000
0010
,
1000
0100
0010
0000
,
0002
0000
0000
0000
,
0103
0000
0100
0000
,
0010
1000
0100
0000
,
0010
0000
0010
0000
,
0100
1000
0001
0100
,
0010
0000
0010
0000
,
0100
0001
0010
0000
,
0100
0000
0100
0000
,
0020
0000
0030
0000
,
0001
0010
0001
0100
,
0001
0010
0100
0000
,
1000
0010
1000
0100
,
1000
0010
0100
0000
,
0001
0010
0001
0100
,
0001
0010
0100
0000
,
1000
0010
1000
0100
,
1000
0010
0100
0000
,
0002
0000
0003
0000
,
0020
0000
0030
0000
,
0200
0000
0300
0000
,
2000
0000
3000
0000
,
0020
0000
0030
0000
,
0200
0000
0300
0000
,
0002
0000
0003
0000
,
2000
0000
3000
0000
,
0010
0000
0010
0000
,
0100
0001
0010
0000
,
0100
0000
0100
0000
,
0010
0001
1000
0010
,
0100
0000
0100
0000
,
0010
1000
0100
0000
,
0010
0000
0010
0000
,
0100
1000
0010
0000
,
0000
0000
0000
0000
,
0200
0300
0002
0003
,
0020
0030
0200
0300
,
2000
3000
0020
0030
,
0200
0300
0002
0003
,
1000
0000
1000
0000
,
0001
0000
0001
0000
,
0100
0000
0100
0000
,
0010
0000
0010
0000
,
1000
0000
1000
0000
,
0001
0000
0001
0000
,
0010
0000
0010
0000
,
0100
0000
0100
0000
,
2000
0000
0000
0000
,
0000
3000
0010
0100
,
0001
0000
0010
0100
,
1000
0000
0100
0010
,
0001
0000
0100
0010
,
1000
0000
0001
0100
,
0010
0000
1000
0100
,
0010
0000
0001
0010
,
0100
0000
2000
0000
,
3000
0000
0001
0010
,
0001
0100
0001
0010
,
0100
0000
1000
0010
,
1000
0100
1000
0010
,
0100
0000
0001
0100
,
0001
0010
0001
0100
,
0010
0000
1000
0100
,
1000
0010
1000
0100
,
0010
0000
2002
0000
,
3003
0000
0000
0000
;

//--------------- dance-single - NAOKI ----------------
#NOTES:
     dance-single:
     NAOKI:
     Medium:
     11:
     0.569,0.578,0.379,0.282,0.022:
0000
0000
0000
0000
,
0000
0000
0000
0000
0000
0000
2002
3003
,
0010
1000
0100
0000
,
0010
0000
0001
0000
1000
0010
0100
0000
,
0010
1000
0001
0000
,
0010
0100
1000
0001
,
0100
0010
1000
0000
,
0100
0000
0010
0000
0001
1000
0001
0000
,
0100
0010
1000
0000
,
0001
1000
2002
3003
,
0001
0100
0010
0000
1000
0001
0010
0000
,
0100
1000
0001
0100
0010
0000
1000
0000
,
0001
0100
0010
0000
1000
0001
0010
0000
,
0100
0000
1000
0000
0001
1000
0001
0000
,
1000
0010
0100
0000
0001
1000
0100
0000
,
0010
0001
0100
0100
,
0010
1000
0001
0010
0100
1000
0001
0100
,
0010
0010
0100
0100
,
0020
0000
0000
0000
,
0130
0001
1000
0100
,
0010
0000
0001
1000
0000
0010
0100
0001
,
0010
0000
0100
0000
1000
0001
0100
0000
,
0010
0000
1000
0100
0000
0010
0001
1000
,
0010
0100
0001
1000
,
0100
0000
0010
0001
0000
1000
0010
0100
,
0001
1000
0100
0010
,
0002
0000
0003
2000
0000
3000
0020
0000
0030
0200
0000
0300
0000
0000
0000
0000
,
0010
1000
0001
0000
0010
0100
1000
0000
,
0001
0100
0010
0100
0001
0000
1002
0000
,
0013
0100
1000
0000
0001
0100
0010
0000
,
1000
0100
0010
0100
1000
0000
0001
0100
,
0010
1000
0001
0000
0010
0100
1000
0000
,
0001
0100
0010
0100
0001
0000
1001
0000
,
1000
0100
0010
0000
0001
0100
0010
0000
,
2000
3000
0002
0003
0020
0030
0200
0300
2000
3000
0002
0003
0200
0300
0000
0000
,
0020
0100
2030
0001
,
3200
0010
0310
0001
,
0200
0010
0302
1000
,
0023
0100
0130
0000
,
0020
0100
0032
1000
,
0203
0010
0301
1000
,
0200
0010
2300
0001
,
3020
0100
0130
0000
,
0010
0000
1000
0001
0000
0010
0100
1000
,
0001
0000
0100
0000
0010
1000
0100
0000
,
0010
0000
0001
1000
0000
0100
0010
0001
,
1000
0000
0010
0200
0000
0300
0000
0000
,
0010
0000
1000
0001
0000
0010
0100
1000
,
0001
0100
0110
0000
,
0100
0000
0001
1000
0000
0100
0010
0001
,
1000
0000
0010
0000
0220
0000
0000
0330
,
0000
0000
0000
0000
,
0200
0320
2030
3002
,
0023
0230
2300
0001
,
3020
0230
0302
2003
,
3200
0320
0032
1000
,
0103
0010
1000
0000
0001
0010
0100
0000
,
0010
0001
1000
0010
0100
0000
0010
1000
,
0100
0010
0001
0000
1000
0010
0100
0000
,
0010
1000
0001
0010
0100
0000
0010
0001
,
1000
0010
0100
0000
0010
1000
0100
0000
,
0010
0001
0100
0000
0001
0010
0100
1000
,
0001
0100
0010
0000
1000
0100
0010
0000
,
0001
0010
0100
0010
0001
1000
0010
0100
,
0110
0000
0000
0000
,
0000
0000
2002
3003
0110
0000
0010
1000
,
0100
0000
0001
0100
1000
0000
0100
0010
,
0001
1000
0001
0100
0010
0000
0100
0010
,
1000
0000
0100
0010
0001
0000
0100
0010
,
1000
0100
0010
0001
1000
0000
0100
0010
,
0001
0000
0100
0010
1000
0000
0100
0010
,
0001
1000
0010
0100
0001
0000
0100
0010
,
1000
0000
0000
0000
0001
0000
0010
0000
0100
0000
0000
1100
0000
0000
1001
0000
,
0000
0101
0000
0000
0100
0000
0010
0000
1000
0000
0000
0000
0001
0000
0010
0000
,
1000
0000
0010
0001
0100
0000
0010
1000
,
0100
0010
0001
0000
1001
0000
1000
0010
,
0100
0000
0001
0100
1000
0000
0100
0010
,
1000
0001
0010
0100
1000
0000
0001
0100
,
0010
0000
1000
0010
0001
0000
0010
1000
,
0100
0010
0001
0000
0100
0010
1000
0001
,
0010
0000
0100
0000
1000
0000
0001
0000
0100
0000
0000
0110
0000
0000
1001
0000
,
0000
0110
0000
0000
0010
0000
0100
0000
0220
0000
0000
0000
0000
0000
0000
0000
,
0330
0000
0000
0000
;

//--------------- dance-single - NAOKI ----------------
#NOTES:
     dance-single:
     NAOKI:
     Hard:
     14:
     0.758,0.831,0.3,0.37,0.163:
0000
0000
0000
0000
,
0000
0000
0000
0000
0000
0000
0220
0330
,
1001
0000
1000
0100
0000
0010
0001
0100
,
1000
0000
0100
0010
1000
0100
0010
0000
,
0011
0000
0001
0100
0000
0010
1000
0100
,
0001
0000
0100
0010
0001
0100
0010
1000
,
0100
0000
1000
0010
0000
0100
0001
0010
,
1000
0000
0010
0100
1000
0010
0100
0000
,
0101
0000
0001
0010
0000
0100
1000
0001
,
0100
0000
0100
0000
0010
0000
0010
0000
1000
0001
1000
0001
0100
0000
0010
0000
,
2000
0000
3100
0020
0030
0001
0100
0010
,
1000
0000
0000
0000
0010
0000
0100
0000
0001
1000
0001
0000
0010
0000
0000
0000
,
0012
0000
0103
0020
0030
1000
0100
0010
,
0001
0000
1000
0000
0010
0000
0100
0000
0000
0010
1000
0001
0010
0000
0100
0000
,
2000
0000
3010
0200
0300
0001
0010
0100
,
1000
0000
0000
0000
0100
0000
0010
0000
0001
1000
0001
0000
0100
0000
0000
0000
,
0102
0000
0013
0200
0300
1000
0010
0100
,
0001
0000
0001
0000
1000
0000
1000
0000
0010
0100
0010
0000
1000
0000
0001
0000
,
0200
0000
0000
0000
,
0310
0100
0001
1000
0100
0010
0001
0100
,
0210
0000
0301
1002
0000
0013
0100
1000
,
0001
0100
0010
0100
0001
1000
0100
0010
,
0220
0000
0330
0000
0100
0000
1000
0000
0001
0000
0100
0010
0100
0000
0001
0000
,
1000
0100
0010
0100
1000
0001
0100
0010
,
0120
0000
1030
2001
0000
3100
0010
0001
,
0100
0010
1000
0100
0010
0001
1000
0010
,
0110
0000
0000
0101
0000
0000
1001
0000
0000
1100
0000
0000
0200
0000
0010
0000
,
0310
0001
1000
0010
0100
0010
1000
0001
,
0010
0100
1000
0001
0100
0000
0110
0000
,
0010
1000
0001
0010
0100
1000
0001
0100
,
0010
1000
0100
0010
0001
0000
1001
0000
,
1000
0010
0100
0010
1000
0100
0010
0001
,
0100
0010
1000
0001
0010
0000
0110
0000
,
0100
0000
1000
0000
0001
0000
0100
0000
0010
0000
1000
0001
0010
0000
0100
1000
,
0001
0000
0000
0000
,
0110
0000
0000
0100
0000
0000
0100
0000
0001
0000
1000
0000
0100
0000
0000
0000
,
0010
0000
0000
0001
0000
0000
0100
0000
0010
0000
1000
0000
0100
0000
0010
0000
,
0001
0000
0000
0001
0000
0000
0001
0000
1000
0000
0010
0000
0100
0000
0000
0000
,
0001
0000
0000
1000
0000
0000
0010
0000
0100
0000
0001
0000
0010
0000
0100
0000
,
1000
0000
0000
1000
0000
0000
1000
0000
0010
0000
0100
0000
0001
0000
0000
0000
,
1000
0000
0000
0001
0000
0000
0010
0000
0100
0000
1000
0000
0001
0000
0100
0000
,
0010
0000
0000
0010
0000
0000
0010
0000
0100
0000
0001
0000
1000
0000
0100
0000
,
0010
0000
0001
1000
0000
0001
1000
0000
0010
0000
0100
0000
0010
0000
0100
0000
,
0002
0000
0003
1000
0100
0000
0010
0000
0000
0000
0010
0000
0100
0000
1000
0000
,
0010
0000
0010
0100
0001
0010
0100
0000
,
0010
0001
1000
0010
0000
0010
0100
0001
,
0010
0000
0010
0100
0000
0100
1000
0001
,
0100
0010
1000
0100
0000
0100
1000
0010
,
0100
0000
0100
0001
1000
0100
0010
0000
,
0001
0100
1000
0100
0010
1000
0001
0010
,
0100
0100
1000
0001
0100
0100
0010
0220
,
0000
0000
0000
0330
,
2000
0010
3002
0010
,
0203
1000
0301
1000
,
0002
0010
2003
0010
,
3200
0001
1300
0001
,
0100
0010
1000
0100
0001
0000
0100
1000
,
0010
0000
0001
0010
1000
0000
0010
1000
,
0100
0010
0001
0100
1000
0000
0100
0001
,
0010
0000
1000
0010
0001
0000
0010
0100
,
1000
0010
0100
0010
1000
0100
0010
0100
,
1000
0001
0100
0010
0100
0001
0010
0100
,
1000
0001
1000
0001
0100
0010
0100
0010
,
1000
0000
0100
0000
0010
0000
0001
0000
0100
0010
1000
0001
0100
0000
0010
0000
,
0110
0100
0110
0010
0100
0110
0001
1000
,
0010
0110
2002
3003
0100
0001
0010
0200
,
1000
0000
0310
0002
0100
0000
1003
0020
,
0001
0000
0130
0001
0010
0000
0001
0200
,
1000
0000
0310
2000
0100
0000
3001
0020
,
1000
0000
0130
1000
0010
0000
1000
0020
,
0001
0000
0130
0002
0010
0000
1003
0200
,
0001
0000
0310
0001
0100
0000
0001
0020
,
1000
0000
0000
0000
0130
0000
0010
0000
0110
0000
0000
1100
0000
0000
1001
0000
,
0000
0101
0000
0000
0100
0000
0010
0000
0120
0000
0030
0100
0010
0000
2000
0000
,
0001
0000
3000
0100
0010
0000
0002
0000
1000
0000
0003
0100
0010
0000
0100
0000
,
0001
0000
1000
0000
0100
0000
0000
0000
0210
0000
0300
0010
0100
0000
2000
0000
,
0001
0000
3000
0010
0100
0000
0002
0000
1000
0000
0003
0010
0100
0000
0010
0000
,
0000
0001
1000
0001
1000
0000
0100
0000
0120
0000
0030
0100
0010
0000
0002
0000
,
1000
0000
0003
0100
0010
0000
2000
0000
0001
0000
3000
0100
0010
0000
0100
0000
,
1000
0000
0001
0000
0100
0000
0000
0000
0210
0000
0300
0010
0100
0000
0002
0000
,
1000
0000
0003
0010
0100
0000
0010
0000
0011
0000
0000
1100
0000
0000
0101
0000
,
0000
1010
0000
0000
0010
0000
0100
0000
0020
0000
0000
0000
0000
0000
0000
0000
,
0030
0000
0000
0000
;

//--------------- dance-single - NAOKI ----------------
#NOTES:
     dance-single:
     NAOKI:
     Challenge:
     17:
     1,1,0.529,0.643,0.599:
0000
0000
0000
0000
,
0000
0000
0000
0000
0000
0000
2002
3003
,
0110
0000
0100
0010
0000
0010
1000
0001
,
0010
0000
0000
0000
0010
0000
0001
0000
1000
0010
0100
0010
1000
0000
0001
0000
,
0020
0000
0130
2000
3000
0001
0100
0020
,
1000
0000
0000
0000
0031
0000
0010
0000
0000
1000
0001
1000
0001
0000
0100
0000
,
0010
1000
0100
0010
0000
0010
0001
1000
,
0010
0000
0000
0000
0010
0000
1000
0000
0001
0010
0100
0010
0001
0000
1000
0000
,
0020
0000
0130
0002
0003
1000
0100
0010
,
0004
0003
0000
0000
0004
0003
0000
0000
4000
3000
0000
0000
4000
3000
0000
0000
0010
0000
0100
0000
0001
0000
1000
0000
0100
0000
0000
0000
0010
0000
0000
0000
,
0002
0000
0003
0100
0010
0000
1000
0000
0100
0000
0010
0000
0010
0000
0100
0000
,
2000
0000
3000
0010
0100
0000
0001
0000
1000
0100
0010
0100
1000
0000
0001
0000
,
0020
0000
0030
0100
1000
0000
0001
0000
0100
0000
0010
0000
0010
0000
0100
0000
,
0002
0000
0003
0010
0100
0000
2000
0000
3000
0001
0100
0010
1000
0000
0001
0000
,
0010
0100
0001
0100
1000
0010
0001
0010
,
0200
0000
0300
0001
1000
0000
0100
0000
0010
0001
1000
0010
0100
0000
0001
0000
,
1000
0100
1000
0001
0100
0010
1000
0010
0100
0001
1000
0100
0010
0001
1000
0010
,
0400
0300
0000
0000
0400
0300
0000
0000
0040
0030
0000
0000
0040
0030
0000
0000
1000
0000
0001
0000
0010
0000
0100
0000
1000
0000
0000
0000
0001
0000
0100
0000
,
0020
0M00
0000
0000
0000
0000
0000
0000
,
0130
0010
1000
0001
0010
0100
0010
0001
,
1002
0000
0103
0210
0000
0010
0310
1000
,
0001
0010
0100
1000
0010
0100
0010
1000
,
2001
0000
0000
0000
3100
0000
0210
0000
0000
0310
0001
1000
0010
0000
0100
0000
,
0001
1000
0100
0010
0100
1000
0001
0100
,
0210
0000
0301
1002
0000
0010
0013
0100
,
1000
0001
0100
0010
1000
0100
0010
0001
,
1001
0000
0000
0110
0000
0000
1001
0000
1000
0010
0100
0010
1000
0000
0100
0000
,
0010
0000
0001
1000
0010
0000
0100
0000
0010
0000
1000
0001
0010
0000
0100
0000
,
0010
0001
1000
0010
0200
0000
0310
0000
,
0100
0000
0001
1000
0100
0000
0010
0000
0100
0000
1000
0001
0100
0000
0010
0000
,
1000
0001
0010
0100
2000
0000
3001
0100
,
0010
0000
1000
0001
0010
0000
0100
0000
0010
0000
0001
1000
0010
0000
0100
0000
,
0010
1000
0001
0010
0200
0000
0310
0000
,
0001
0010
0001
1000
0010
0100
0001
0010
0100
1000
0001
0100
0010
0000
1000
0100
,
0020
0030
0002
0003
2000
3000
0020
0030
0200
0300
0020
0030
2000
3000
0002
0003
0020
0030
0200
0300
0020
0030
0002
0003
1000
0000
0000
0000
0010
0000
0000
0000
,
0120
0000
0000
0130
0000
0001
1000
0000
0100
0010
0001
0000
1000
0010
0000
0010
,
0100
0000
0001
0000
0010
0100
2000
0000
3001
0000
0100
0000
0010
0000
1000
0000
,
0001
0000
0010
0100
1000
0000
0002
0000
0103
0010
1000
0000
0001
0010
0000
0010
,
0100
0000
1000
0000
0001
0100
0010
0000
1000
0000
0100
0000
0010
0000
0001
0000
,
1000
0000
0010
0100
0001
0000
2000
0000
3100
0010
0001
0000
0100
0010
0000
0010
,
1000
0000
0001
0010
0100
1000
0200
0300
0010
0001
0010
0000
0100
1000
0100
0000
,
0010
0000
0001
0010
0100
0000
2000
0000
3010
0100
0001
0000
1000
0200
0300
0010
,
0001
0000
0010
0100
1000
0001
0200
0300
0010
1000
0010
0000
0100
0001
0100
0000
,
0210
0000
0300
0010
1000
0000
0001
0000
0010
0000
0100
0000
0100
0000
0010
0000
,
0002
0000
0003
0100
0010
0000
1000
0000
0001
0010
0100
0010
0001
0000
1000
0000
,
0200
0000
0300
0010
0001
0000
1000
0000
0010
0000
0100
0000
0100
0000
0010
0000
,
2000
0000
3000
0100
0010
0000
0002
0000
0003
1000
0010
0100
0001
0000
1000
0000
,
0100
0010
1000
0010
0001
0100
1000
0100
,
0020
0000
0030
1000
0001
0000
0010
0000
0100
1000
0001
0100
0010
0000
1000
0000
,
0001
0010
0001
1000
0010
0100
0001
0100
0010
1000
0001
0010
0100
1000
0001
0100
,
0040
0030
0000
0000
0040
0030
0000
0000
0400
0300
0000
0000
0400
0300
0000
0000
0001
0000
1000
0000
0100
0000
0010
0000
0001
0000
0000
0000
0200
0000
0000
0000
,
00M0
0000
0000
0300
,
0020
0000
0100
0000
2030
0000
0001
0000
3200
0000
0010
0000
0302
0000
1003
0010
,
0200
0000
0010
0000
2300
0000
0001
0000
3020
0000
0100
0000
0031
0000
0010
1000
,
0200
0000
0010
0000
2300
0000
0001
0000
3020
0000
0100
0000
0032
0000
1003
0100
,
0020
0000
0100
0000
2030
0000
0001
0000
3100
0000
0010
0001
0200
0000
0000
0000
,
0310
1000
0100
0010
1000
0010
0100
1000
,
0010
0100
1000
0100
0010
1000
0001
0010
,
0100
0001
0100
0010
0001
0100
0010
0001
,
0010
0000
0100
0000
0001
0000
0010
0000
0100
1000
0001
0100
0010
0000
1000
0000
,
0001
0010
0100
0010
0001
1000
0010
0100
,
1000
0100
0010
1000
0100
0010
0001
1000
,
0010
0100
0001
0100
0010
1000
0001
0010
0100
1000
0001
0100
0010
1000
0100
0010
,
0001
0000
0002
0000
1000
0000
2003
0000
3001
0010
0100
1000
0001
0000
0100
0000
,
0110
0101
0101
1010
1010
1010
0110
0100
,
0010
0110
2002
3003
1010
1000
0100
0010
,
0011
0001
1000
0010
0110
0100
0001
1000
,
1100
0100
0010
0001
0101
0100
0010
1000
,
1001
0001
0100
0010
1010
1000
0100
0010
,
0001
1002
0000
0103
0210
0000
0310
1000
,
1001
0001
0010
0100
1100
1000
0001
0100
,
0110
0010
1000
0001
0011
0010
0100
1000
,
1001
0000
0001
0000
0100
0000
0010
0000
1010
0000
0000
0101
0000
0000
1100
0000
,
0000
0011
0000
0000
1001
0000
0010
0000
0120
0000
0030
0100
0001
0000
0010
0000
,
2100
0000
0000
3010
0100
0000
0001
0000
1002
0000
0000
0013
0100
0000
1000
0000
,
0001
0100
0010
0100
0001
0000
0010
0000
0120
0000
0030
0100
1000
0000
0010
0000
,
0102
0000
0000
0013
0100
0000
1000
0000
2001
0000
0000
3010
0100
0000
0110
0000
,
0000
0001
0010
0100
1000
0000
0100
0000
0210
0000
0300
0010
0001
0000
0100
0000
,
2010
0000
0000
3100
0010
0000
0001
0000
1002
0000
0000
0103
0010
0000
1000
0000
,
0001
0010
0100
0010
0001
0000
1000
0000
0010
0100
0001
0100
0010
1000
0001
0010
,
0100
1000
0001
0100
0010
0000
0100
0000
0110
0000
0000
1010
0000
0000
1100
0000
,
0000
0100
0010
0001
1000
0000
0010
0000
0200
0000
0000
0000
0000
0000
0000
0000
,
0300
0000
0000
0000
;
