#TITLE:Belfegore;
#SUBTITLE:Full Version Special;
#ARTIST:KanzakiTomoyuki;
#TITLETRANSLIT:;
#SUBTITLETRANSLIT:;
#ARTISTTRANSLIT:;
#GENRE:;
#CREDIT:;
#BANNER:Belfegore-full-bn.png;
#BACKGROUND:Belfegore-full-bg.png;
#LYRICSPATH:Belfegore-full.lrc;
#CDTITLE:NAOKI_cdtitle.png;
#MUSIC:Belfegore-full.ogg;
#OFFSET:1.168;
#SAMPLESTART:136.574;
#SAMPLELENGTH:12.000;
#SELECTABLE:YES;
#BPMS:0.000=95.500,20.000=191.000,84.000=382.000,88.000=191.000,281.000=95.500,329.000=191.000,495.000=95.500;
#STOPS:84.000=0.628
,280.000=0.942
,361.000=0.157
,362.000=0.157
,363.500=0.157
,365.500=0.157
;
#BGCHANGES:;
#KEYSOUNDS:;

//---------------dance-single - NAOKI----------------
#NOTES:
     dance-single:
     NAOKI:
     Challenge:
     16:
     1.000,1.000,0.411,0.587,0.681:
0000
0000
0000
0000
,
0010
0000
0000
0000
1000
0000
0001
0000
0000
0000
0010
0000
0010
0000
0100
0000
1000
0000
0000
0000
0001
0000
0100
0000
0010
1000
0001
1000
0100
0000
0000
0000
,
0010
0000
0000
0000
0001
0000
1000
0000
0000
0000
0010
0000
0010
0000
0100
0000
0001
0000
0000
0000
1000
0000
0100
0000
0000
0010
0001
1000
0001
0000
1000
0000
,
0100
0000
0010
0000
0001
0000
1000
0000
0010
0000
0100
0000
0100
0000
0010
0000
1000
0000
0001
0000
0010
0000
0100
0000
1000
0001
1000
0001
0100
0000
0010
0000
,
1000
0100
0010
0001
1000
0010
0100
0010
1000
1000
0001
0001
0000
0110
0100
0010
,
0110
0100
0001
1000
0100
0010
0010
0100
,
1000
0000
0000
0000
0001
0000
0100
0000
0010
1000
0001
1000
0100
0000
0000
0000
,
0010
0100
1000
0001
0100
0010
0010
0100
,
0001
0000
0000
0000
1000
0000
0100
0000
0000
0010
0001
1000
0001
0000
1000
0000
,
0100
0010
0001
1000
0010
0100
0100
0010
,
1000
0000
0000
0000
0001
0000
0010
0000
0100
1000
0001
1000
0001
0000
0000
0000
,
0010
0100
1000
0001
0100
0010
0010
1000
,
0001
0000
0001
0000
1000
0000
1000
0000
0010
0100
0010
0100
0001
0000
1000
0000
,
0100
0010
0001
1000
0010
0100
0100
0001
,
1000
0000
0100
0000
0010
0000
0001
0000
1000
0010
0100
0010
1000
0000
0001
0000
,
0010
0100
1000
0001
0100
0010
0010
1000
,
2001
0000
3000
0100
0010
0000
0001
0000
1000
0010
1000
0010
0100
0000
0001
0000
,
1000
0100
0010
0001
1000
0010
0010
0100
,
0002
0000
0003
0010
0100
0000
1000
0000
0001
0100
0001
0100
0010
0000
0000
0000
,
1000
0010
0100
0010
1000
0001
1000
0100
0010
0100
1000
0001
1000
0001
0100
0010
,
1000
0000
1000
0000
0001
0000
0001
0000
1000
0100
0010
0001
1000
0000
0010
0000
,
0220
0000
0000
0330
,
0100
0010
1000
0001
0010
0100
1000
0001
,
1002
0000
0103
0210
0000
0010
0310
1000
,
0001
0010
0100
1000
0001
0100
0010
1000
,
2001
0000
3000
0100
0010
0000
0002
0000
0003
0100
0010
0100
0001
0000
1000
0000
,
0001
0010
0100
1000
0001
0100
0010
1000
,
2001
0000
3100
0210
0000
0010
0310
0001
,
1000
0010
0100
0001
1000
0100
0010
0001
,
1002
0000
0003
0100
0010
0000
2000
0000
3001
0010
0100
0010
0001
0000
1000
0001
,
0100
0010
1000
0001
0010
0100
1000
0001
,
1002
0000
0013
0120
0000
0100
0130
1000
,
0001
0100
0010
1000
0001
0010
0100
1000
,
2001
0000
3000
0010
0100
0000
0002
0000
0003
1000
0100
0010
0100
0000
1000
0000
,
0001
0100
0010
1000
0001
0010
0100
1000
,
2001
0000
3010
0120
0000
0100
0130
0001
,
1000
0100
0010
0100
1000
0001
0100
0010
,
1010
0000
0000
1001
0000
0000
0101
0000
0100
0001
1000
0100
0010
0000
0001
0000
,
1000
0010
0100
1000
0100
0010
1000
0100
,
0001
0100
0010
0001
1000
0000
1001
0000
,
0001
1000
0100
0001
0100
0010
0001
0100
,
1000
0100
0010
1000
0001
0000
1001
0000
,
1000
0001
0010
1000
0010
0100
1000
0010
,
0001
0010
0100
0001
1000
0000
1001
0000
,
0001
0100
0010
0100
0001
0010
0100
0010
,
0001
1000
0010
0100
0001
0001
0001
0001
,
1000
0000
0001
0010
0001
0000
1000
0000
0010
0000
0100
0001
1000
0000
0100
0000
,
0010
0001
1000
0001
0010
0000
0100
0000
1000
0000
0000
0000
1001
0000
0000
0000
,
0001
0000
1000
0010
1000
0000
0001
0000
0010
0000
0100
1000
0001
0000
0100
0000
,
0010
1000
0010
0100
0001
0000
1000
0000
0100
0000
0000
0000
0110
0000
0000
0000
,
0010
0000
0001
1000
0010
0000
0100
0000
0001
0000
1000
0100
0010
0000
0001
0000
,
1000
0010
0100
0001
0100
0000
0010
0000
1000
0000
0000
0000
1001
0000
0000
0000
,
0001
0100
0001
0100
0010
1000
0010
1000
0002
0000
0013
0100
2000
0000
3001
0100
,
0010
0100
0001
1000
0100
0010
0001
0000
,
2000
0000
3001
0020
0030
0100
1000
0000
0001
0100
0010
0000
0100
0001
0000
1000
,
0001
0000
1000
0000
0100
0010
0100
0000
1000
0000
0001
0000
0100
0000
0100
0000
,
0002
0000
1003
0200
0300
0010
0001
0000
1000
0010
0100
0000
0010
1000
0000
0001
,
1000
0100
0010
0001
1000
0100
0010
0001
,
2000
0000
3001
0200
0300
0010
1000
0000
0001
0010
0100
0000
0010
0001
0000
1000
,
0001
0000
0100
0000
0010
0000
1000
0000
0001
0010
0001
0000
1000
0010
1000
0000
,
0002
0000
0103
0020
0030
0100
0001
0000
1000
0100
0010
0000
0001
0100
0000
0001
,
2000
0000
3100
0020
0030
0100
1000
0000
0001
0100
0001
0000
1000
0100
1000
0000
,
0002
0000
0003
0010
0100
0000
1000
0000
0001
0000
0100
0000
0010
0000
0010
0000
,
2000
0000
3000
0100
0010
0000
0001
0000
0100
0010
1000
0001
0010
0000
0100
0000
,
2000
0000
3000
0010
0100
0000
0001
0000
1000
0000
0100
0000
0010
0000
0010
0000
,
0002
0000
0003
0100
0010
0000
2000
0000
3000
0100
0010
0001
1000
0000
0010
0000
,
0200
0000
0300
0010
0100
0000
0001
0000
1000
0000
0010
0000
0100
0000
0100
0000
,
0002
0000
0003
0010
0100
0000
1000
0000
0001
1000
0010
0100
0001
0000
1000
0000
,
0001
0010
0100
0010
0001
1000
0001
0100
0010
0100
0001
1000
0001
1000
0100
0010
,
0001
0000
0001
0000
1000
0000
1000
0000
0001
0100
0010
1000
0001
0000
1000
0000
,
2002
3003
0000
0000
0000
0000
0000
0000
0000
0000
0000
0000
0000
0000
0000
0000
2000
0000
0000
0000
0000
0000
0000
0000
3010
0000
0000
0000
0000
0000
0000
0000
0200
0000
0000
0000
0000
0000
0000
0000
0301
0000
0000
0000
0000
0000
0000
0000
0020
0000
0000
0000
0000
0000
0000
0000
0130
0000
0000
0000
0000
0000
0000
0000
,
2000
0000
3010
0100
0002
0000
0013
0000
0200
0000
1300
0000
0020
0000
0130
0000
,
0002
0000
0013
0100
2000
0000
3010
0000
0200
0000
0301
0000
0020
0000
0130
0000
,
2000
0000
3010
0100
0002
0000
1003
0000
0200
0000
0310
0000
0001
0000
2000
0000
,
0002
3003
2001
0000
3020
0000
0230
0000
,
0302
0023
0230
2300
,
0001
3020
0230
0302
,
2003
0000
3200
0000
0320
0000
0032
1000
,
0203
0000
0000
0000
0310
1000
0100
0001
1000
0001
0100
1000
0010
0001
1000
0001
,
0010
1000
0100
0010
0001
0100
1000
0001
1000
0100
0001
0010
1000
0001
1000
0010
,
0001
1000
0010
0010
0100
0001
0010
1000
0001
1000
0010
0001
0100
1000
0001
1000
,
0100
0001
0010
0100
1000
0010
0001
1000
0001
0010
1000
0100
0001
1000
0001
0100
,
1000
0010
0100
0100
0001
0000
0000
0000
0001
0000
0000
0000
1000
0000
0000
0000
,
1000
0000
0100
0000
0100
0000
0010
0001
,
1000
0010
0100
0000
0100
0000
0001
0000
,
0001
0000
0010
0000
0010
0000
0100
1000
,
0001
0100
0010
0100
0001
0010
0100
0010
,
0001
0100
0010
1000
0100
0010
0100
1000
,
0010
0000
0100
0000
0001
0100
0010
0100
0001
1000
0001
0010
0100
0010
0001
1000
,
0001
1000
0010
0100
0001
0000
0001
0000
1000
0000
1000
0000
0001
0010
0100
1000
,
0001
1000
1001
0101
0101
1010
1010
1010
,
0110
0010
0100
0110
2002
3003
0011
0001
,
0100
0010
1010
1000
0001
0010
0110
0100
,
1000
0001
0101
0100
0010
1000
1100
0100
,
0010
0001
1001
1000
0010
0100
0101
0001
,
0010
0100
1000
0001
2002
3003
0220
0330
,
0100
0010
1010
1000
0100
0010
0011
0001
,
1000
0010
0110
0100
0001
1000
1100
0100
,
0010
0001
0101
0100
0010
1000
0001
0010
,
0100
0000
1000
0000
0001
0000
0100
0010
1000
0000
0001
0010
0200
0000
1300
0000
,
0001
0000
0100
0010
1000
0000
0001
0000
0010
0000
0100
1000
0001
0000
0100
0000
,
0010
0000
1000
0001
0010
0000
0100
0000
1000
0000
0001
0100
0010
0000
1000
0000
,
0001
0000
0010
0100
1000
0000
0001
0000
0100
0000
0010
1000
0001
0000
0010
0000
,
0100
0000
1000
0001
0100
0000
0010
0000
1000
0001
0100
0010
2000
0000
3001
0000
,
1000
0000
0010
0100
0001
0000
1000
0000
0100
0000
0010
0001
1000
0000
0010
0000
,
0100
0000
0001
1000
0100
0000
0010
0000
0001
0000
1000
0010
0100
0000
0001
0000
,
1000
0000
0100
0010
0001
0000
1000
0000
0010
0000
0100
0000
0101
0000
0000
1010
,
0000
0000
0011
0000
0000
1100
0000
0000
1001
0000
0100
0000
0210
0000
0300
0010
,
1000
0000
0100
0000
0012
0000
0000
0103
0010
0000
1000
0000
2001
0000
0000
3100
,
0010
0000
0001
0000
1000
0010
0100
0001
1000
0000
0100
0000
0210
0000
0300
0010
,
0001
0000
0100
0000
2010
0000
0000
3100
0010
0000
0001
0000
1002
0000
0000
0103
,
0010
0000
1000
0000
0001
0010
0100
1000
0001
0000
0010
0000
0120
0000
0030
0100
,
1000
0000
0010
0000
0102
0000
0000
0013
0100
0000
1000
0000
2001
0000
0000
3010
,
0100
0000
0001
0000
1000
0100
0010
0001
1000
0000
0010
0000
0120
0000
0030
0100
,
0001
0000
0010
0000
2100
0000
0000
3010
0100
0000
0001
1000
0001
0000
0010
0000
,
0100
0000
1000
0000
0001
0100
0010
0100
0001
0000
1000
0001
2000
0000
3000
0100
,
0010
0000
0001
0000
0101
0000
0000
0100
0010
0000
1000
0000
1100
0000
0000
0100
,
0010
0000
0001
0000
1000
0010
0100
0001
1000
0000
0100
0000
1100
0000
0000
1000
,
0010
0000
0100
0000
0101
0000
0000
0001
0010
0000
0100
0000
1100
0000
0000
1000
,
0010
0000
0100
0000
0001
1000
0001
1000
0100
0000
0010
0000
0011
0000
0000
0001
,
0100
0000
0010
0000
1010
0000
0000
1000
0100
0000
0010
0000
0011
0000
0000
0001
,
0100
0000
0010
0000
1000
0001
1000
0001
0010
0000
0100
0000
1000
0010
0100
0010
,
1000
0001
0010
0100
1000
0001
0010
0001
1000
0010
0100
0001
0200
0300
0000
2020
,
3030
0000
0022
0033
0000
2200
3300
0000
2002
3003
0100
0000
0020
0000
0100
0000
,
2030
0001
3200
0010
0302
1000
0203
0010
,
2300
0000
0001
0000
3020
0000
0100
0000
0032
0000
1000
0000
0013
0000
0100
0010
,
1000
0000
0001
0010
0100
0000
1000
0001
0200
0000
0000
0300
0010
0000
1000
0001
,
0010
0000
0100
0010
0001
0000
1000
0010
0100
0000
0002
2003
3000
0000
0000
0000
;
