#TITLE:Ballistic Bunny;
#SUBTITLE:(feat. Kommisar);
#ARTIST:Aquellex;
#TITLETRANSLIT:;
#SUBTITLETRANSLIT:;
#ARTISTTRANSLIT:;
#GENRE:;
#CREDIT:NAOKI;
#MUSIC:Ballistic Bunny (feat. Kommisar).ogg;
#BANNER:Ballistic-Bunny-(feat.-Kommisar)-bn.png;
#BACKGROUND:Ballistic-Bunny-(feat.-Kommisar)-bg.png;
#CDTITLE:naokicdtitle.png;
#SAMPLESTART:72.141;
#SAMPLELENGTH:15.999;
#SELECTABLE:YES;
#OFFSET:-0.146;
#BPMS:0.000=180.012
,556.000=180.000
,562.000=179.000
,564.750=163.000
,565.500=155.000
,566.000=145.000
,567.750=135.000
,568.000=130.000
,568.750=125.000
,569.750=115.000
,570.250=113.000
,570.500=105.000
,570.750=95.000
,571.000=90.000
,571.500=92.000
,572.000=90.000
,576.000=95.000
,578.000=100.000
,580.000=105.000
,582.500=110.000
,584.500=115.000
,586.000=120.000
,588.000=125.000
,589.250=130.000
,590.500=135.000
,591.000=140.000
,592.000=145.000
,593.500=150.000
,594.000=155.000
,595.500=160.000
,596.500=165.000
,597.500=170.000
,598.500=175.000
,599.000=180.000
;
#STOPS:;
#BGCHANGES:;
#FGCHANGES:;

//--------------- dance-single - NAOKI 72*/16/72*(@90-180)/16-33 ----------------
#NOTES:
     dance-single:
     NAOKI 72*/16/72*(@90-180)/16-33:
     Challenge:
     17:
     0,0,0,0,0:
1000
0100
0010
0001
1000
0001
0100
0010
1000
0100
0010
0001
1000
0001
0100
0010
,
1000
0100
0010
0001
1000
0001
0100
0010
1000
0100
0010
0001
1000
0001
0100
0010
,
1000
0001
0010
0100
1000
0001
1000
0010
0100
0001
0010
0100
1000
0001
1000
0010
,
0100
0001
0010
0100
1000
0001
1000
0010
0100
0001
0010
0100
1000
0001
1000
0010
,
0100
0001
1000
0100
1000
0001
1000
0010
0100
0001
1000
0100
0010
0001
1000
0010
,
1000
0001
0010
0100
1000
0001
1000
0010
0100
0001
0010
0100
1000
0001
0100
0010
,
1000
0001
1000
0100
0010
0001
1000
0001
0100
0001
1000
0100
0010
0001
1000
0010
,
1000
0001
0010
0100
1000
0001
0100
0010
1000
0100
0010
0001
1000
0001
0100
0010
,
1000
0001
1000
0100
0010
0001
1000
0010
1000
0001
1000
0100
0010
0001
1000
0010
,
1000
0001
0010
0100
1000
0010
0100
0001
1000
0001
0010
0100
1000
0010
0100
0001
,
1000
0001
0010
0100
1000
0001
0100
0001
1000
0001
0010
0100
1000
0001
0100
0001
,
1000
0100
0010
0001
1000
0010
0100
0001
0010
0100
1000
0010
0100
0001
0010
0100
,
1000
0001
0100
0010
1000
0001
0010
0001
1000
0001
0100
0010
1000
0001
0010
0100
,
1000
0001
0100
0001
1000
0100
0010
0001
1000
0001
0100
0010
1000
0100
0010
0001
,
1000
0010
0100
0001
1000
0001
0010
0100
1000
0001
1000
0010
1000
0001
0010
0100
,
1000
0001
0100
0001
1000
0100
0010
0001
1000
0010
0100
0001
0010
0100
1000
0001
,
1000
0010
0100
0001
1000
0001
0010
0100
1000
0001
0100
0001
1000
0001
0010
0100
,
1000
0001
0100
0001
1000
0100
0010
0001
0100
0010
1000
0001
1000
0100
0010
0001
,
0100
0010
1000
0001
1000
0100
0010
0001
1000
0010
1000
0001
1000
0100
0010
0001
,
1000
0010
1000
0001
0010
0100
1000
0001
0100
0010
1000
0100
0010
0001
1000
0010
,
0100
0001
1000
0100
1000
0010
0100
0001
0010
0001
1000
0010
1000
0100
0010
0001
,
0100
0001
0010
0100
1000
0001
0100
0010
1000
0100
0010
0001
1000
0010
0100
0001
,
1000
0100
1000
0001
0100
0010
1000
0001
1000
0100
0010
0001
1000
0010
0100
0001
,
1000
0001
0010
0100
1000
0001
0100
0001
1000
0100
0010
0001
1000
0010
0100
0001
,
0010
0001
1000
0010
0100
0001
1000
0001
0010
0100
1000
0001
0100
0010
1000
0001
,
1000
0100
0010
0001
1000
0010
0100
0001
1000
0100
1000
0010
0100
0001
0010
0001
,
1000
0010
1000
0001
0010
0100
1000
0001
1000
0010
0100
0001
1000
0100
0010
0001
,
1000
0001
0100
0010
1000
0001
0010
0001
1000
0010
0100
0001
1000
0100
0010
0001
,
0100
0001
1000
0100
0010
0001
1000
0001
0100
0010
1000
0001
0010
0100
1000
0001
,
1000
0010
0100
0001
1000
0100
1000
0001
0100
0010
1000
0100
0010
0001
0100
0010
,
1000
0001
0010
0001
1000
0010
0100
0001
1000
0001
0010
0100
1000
0001
0100
0010
,
1000
0001
1000
0100
0010
0001
1000
0010
1000
0001
0010
0100
1000
0001
0100
0010
,
1000
0100
1000
0001
0100
0010
1000
0001
1000
0100
0010
0001
1000
0010
0100
0001
,
1000
0001
0010
0100
1000
0001
0100
0010
1000
0001
0010
0001
0100
0010
1000
0100
,
1000
0001
0100
0001
1000
0100
0010
0001
1000
0001
0100
0010
1000
0001
0010
0100
,
1000
0001
1000
0010
0100
0001
0010
0001
2000
3000
0020
0030
0200
0300
0002
0003
,
1000
0100
1000
0001
0100
0010
1000
0001
1000
0100
0010
0001
1000
0010
0100
0001
,
1000
0100
1000
0010
0100
0001
1000
0001
0010
0100
1000
0010
0100
0001
0010
0100
,
0010
0001
1000
0001
0100
0010
1000
0001
0010
0100
1000
0001
0100
0010
1000
0001
,
1000
0100
0010
0001
1000
0010
0100
0001
1000
0100
0010
0001
1000
0010
0100
0001
,
1000
0001
0010
0100
1000
0001
0100
0010
1000
0001
0010
0100
1000
0001
0100
0010
,
1000
0001
1000
0100
0010
0001
1000
0010
0100
0001
1000
0100
0010
0001
0100
0010
,
1000
0001
1000
0100
0010
0001
1000
0010
0100
0001
1000
0100
0010
0001
1000
0001
,
0100
0010
1000
0001
0010
0100
1000
0001
0100
0010
1000
0001
0010
0100
1000
0001
,
1000
0010
0100
0001
1000
0100
0010
0001
1000
0010
0100
0001
1000
0100
0010
0001
,
1000
0001
0100
0010
1000
0001
0010
0100
1000
0001
0100
0010
1000
0100
0010
0001
,
1000
0010
1000
0001
0010
0100
1000
0001
0100
0010
1000
0100
0010
0001
0100
0010
,
1000
0001
1000
0100
0010
0001
0100
0001
0010
0100
1000
0010
0100
0001
0010
0100
,
1000
0001
1000
0010
0100
0001
1000
0100
1000
0001
0100
0001
1000
0100
0010
0001
,
1000
0001
0100
0010
1000
0001
0010
0100
1000
0010
1000
0100
0010
0001
0100
0001
,
0010
0100
1000
0001
0100
0001
1000
0100
0010
0001
0100
0010
1000
0100
0010
0001
,
1000
0001
0100
0010
1000
0100
1000
0010
0100
0001
0010
0100
1000
0010
0100
0001
,
1000
0001
0010
0100
1000
0001
0100
0001
1000
0100
1000
0001
0100
0010
1000
0001
,
1000
0100
0010
0001
1000
0010
0100
0001
0010
0001
0100
0010
1000
0100
0010
0001
,
0100
0010
1000
0001
0010
0001
0100
0010
1000
0100
1000
0001
0100
0001
0010
0100
,
1000
0010
1000
0001
0010
0001
0100
0010
1000
0001
1000
0100
0010
0001
0100
0010
,
1000
0100
1000
0001
0100
0001
0010
0100
1000
0010
1000
0001
0010
0001
0100
0010
,
1000
0100
1000
0001
0100
0001
0010
0100
1000
0001
1000
0010
0100
0001
1000
0001
,
0010
0100
1000
0010
1000
0100
0010
0001
0100
0001
1000
0100
1000
0010
0100
0001
,
0010
0000
0000
0100
0000
0000
1000
0000
0000
0001
0000
0000
0400
0000
0000
0000
0000
0000
0000
0000
0300
0000
0000
0000
0010
0000
0000
0000
1000
0000
0000
0000
0001
0000
0000
0000
0010
0000
0000
0000
0100
0000
0000
0000
1000
0000
0000
0000
,
0001
0100
0001
1000
0100
1000
0010
0100
0001
0010
0001
1000
0010
1000
0100
0010
,
0001
0100
0001
1000
0100
1000
0001
1000
0010
0100
0001
1000
0400
0000
0000
0300
,
0040
0000
0000
0030
0000
0000
0000
0000
0000
0000
0000
0000
0004
0000
0000
0003
0000
0000
0000
0000
0000
0000
0000
0000
4000
0000
0000
3000
0000
0000
0000
0000
0000
0000
0000
0000
0040
0000
0000
0030
0000
0000
0000
0000
0000
0000
0000
0000
0400
0000
0300
0000
0000
0000
0000
0000
0000
0000
0000
0000
0004
0000
0003
0000
0000
0000
0000
0000
0000
0000
0000
0000
4000
0000
3000
0000
0000
0000
0000
0000
0000
0000
0000
0000
0400
0000
0300
0000
0000
0000
0000
0000
0000
0000
0000
0000
0010
0000
0000
0000
0000
0000
0000
0000
0000
0000
0000
0000
0001
0000
0000
0000
0000
0000
0000
0000
0000
0000
0000
0000
1000
0000
0000
0000
0000
0000
0000
0000
0000
0000
0000
0000
0010
0000
0000
0000
0000
0000
0000
0000
0000
0000
0000
0000
1000
0000
0000
0000
0000
0000
0000
0000
0000
0000
0000
0000
0001
0000
0000
0000
0000
0000
0000
0000
0000
0000
0000
0000
0010
0000
0000
0000
0000
0000
0000
0000
0000
0000
0000
0000
0001
0000
0000
0000
0000
0000
0000
0000
0000
0000
0000
0000
,
0100
0010
1000
0100
1000
0001
0100
0001
0010
0100
1000
0010
1000
0001
0010
0001
,
0100
0010
1000
0100
1000
0001
0100
0001
0010
0100
1000
0010
1000
0001
0010
0001
,
0100
0010
1000
0001
0010
0100
1000
0001
1000
0010
0100
0001
1000
0100
0010
0001
,
0100
0001
1000
0001
0010
0100
1000
0001
0100
0010
1000
0001
1000
0100
1000
0001
,
0100
0001
1000
0001
0100
0010
1000
0001
0010
0100
1000
0001
0100
0010
1000
0001
,
0010
0001
1000
0001
0010
0100
1000
0001
0100
0010
0100
0001
1000
0100
0010
0001
,
1000
0010
1000
0001
1000
0010
0100
0001
1000
0100
0010
0001
1000
0010
0100
0001
,
1000
0100
1000
0001
1000
0100
0010
0001
0100
0001
1000
0100
1000
0001
0100
0010
,
1000
0100
1000
0001
1000
0100
0010
0001
1000
0010
0100
0001
1000
0100
0010
0001
,
1000
0010
1000
0001
1000
0010
0100
0001
0010
0100
1000
0010
1000
0100
0010
0001
,
0100
0001
1000
0001
0100
0010
1000
0001
1000
0100
0010
0001
1000
0010
0100
0001
,
1000
0001
0010
0100
1000
0010
1000
0001
0010
0001
1000
0010
1000
0001
0010
0100
,
1000
0010
1000
0001
0010
0001
1000
0010
0100
0001
1000
0100
1000
0001
0100
0001
,
0010
0000
0000
0000
0000
0000
0000
0000
0000
0000
0000
0000
0100
0000
0000
0000
0000
0000
0000
0000
0000
0000
0000
0000
1000
0000
0000
0000
0000
0000
0000
0000
0000
0000
0000
0000
0010
0000
0000
0000
0000
0000
0000
0000
0000
0000
0000
0000
1000
0000
0000
0000
0000
0000
0000
0000
0000
0000
0000
0000
0001
0000
0000
0000
0000
0000
0000
0000
0000
0000
0000
0000
0010
0000
0000
0000
0000
0000
0000
0000
0000
0000
0000
0000
0001
0000
0000
0000
0000
0000
0000
0000
0000
0000
0000
0000
2000
0000
0000
3000
0000
0000
0000
0000
0000
0000
0000
0020
0000
0000
0030
0000
0000
0000
0000
0000
0000
0000
0200
0000
0000
0300
0000
0000
0000
0000
0000
0000
0000
0002
0000
0000
0000
0000
0000
0000
0000
0000
0000
0000
0000
0000
0003
0000
0000
0000
0000
0000
0000
0000
0000
0000
0000
0000
0000
0000
0000
0000
0000
0000
0000
0000
0000
0000
0000
0000
0000
0000
0000
0000
0000
0000
0000
0000
0000
0000
0000
0000
0000
0000
0000
0000
0000
0000
0000
0000
0000
0000
0000
0000
0000
0000
,
0100
0001
1000
0200
0000
0300
0010
0000
0001
0000
1000
0000
0010
0200
0000
0300
,
0001
1000
0100
0000
0010
0001
1000
0010
1000
0001
0010
0100
1000
0001
1000
0010
,
0100
0001
1000
0000
0100
1000
0001
0100
0010
1000
0000
0001
0010
0100
1000
0001
,
0100
0000
0010
1000
0001
0010
0001
1000
0010
1000
0001
1000
0200
0000
0310
0000
,
0001
1000
0020
0000
0130
0000
0001
0000
1000
0000
0100
0000
0010
0001
1000
0010
,
0200
0000
0301
0000
1000
0000
0100
0000
0020
0000
0130
0000
1000
0001
0100
0001
,
1000
0100
0010
0000
0001
0000
1000
0010
0100
0000
0001
0010
0100
1000
0000
0001
,
1000
0010
0100
0002
0000
1003
0000
0000
0001
0000
0010
0000
0200
0000
0300
0000
,
1000
0000
0000
0001
0000
0000
0200
0000
0310
0000
1000
0000
0001
0020
0000
0030
,
0100
0000
1000
0001
0000
0100
0010
0000
1000
0000
0100
0000
0010
0001
1000
0001
,
0100
0010
1000
0001
0010
0100
1000
0002
0000
0003
0100
0000
0010
1000
0000
0001
,
0010
0100
1000
0000
0001
0100
0010
1000
0001
1000
0100
0010
0001
1000
0010
0100
,
0002
0000
0003
2000
0000
3000
0200
0000
0300
0020
0000
0030
0001
0000
0100
0000
,
0010
1000
0001
1000
0100
0010
0001
1000
0010
0100
0001
1000
0100
1000
0001
1000
,
0010
0100
0001
0000
1000
0000
0100
0000
1000
0000
0001
0000
1000
0010
0000
0100
,
0001
0000
0000
1000
0001
0010
0100
1000
0004
0000
0000
0000
0000
0000
0003
0000
,
1000
0100
0010
0001
1000
0010
1000
0001
0010
0100
1000
0001
0100
0001
1000
0100
,
0010
0001
1000
0010
0100
0001
1000
0001
0010
0100
1000
0010
0100
0001
1000
0001
,
0010
0100
1000
0001
0100
0001
1000
0100
0010
0001
1000
0010
1000
0001
0010
0001
,
1000
0010
0100
0001
0010
0100
1000
0010
0100
0001
0010
0100
1000
0001
0100
0001
,
1000
0100
0010
0001
1000
0010
1000
0001
0010
0100
1000
0001
0100
0001
1000
0100
,
0010
0001
1000
0010
0100
0001
1000
0001
0010
0100
1000
0010
0100
0001
1000
0001
,
0010
0100
1000
0001
0100
0001
1000
0100
0010
0001
1000
0010
1000
0001
0010
0001
,
1000
0010
0100
0001
0010
0100
1000
0001
0100
0001
1000
0100
1000
0001
0100
0001
,
1000
0100
0010
0001
1000
0001
0100
0010
1000
0001
0010
0100
1000
0001
1000
0010
,
0100
0001
1000
0100
0010
0100
1000
0001
0100
0010
1000
0001
1000
0100
0010
0001
,
1000
0010
0100
0001
1000
0001
0010
0100
1000
0001
0100
0010
1000
0001
1000
0100
,
0010
0001
1000
0010
0100
0010
1000
0001
0010
0100
1000
0010
1000
0100
0010
0001
,
0100
0010
1000
0001
1000
0100
0010
0001
1000
0010
0100
0001
1000
0001
0010
0100
,
1000
0001
0100
0010
0100
0001
1000
0100
0010
0001
1000
0001
0100
0010
1000
0001
,
0010
0100
1000
0001
1000
0010
0100
0001
1000
0100
0010
0001
1000
0001
0100
0010
,
1000
0001
0010
0100
0010
0001
1000
0010
0100
0001
0010
0001
0100
0010
1000
0001
,
0020
0000
0000
0030
,
0100
0000
1000
0000
0004
0000
0000
0003
,
1000
0000
0000
0010
0000
0000
0100
0000
0001
0000
0000
0000
1000
0000
0100
0000
,
0020
0000
0032
0000
4003
0000
0000
3000
,
0001
0100
0000
0010
1000
0000
0001
0000
0010
0000
0000
0000
0100
0000
1000
0000
,
0002
0000
0203
0000
0340
0000
0000
0030
,
1000
0000
0000
0100
0000
0000
0010
0000
0002
0000
0000
0003
0100
0000
0010
0000
,
2000
0000
3200
0000
0340
0000
0000
0030
,
0001
0100
0000
0010
1000
0000
0001
0000
0010
0000
0000
0000
0100
0000
1000
0000
,
0001
0100
0000
0010
1000
0000
0001
0000
0010
0000
0001
0000
1000
0010
0100
0001
,
1000
0100
0010
0001
1000
0010
0100
0001
0010
0100
1000
0001
0100
0010
1000
0001
,
1000
0100
0010
0001
1000
0010
0100
0001
0010
0100
0010
0001
0100
0010
1000
0100
,
1000
0010
0100
0001
1000
0100
0010
0001
0100
0010
1000
0001
0010
0100
1000
0001
,
1000
0010
0100
0001
1000
0100
0010
0001
0100
0010
0100
0001
0010
0100
1000
0001
,
0100
0010
1000
0001
0010
0100
1000
0010
0100
0001
1000
0100
0010
0001
1000
0001
,
0100
0010
1000
0001
0010
0100
1000
0010
0100
0010
1000
0100
0010
0001
0100
0001
,
0010
0100
1000
0001
0100
0010
1000
0100
0010
0001
1000
0010
0100
0001
1000
0001
,
0010
0100
1000
0001
0100
0010
1000
0100
0010
0001
1000
0010
0100
0000
0000
0000
,
0001
0010
0001
1000
0010
1000
0100
0010
0001
0100
0001
1000
0100
1000
0010
0100
,
0001
0010
0001
1000
0010
1000
0100
0010
0001
1000
0001
0100
0010
1000
0100
0010
,
0001
0100
0001
1000
0100
1000
0010
0100
0001
0010
0001
1000
0010
1000
0100
0010
,
0001
0100
0001
1000
0100
1000
0010
0100
0001
1000
0001
0010
0100
1000
0001
1000
,
0010
0100
0001
0010
0001
0100
0010
1000
0100
1000
0001
0100
0001
0010
0100
1000
,
0010
0000
0000
0100
0000
0000
0001
0000
0000
1000
0000
0000
0400
0000
0000
0000
0000
0000
0000
0000
0300
0000
0000
0000
0010
0000
0000
0000
0001
0000
0000
0000
1000
0000
0000
0000
0010
0000
0000
0000
0100
0000
0000
0000
0001
0000
0000
0000
,
1000
0100
1000
0001
0100
0001
0010
0100
1000
0010
1000
0001
0010
0001
0100
0010
,
1000
0100
1000
0001
0100
0001
1000
0001
0010
0100
1000
0001
0400
0000
0000
0300
,
0040
0000
0000
0030
0000
0000
0000
0000
0000
0000
0000
0000
4000
0000
0000
3000
0000
0000
0000
0000
0000
0000
0000
0000
0004
0000
0000
0003
0000
0000
0000
0000
0000
0000
0000
0000
0040
0000
0000
0030
0000
0000
0000
0000
0000
0000
0000
0000
0400
0000
0300
0000
0000
0000
0000
0000
0000
0000
0000
0000
4000
0000
3000
0000
0000
0000
0000
0000
0000
0000
0000
0000
0004
0000
0003
0000
0000
0000
0000
0000
0000
0000
0000
0000
0400
0000
0300
0000
0000
0000
0000
0000
0000
0000
0000
0000
0010
0000
0000
0000
0000
0000
0000
0000
0000
0000
0000
0000
1000
0000
0000
0000
0000
0000
0000
0000
0000
0000
0000
0000
0001
0000
0000
0000
0000
0000
0000
0000
0000
0000
0000
0000
0010
0000
0000
0000
0000
0000
0000
0000
0000
0000
0000
0000
0001
0000
0000
0000
0000
0000
0000
0000
0000
0000
0000
0000
1000
0000
0000
0000
0000
0000
0000
0000
0000
0000
0000
0000
0010
0000
0000
0000
0000
0000
0000
0000
0000
0000
0000
0000
1000
0000
0000
0000
0000
0000
0000
0000
0000
0000
0000
0000
,
0100
0010
0001
0100
0001
1000
0100
1000
0010
0100
0001
0010
0001
1000
0010
1000
,
0100
0010
0001
0100
0001
1000
0100
1000
0010
0100
0001
0010
0001
1000
0010
1000
,
0100
0010
0001
1000
0010
0100
0001
1000
0001
0010
0100
1000
0001
0100
0010
1000
,
0100
1000
0001
0100
0001
0010
0100
1000
0010
1000
0001
0010
0001
0100
0010
1000
,
0100
1000
0001
0100
0001
0010
0100
1000
0010
1000
0001
0010
0001
0100
0010
1000
,
0100
1000
0001
0100
0001
0010
0100
1000
0010
1000
0001
0010
0001
0100
0010
1000
,
0100
0000
0010
0000
0001
0000
1000
0000
0010
0000
0100
0000
0001
0000
1000
0000
0001
0000
0010
0000
0100
0000
1000
0000
0001
0100
0010
1000
0001
0010
0100
1000
,
0001
0100
0010
1000
0001
0010
0100
1000
0001
1000
0010
0100
0001
1000
0100
0010
,
0001
0100
0010
1000
0001
0010
0100
1000
0001
1000
0010
0100
0001
1000
0100
0010
,
0001
0100
0010
1000
0001
0010
0100
1000
0010
0100
0001
1000
0100
0010
0001
1000
,
0010
1000
0001
0010
0100
1000
0001
0100
0001
1000
0100
0010
0001
1000
0010
0100
,
0001
0010
0001
1000
0010
0100
0001
1000
0100
1000
0001
0100
0010
1000
0001
0010
,
0100
1000
0001
1000
0010
0100
0001
1000
0100
0010
0001
0100
0010
1000
0100
0010
,
0001
1000
0010
1000
0001
0010
0100
1000
0001
0100
0001
1000
0100
0010
0001
1000
,
0010
0100
0001
1000
0001
0010
0100
1000
0010
0100
0001
0010
0100
1000
0001
1000
,
0010
0100
0001
1000
0100
0010
0001
1000
0001
0100
0010
1000
0001
0010
0100
1000
,
0001
1000
0010
0100
0001
1000
0100
1000
0001
0100
0010
1000
0001
0010
0100
1000
,
0010
1000
0001
0010
0100
1000
0001
1000
0010
0100
0001
1000
0100
0010
0001
1000
,
0001
0100
0010
1000
0001
0010
0100
1000
0001
0100
0001
0010
0100
1000
0010
1000
,
0001
0010
0001
1000
0010
0100
0001
1000
0001
0010
0100
1000
0001
0100
0010
1000
,
0001
1000
0100
0010
0001
1000
0010
1000
0001
0010
0100
1000
0001
0100
0010
1000
,
0100
1000
0001
0100
0010
1000
0001
1000
0100
0010
0001
1000
0010
0100
0001
1000
,
0001
0010
0100
1000
0001
0100
0001
1000
0100
0010
0001
0100
0010
1000
0100
0010
,
0001
1000
0010
1000
0001
0010
0100
1000
0001
1000
0010
0100
0001
1000
0100
0010
,
0001
1000
0001
0100
0010
1000
0001
0010
0001
1000
0010
0100
0001
1000
0100
0010
,
0001
0100
0001
1000
0100
0010
0001
1000
0001
0100
0010
1000
0001
0010
0100
1000
,
0001
1000
0010
0100
0001
1000
0100
0010
0001
1000
0010
1000
0100
0010
0001
0100
,
0001
1000
0100
1000
0001
0100
0010
1000
0001
1000
0100
0010
0001
1000
0010
0100
,
0001
1000
0001
0010
0100
1000
0010
1000
0002
0003
0020
0030
0200
0300
2000
3000
,
0001
0100
0001
1000
0100
0010
0001
1000
0001
0100
0010
1000
0001
0010
0100
1000
,
0001
0100
0001
0010
0100
1000
0001
1000
0010
0100
0001
0010
0100
1000
0010
0100
,
0010
1000
0001
1000
0100
0010
0001
1000
0010
0100
0001
1000
0100
0010
0001
1000
,
0001
0100
0010
1000
0001
0010
0100
1000
0001
0100
0010
1000
0001
0010
0100
1000
,
0001
1000
0010
0100
0001
1000
0100
0010
0001
1000
0010
0100
0001
1000
0100
0010
,
0001
1000
0001
0100
0010
1000
0001
0010
0100
1000
0001
0100
0010
1000
0100
0010
,
0001
1000
0001
0100
0010
1000
0001
0010
0100
1000
0001
0100
0010
1000
0001
1000
,
0100
0010
0001
1000
0010
0100
0001
1000
0100
0010
0001
1000
0010
0100
0001
1000
,
0001
0010
0100
1000
0001
0100
0010
1000
0001
0010
0100
1000
0001
0100
0010
1000
,
0001
1000
0100
0010
0001
1000
0010
0100
0001
1000
0100
0010
0001
0100
0010
1000
,
0001
0010
0001
1000
0010
0100
0001
1000
0100
0010
0001
0100
0010
1000
0100
0010
,
0001
1000
0001
0100
0010
1000
0100
1000
0010
0100
0001
0010
0100
1000
0010
0100
,
0001
1000
0001
0010
0100
1000
0001
0100
0001
1000
0100
1000
0001
0100
0010
1000
,
0001
1000
0100
0010
0001
1000
0010
0100
0001
0010
0001
0100
0010
1000
0100
1000
,
0010
0100
0001
1000
0100
1000
0001
0100
0010
1000
0100
0010
0001
0100
0010
1000
,
0001
1000
0100
0010
0001
0100
0001
0010
0100
1000
0010
0100
0001
0010
0100
1000
,
0001
1000
0010
0100
0001
1000
0100
1000
0001
0100
0001
1000
0100
0010
0001
1000
,
0001
0100
0010
1000
0001
0010
0100
1000
0010
1000
0100
0010
0001
0100
0010
1000
,
0001
0010
0001
1000
0010
1000
0100
1000
0001
0100
0001
1000
0100
0010
0001
1000
,
0010
1000
0001
0010
0001
0100
0001
1000
0100
0010
0001
0100
0010
1000
0100
0010
,
0001
0100
0001
1000
0100
1000
0010
1000
0001
0010
0001
1000
0010
0100
0001
1000
,
0100
1000
0001
0100
0001
0010
0001
1000
0010
0100
0001
1000
0100
0010
0001
1000
,
0010
1000
0001
0010
0001
0100
0001
1000
0100
1000
0001
0100
0010
1000
0001
0010
,
0001
0000
0000
0000
0000
0000
0000
0000
0000
0000
0000
0000
1000
0000
0000
0000
0000
0000
0000
0000
0000
0000
0000
0000
0010
0000
0000
0000
0000
0000
0000
0000
0000
0000
0000
0000
1000
0000
0000
0000
0000
0000
0000
0000
0000
0000
0000
0000
0004
0000
0000
0003
0000
0000
0000
0000
0000
0000
0000
0000
0040
0000
0000
0030
0000
0000
0000
0000
0000
0000
0000
0000
0400
0000
0000
0300
0000
0000
0000
0000
0000
0000
0000
0000
4000
0000
0000
3000
0000
0000
0000
0000
0000
0000
0000
0000
0001
0000
0000
0000
0000
0000
0000
0000
0000
0000
0000
0000
0000
0000
0000
0000
0100
0000
0000
0000
0000
0000
0000
0000
0000
0000
0000
0000
0000
0000
0000
0000
0010
0000
0000
0000
0000
0000
0000
0000
0000
0000
0000
0000
0000
0000
0000
0000
1000
0000
0000
0000
0000
0000
0000
0000
0000
0000
0000
0000
0000
0000
0000
0000
0001
0000
0000
0000
0000
0000
0000
0000
0000
0000
0000
0000
0000
0000
0000
0000
0010
0000
0000
0000
0000
0000
0000
0000
0000
0000
0000
0000
0000
0000
0000
0000
,
0100
1000
0001
0100
0001
0010
0001
1000
0010
1000
0001
0010
0100
1000
0001
0100
,
0001
0000
0000
0000
0000
0000
0000
0000
0000
0000
0000
0000
1000
0000
0000
0000
0000
0000
0000
0000
0000
0000
0000
0000
0100
0000
0000
0000
0000
0000
0000
0000
0000
0000
0000
0000
1000
0000
0000
0000
0000
0000
0000
0000
0000
0000
0000
0000
0010
0000
0000
0000
0000
0000
0000
0000
0000
0000
0000
0000
1000
0000
0000
0000
0000
0000
0000
0000
0000
0000
0000
0000
0001
0000
0000
0000
0000
0000
0000
0000
0000
0000
0000
0000
0010
0000
0000
0000
0000
0000
0000
0000
0000
0000
0000
0000
0100
0000
0000
0000
0000
0000
0000
0000
0000
0000
0000
0000
1000
0000
0000
0000
0000
0000
0000
0000
0000
0000
0000
0000
0001
0000
0000
0000
0000
0000
0000
0000
0000
0000
0000
0000
0100
0000
0000
0000
0000
0000
0000
0000
0000
0000
0000
0000
0010
0000
0000
0000
0000
0000
0000
0000
0000
0000
1000
0000
0000
0000
0000
0000
0000
0000
0000
0001
0000
0000
0000
0000
0000
0000
0000
0000
0000
0010
0000
0000
0000
0000
0000
0000
0000
0000
0100
0000
0000
0000
0000
0000
0000
0000
0000
0000
,
1000
0001
1000
0010
0100
0001
0010
0100
1000
0010
1000
0001
0010
0001
0100
0001
,
1000
0100
1000
0001
0100
0010
1000
0001
0010
0001
1000
0010
1000
0100
1000
0001
,
0100
0010
1000
0100
0010
0001
0100
0010
1000
0100
1000
0001
0100
0001
0010
0001
,
1000
0010
1000
0001
0010
0100
1000
0001
0100
0001
1000
0100
1000
0010
0100
0001
,
0010
0100
1000
0001
0100
0010
1000
0001
0010
0001
1000
0010
0100
0001
1000
0100
,
0020
0000
0031
0000
1000
0000
0001
0100
0010
0000
1000
0000
0001
0000
0010
0100
,
1000
0000
0000
0001
0000
0000
0100
0010
1000
0000
0001
0010
0001
1000
0010
0100
,
0001
0000
1000
0100
0000
0010
0001
0000
1000
0010
0100
0000
0010
1000
0000
0001
,
0010
0100
1000
0001
0000
0100
0010
0000
1000
0000
0001
0000
1000
0100
0010
0001
,
1000
0010
1000
0001
0010
0000
0100
1000
0001
0000
0100
0000
0020
0000
0130
0000
,
0001
1000
0100
0010
0000
0000
0001
0000
0100
0000
0010
1000
0001
0010
0001
1000
,
0010
0000
0100
0001
1000
0000
0100
0010
0001
0000
1000
0010
1000
0001
0010
0100
,
1000
0000
0001
0100
0010
0000
1000
0100
0010
0001
0000
1000
0020
0000
0030
0000
,
0100
0001
1000
0000
0100
0010
0001
0000
0100
0000
0010
0000
1000
0000
0001
0000
,
1000
0000
0100
0000
0010
0001
1000
0010
0100
0000
0010
1000
0001
0010
0100
1000
,
0010
0000
0100
0001
0000
1000
0100
0000
0010
0001
1000
0001
0100
0010
1000
0001
,
0010
0100
1000
0001
0100
0001
1000
0100
1000
0001
0100
0001
1000
0100
0010
0001
,
0100
0010
1000
0001
0010
0000
0100
1000
0001
0100
0010
1000
0001
0020
0000
0030
,
0100
0000
1000
0000
0001
0100
0010
1000
0001
0000
1000
0100
0010
0001
1000
0010
,
0100
0001
1000
0200
0000
0300
0010
0000
0001
0000
1000
0000
0001
0100
0010
1000
,
0002
0003
0010
0100
1000
0001
0100
0010
4000
0000
0000
0000
0000
0000
3000
0000
,
0001
0100
0010
1000
0001
0010
0001
1000
0010
0100
0001
0010
0100
1000
0010
1000
,
0001
0010
0100
1000
0001
0100
0001
0010
0100
1000
0001
0100
0001
1000
0100
0010
,
0001
0100
0010
1000
0001
0010
0001
1000
0010
0100
0001
1000
0100
1000
0001
0100
,
0010
1000
0001
0010
0100
1000
0001
1000
0010
0100
0001
0010
0100
1000
0010
0100
,
0001
1000
0001
0010
0100
1000
0010
1000
0001
0010
0001
0100
0010
1000
0100
1000
,
0001
0100
0010
1000
0001
1000
0100
0010
0001
0100
0001
0010
0100
1000
0001
0100
,
0010
1000
0100
1000
0010
0100
0001
0010
0001
1000
0010
1000
0100
0010
0001
0100
,
0001
1000
0100
0010
0001
0100
0010
1000
0100
1000
0001
0100
0001
0010
0100
1000
,
0010
1000
0100
0010
0001
1000
0010
0100
0001
0010
0001
0100
0010
1000
0100
0010
,
0001
0100
0001
0010
0100
1000
0001
0100
0010
1000
0100
1000
0010
0100
0001
0010
,
0100
1000
0001
1000
0010
0100
0001
1000
0001
0010
0100
1000
0001
0100
0010
1000
,
0100
0010
0001
1000
0010
0100
0001
1000
0001
0010
0100
1000
0001
0100
0010
1000
,
0100
1000
0010
0100
0001
1000
0100
0010
0001
0100
0001
0010
0100
1000
0010
0100
,
0001
0010
0001
0100
0010
1000
0001
0010
0100
1000
0010
1000
0100
0010
0001
0100
,
0010
1000
0001
1000
0100
0010
0001
1000
0010
0100
0001
1000
0001
0010
0100
1000
,
0010
0100
0001
1000
0100
0010
0001
1000
0001
0100
0010
1000
0400
0000
0300
0000
,
0010
0001
0100
0010
1000
0001
0010
0100
1000
0010
1000
0100
0010
0001
0100
0010
,
1000
0100
1000
0010
0100
0001
1000
0100
0010
0001
0100
0001
0010
0100
1000
0010
,
0100
0001
1000
0001
0010
0100
1000
0001
1000
0010
0100
0001
1000
0100
0010
0001
,
0100
0010
1000
0001
0010
0100
1000
0001
1000
0010
0100
0001
1000
0100
0010
0001
,
0100
0001
0010
0100
1000
0001
0100
0010
1000
0100
1000
0010
0100
0001
0010
0100
,
1000
0010
1000
0100
0010
0001
1000
0010
0100
0001
0010
0001
0100
0010
1000
0100
,
0010
0001
1000
0001
0100
0010
1000
0001
0010
0100
1000
0001
1000
0010
0100
0001
,
0010
0100
1000
0001
0100
0010
1000
0001
1000
0100
0010
0001
1000
0010
0100
0001
,
1000
0100
0010
0001
1000
0001
0100
0010
0100
0001
1000
0100
0010
0001
1000
0001
,
0100
0010
1000
0001
1000
0100
0010
0100
1000
0010
1000
0001
0010
0100
1000
0001
,
1000
0010
0100
0001
1000
0001
0010
0100
0010
0001
1000
0010
0100
0001
1000
0001
,
0010
0100
1000
0001
1000
0010
0100
0010
1000
0100
1000
0001
0100
0001
0010
0100
,
1000
0010
1000
0001
0010
0001
1000
0010
0100
0001
1000
0100
1000
0010
0100
0001
,
0010
0001
1000
0010
1000
0001
0010
0100
1000
0010
1000
0001
0010
0001
0100
0010
,
1000
0100
1000
0001
0100
0001
1000
0100
0010
0001
1000
0010
1000
0001
0010
0001
,
1000
0010
0100
0001
1000
0100
0010
0001
1000
0010
0100
0001
1000
0100
0010
0001
,
1000
0010
0100
0001
1000
0100
0010
0001
1000
0010
0100
0001
1000
0100
0010
0001
,
0100
0010
1000
0100
0010
0001
0100
0010
1000
0100
0010
0001
0100
0010
1000
0100
,
0010
0001
0100
0010
1000
0100
0010
0001
0100
0010
1000
0100
0010
0001
0100
0010
,
1000
0100
0010
0001
0100
0010
1000
0100
0010
0001
0100
0010
1000
0100
0010
0001
,
0100
0010
1000
0100
0010
0001
0100
0010
1000
0100
0010
0001
0100
0010
1000
0100
,
0010
0001
0100
0010
1000
0100
0010
0001
0100
0010
1000
0100
0010
0001
0100
0010
,
1000
0100
0010
0001
0100
0010
1000
0100
0010
0001
0100
0010
1000
0100
0010
0001
,
0100
0010
1000
0100
0010
0001
0100
0010
1000
0100
0010
0001
0100
0010
1000
0100
,
0010
0001
0100
0010
1000
0100
0010
0001
0100
0010
1000
0100
0010
0001
0100
0010
,
1000
0100
0010
0001
0100
0010
1000
0100
0010
0001
0100
0010
1000
0100
0010
0001
,
0100
0010
1000
0100
0010
0001
0100
0010
1000
0100
0010
0001
0100
0010
1000
0100
,
0010
0001
0100
0010
1000
0100
0010
0001
0100
0010
1000
0100
0010
0001
0100
0010
,
1000
0100
0010
0001
0100
0010
1000
0100
0010
0001
0100
0010
1000
0100
0010
0001
,
0100
0010
1000
0100
0010
0001
0100
0010
1000
0100
0010
0001
0100
0010
1000
0100
,
0010
0001
0100
0010
1000
0100
0010
0001
0100
0010
1000
0100
0010
0001
0100
0010
,
1000
0100
0010
0001
0100
0010
1000
0100
0010
0001
0100
0010
1000
0100
0010
0001
,
0100
0010
1000
0100
0010
0001
0100
0010
1000
0100
0010
0001
0100
0010
1000
0200
,
0300
0000
0000
0000
;
