#VERSION:0.83;
#TITLE:アンチ・レゾナンス;
#SUBTITLE:;
#ARTIST:REZQ;
#TITLETRANSLIT:Anti-resonance;
#SUBTITLETRANSLIT:;
#ARTISTTRANSLIT:;
#GENRE:;
#CREDIT:NAOKI;
#MUSIC:anti-resonance.ogg;
#BANNER:anti-resonance-bn.png;
#BACKGROUND:anti-resonance-bg.png;
#CDTITLE:naokicdtitle.png;
#SAMPLESTART:42.418;
#SAMPLELENGTH:14.453;
#SELECTABLE:YES;
#OFFSET:-0.812;
#BPMS:0.000=137.000;
#STOPS:;
#SPEEDS:0.000=0.250=0.250=0,
0.021=0.500=0.250=0,
0.125=0.250=0.250=0,
7.333=0.125=0.250=0,
7.583=0.250=0.250=0,
8.000=0.500=0.250=0,
8.125=0.250=0.250=0,
12.000=1.000=3.500=0,
45.833=0.500=0.000=0,
46.813=1.000=1.000=0,
88.021=0.010=0.000=0,
88.063=2.500=1.470=0,
89.521=0.010=0.000=0,
89.563=1.000=1.470=0,
124.000=0.500=0.000=0,
126.000=1.000=1.000=0
;
#SCROLLS:0.000=0.000,
12.000=1.000,
12.313=0.000,
12.396=1.500,
12.500=0.000,
12.667=1.500,
12.813=0.000,
12.896=1.500,
13.000=0.000,
13.229=1.500,
13.500=0.000,
13.750=1.500,
14.000=0.000,
14.063=1.500,
14.146=0.000,
14.208=1.500,
14.292=0.000,
14.333=1.500,
14.375=0.000,
14.438=1.500,
14.500=0.000,
14.646=1.500,
14.813=0.000,
14.896=1.500,
15.000=1.001,
15.500=1.000,
45.854=1000.000,
45.875=0.000,
46.833=1.000,
88.000=8.000,
88.083=99999.000,
88.125=1.000,
89.500=8.000,
89.583=99999.000,
89.625=1.000,
124.000=1000.000,
124.021=0.000,
126.021=1.000
;
#ATTACKS:TIME=1.031:LEN=0.040:MODS=*40000 50% stealth :TIME=1.073:LEN=0.004:MODS=*14.10625 21.09375% stealth :TIME=1.114:LEN=0.040:MODS=*7.24375 6.25% stealth :TIME=1.156:LEN=0.040:MODS=*2.66875 0.78125% stealth :TIME=1.177:LEN=0.010:MODS=*0.38125 0% stealth :TIME=1.469:LEN=0.040:MODS=*40000 50% stealth :TIME=1.510:LEN=0.004:MODS=*14.10625 21.09375% stealth :TIME=1.552:LEN=0.040:MODS=*7.24375 6.25% stealth :TIME=1.594:LEN=0.040:MODS=*2.66875 0.78125% stealth :TIME=1.614:LEN=0.010:MODS=*0.38125 0% stealth :TIME=115.771:LEN=0.040:MODS=*40000 50% stealth :TIME=115.813:LEN=0.004:MODS=*14.10625 21.09375% stealth :TIME=115.854:LEN=0.040:MODS=*7.24375 6.25% stealth :TIME=115.896:LEN=0.040:MODS=*2.66875 0.78125% stealth :TIME=115.917:LEN=0.010:MODS=*0.38125 0% stealth :TIME=116.208:LEN=0.040:MODS=*40000 50% stealth :TIME=116.250:LEN=0.004:MODS=*14.10625 21.09375% stealth :TIME=116.292:LEN=0.040:MODS=*7.24375 6.25% stealth :TIME=116.333:LEN=0.040:MODS=*2.66875 0.78125% stealth :TIME=116.354:LEN=0.010:MODS=*0.38125 0% stealth :TIME=123.450:LEN=1.310:MODS=NoHideLights, Hidden, Overhead :TIME=123.450:LEN=1.310:MODS=NoHideLights, Hidden, Overhead :TIME=137.667:LEN=0.040:MODS=*40000 50% stealth :TIME=137.708:LEN=0.004:MODS=*14.10625 21.09375% stealth :TIME=137.750:LEN=0.040:MODS=*7.24375 6.25% stealth :TIME=137.792:LEN=0.040:MODS=*2.66875 0.78125% stealth :TIME=137.813:LEN=0.010:MODS=*0.38125 0% stealth :TIME=138.104:LEN=0.040:MODS=*40000 50% stealth :TIME=138.146:LEN=0.004:MODS=*14.10625 21.09375% stealth :TIME=138.188:LEN=0.040:MODS=*7.24375 6.25% stealth :TIME=138.229:LEN=0.040:MODS=*2.66875 0.78125% stealth :TIME=138.250:LEN=0.010:MODS=*0.38125 0% stealth
;
#FAKES:12.000=3.500,
20.479=0.042,
21.479=0.042,
64.229=0.042,
68.229=0.042,
92.229=0.042,
156.354=0.042,
158.146=0.042,
159.146=0.042,
220.229=0.042
;
#JACKET:anti-resonance-jacket.png;
#DISCIMAGE:;
#CDIMAGE:;
#BGCHANGES:;
#FGCHANGES:;

//--------------- dance-single - XMod RH FS BR XO- ----------------
#NOTEDATA:;
#STEPSTYPE:dance-single;
#DESCRIPTION:XMod RH FS BR XO-;
#DIFFICULTY:Challenge;
#METER:11;
#RADARVALUES:0,0,0,0,0;
#CHARTNAME:;
#CHARTSTYLE:;
#CREDIT:;
#METERF:11;
#NOTES:
0000
0000
0000
0000
,
0000
0000
0000
0000
,
0000
0000
0000
0000
,
0000
0000
0000
0000
0000
0000
0000
0000
0000
0000
0000
0000
0000
0000
0000
00M0
0000
0000
0000
0000
0000
0000
0000
0000
00M0
0000
0000
0000
0000
0000
0000
0000
0000
0000
0000
0000
0000
0000
0000
00M0
0000
0000
0000
0000
0000
0000
0000
0000
00M0
0000
0000
0000
0000
0000
0000
0000
0000
0000
0000
0000
0000
0000
0000
0000
0000
0000
0000
0000
0000
0000
0000
0000
00M0
0000
0000
0000
0000
0000
0000
0000
0000
0000
0000
0000
0000
0000
0000
0000
0000
0000
0000
0000
0000
0000
0000
0000
00M0
0000
0000
0000
0000
0000
0000
00M0
0000
0000
0000
0000
0000
0000
00M0
0000
0000
0000
00M0
0000
0000
0000
0000
0000
00M0
0000
0000
0000
0000
0000
0000
0000
0000
0000
0000
0000
0000
0000
0000
00M0
0000
0000
0000
0000
0000
0000
0000
0000
0000
0000
0000
0000
0000
0000
0000
0000
0000
0000
0000
0000
0000
0000
0000
0000
0000
0000
0000
0000
0000
0000
0000
0000
00M0
0000
0000
0000
0000
0000
0000
0000
0000
0000
0000
0000
0000
0000
0000
0000
0000
0000
0000
0000
0000
0000
0000
0000
,
1000
0000
0000
0001
0000
0000
0010
0000
0100
1000
0000
0001
0100
0000
0010
1000
0000
0001
0010
0000
0101
0000
0000
0000
,
1010
0000
0100
00M0
0100
0000
0001
0000
0100
00M0
0100
0000
1000
0000
0000
0020
0000
0000
0130
0001
0100
0001
0000
0000
,
0020
0000
0000
0000
0130
0000
0000
0000
0000
1000
0000
0000
0020
0000
0000
0030
0200
0000
0000
0300
0000
1001
0000
0000
,
0001
0000
0000
0000
0000
0000
0000
0000
0000
0000
0000
0000
0100
0000
0000
0000
0000
0000
0000
0000
0000
0000
0000
0000
0010
0000
0000
0000
0000
0000
0000
1000
0000
0000
0000
0000
0000
0000
0000
0000
0000
0000
0100
0000
0000
0000
0000
0000
0000
0000
0000
0000
0000
0000
0000
0000
0000
0000
0000
0000
0010
0000
0000
0000
0000
0000
0000
0000
0000
0000
0000
0000
0001
0000
0000
0000
0000
0000
0000
0000
0000
0000
0000
0000
1000
0000
0000
0000
0010
0000
0000
0000
1000
0000
0000
0000
,
0010
0000
0100
0001
0000
0000
1000
0000
0100
0000
0000
0010
0001
0000
0000
1000
0000
0010
0000
0000
0100
0001
0000
0010
,
0000
0000
0100
1000
0000
0000
0010
0000
0000
0100
0000
0001
0000
0000
1000
0100
0000
0010
0100
0000
1000
0001
0000
0100
,
0020
0000
0000
1030
0000
0000
0100
0000
0020
0000
0000
0000
0031
0000
0000
0100
0000
0010
0000
0000
1000
0001
0000
0000
,
0010
0000
0000
0010
0000
0000
0100
0000
1000
0000
0000
1001
0000
0000
0000
0000
0000
0000
0000
0000
0000
0000
0000
0000
,
0001
0000
0100
0001
0000
1000
0100
0000
1000
0001
0000
0100
0020
0000
0000
0130
0000
0001
0000
0000
1000
0100
0000
1000
,
0001
0000
0000
0100
0000
0000
0010
0000
1000
0001
0000
0000
0020
0000
0000
0130
0000
1000
0000
0000
0001
0100
0000
0010
,
1000
0000
0000
0001
0000
0010
0001
0000
1000
0010
0000
1000
0001
0000
0010
0001
0000
0100
0000
0000
0010
1000
0000
0000
,
0001
0000
0010
0100
0000
0010
0001
0000
1000
0010
0000
0100
0001
0000
1000
0000
0000
0200
0000
0000
0310
0001
0000
0000
,
0100
0000
0000
00M0
0000
0000
0100
0000
0000
0000
0000
0000
1000
0000
0000
0000
0001
0000
0000
0000
0000
0000
0102
0000
0000
0000
0000
0000
0000
0000
0103
0000
0000
0000
0000
0000
0010
0000
0000
0000
1000
0000
0000
0000
0000
0000
0000
0000
,
0100
0000
0000
00M0
0000
0000
0100
0000
0000
0000
0000
0000
0001
0000
0000
0000
1000
0000
0000
0000
0000
0000
2100
0000
0000
0000
0000
0000
0000
0000
3100
0000
0000
0000
0000
0000
0010
0000
0000
0000
0001
0000
0000
0000
0000
0000
0200
0000
,
0000
0310
1000
0001
0010
0100
1000
0001
,
0200
0000
0000
0310
0000
1000
0001
0000
0000
0010
0000
0000
0200
0000
0000
0310
0000
0000
0001
0000
1000
0010
0000
1000
,
0002
0000
0000
0010
0000
0000
2003
0000
0000
0010
0000
0000
3002
0000
0000
0000
0000
0013
0000
0000
0000
0100
0000
0000
,
2000
0000
0000
0010
0000
0000
3002
0000
0000
0010
0000
0000
2003
0000
0000
0000
0000
3010
0000
0000
0000
1000
0000
0000
,
1001
0000
0000
0110
0000
0000
0001
1000
,
0010
0000
0000
0M00
0000
0000
0010
0000
0000
0000
0000
0000
0001
0000
0000
0000
1000
0000
0010
0000
0000
0100
0000
0000
0000
0000
0000
0000
0001
0000
1000
0000
0000
0000
0000
0000
0200
0000
0000
0000
0000
0000
0000
0000
0000
0300
0000
0000
,
2010
0000
0000
3001
0000
0000
1000
0000
0010
0000
0000
0200
0000
0000
0000
1300
0000
0000
0100
0000
0000
0002
0000
0000
,
0010
0000
0000
2003
0000
0000
3010
0000
0100
0000
0000
0002
0000
0000
0000
0013
0000
0100
1000
0000
0001
0100
0000
0000
,
0010
0000
0000
0100
0000
0000
0001
0000
1000
0000
0000
0100
0000
0000
0010
0000
0000
0001
1000
0000
0001
0100
0000
0000
,
0010
0000
0000
1000
0000
0100
0000
0000
0010
0000
0000
1000
0000
0000
0010
0001
0000
0000
0200
0000
0000
0000
0000
0300
,
0012
0000
0000
1003
0000
0000
0001
0000
0010
0000
0000
0100
0000
0000
0010
0001
0000
0000
1000
0000
0000
0010
0000
0000
,
0100
0000
0000
0010
0000
0000
1000
0000
0001
0000
0000
0020
0000
0000
0000
0130
0000
0000
0010
0000
0001
1000
0000
0000
,
2010
0000
0000
0000
0000
0000
3010
0000
0000
0000
0000
0000
0100
0000
0000
0000
0001
0000
1000
0000
0000
0000
0000
0000
2100
0000
0000
0000
0000
0000
0000
0000
0000
3002
0000
0000
0000
0000
0000
0000
0000
0000
0103
0000
0000
0000
0000
0000
,
0110
0000
0000
0000
,
0002
0000
0000
1003
0000
0000
0001
0000
0010
0000
0000
0100
2000
0000
3000
0100
0000
2000
0000
3000
0100
2000
0000
3001
,
0000
0000
0100
0010
0000
0000
0100
0000
0001
1000
0000
0100
0010
0000
0000
0001
0000
0000
0100
0000
0010
1000
0000
0001
,
0020
0000
0000
0130
0000
0000
1000
0000
0010
0000
0000
0100
0002
0000
0003
0100
0000
0002
0000
0003
0100
0002
0000
1003
,
0010
0100
0001
1000
0000
0000
1000
0000
0000
0001
0000
0000
0012
0000
0000
0000
0000
0000
2100
0000
0000
3003
0000
0000
,
2001
0000
0000
0000
3000
0001
0100
0000
0010
1000
0000
0001
0010
0000
0100
1000
0000
0000
0010
0000
0100
0001
0000
0000
,
0010
0000
0000
0010
0000
0000
0100
0000
1000
0010
0000
1000
0001
0000
0000
0010
0000
0100
1000
0000
0000
1010
0000
0000
,
0001
0000
0010
0000
0000
0100
1000
0000
0001
0100
0000
0010
1000
0000
0001
1000
0000
0100
0010
0000
0001
0100
0000
0001
,
1000
0000
0000
0000
0000
0000
0100
0000
0000
00M0
0000
0000
0100
0000
0000
0000
0000
0000
0100
0000
0000
0000
0000
0000
2000
0000
0000
0000
0000
0000
0000
0000
0000
0000
0000
0000
3002
0000
0000
0000
0000
0000
0000
0000
0000
0000
0000
0000
0103
0000
0000
0000
00M0
0000
0000
0000
0100
0000
0000
0000
1000
0000
0000
0000
0000
0000
0000
0000
0001
0000
0000
0000
0100
0000
0000
0000
00M0
0000
0000
0000
0100
0000
0000
0000
1000
0000
0000
0000
0000
0000
0000
0000
0001
0000
0000
0000
,
1100
0000
0000
0000
0000
0000
0010
0000
0000
0100
0000
0000
0101
0000
0000
0000
0000
1001
0000
0000
1100
0000
0000
0100
,
0010
0011
1001
0101
0110
1010
1001
1100
,
1000
0000
0100
1000
0000
0001
1000
0000
0010
1000
0000
0001
0010
0000
0001
1000
0000
0001
0200
0000
0000
0000
0000
0300
,
0010
1000
0001
1000
0100
0010
0001
1000
0001
0100
0010
0100
0001
0000
1000
0100
0000
0000
2002
0000
0000
3003
0000
0000
,
1000
0000
0000
0010
0000
0000
0100
0000
0001
1000
0000
0100
0010
0000
0001
1000
0000
0001
0200
0000
0000
0310
0000
1000
,
0001
0000
0000
0010
0000
0000
0100
0000
1000
0001
0000
1000
0010
0000
0100
0001
0000
0000
0020
0000
0000
0130
0000
1000
,
0001
0000
0100
0010
0000
0000
0100
0000
0001
1000
0000
0001
0010
0000
0100
1000
0000
0010
0000
0000
0100
0001
0000
0000
,
0020
0000
0000
0130
0000
1000
0020
0000
0000
0130
0000
0001
0020
0000
0000
0130
0000
0000
1200
0000
0000
0310
0000
0010
,
0002
0000
0000
1000
0000
0000
0103
0000
0000
0010
0000
0000
1000
0000
0000
0100
0000
0000
0010
0000
0001
0000
0000
0100
,
0000
0000
0010
1000
0001
0010
0100
0000
1000
0000
0001
0100
0000
0010
0000
0000
,
1000
0000
0100
0010
0000
0000
0001
0000
0000
0100
0000
0000
0010
0000
0000
1000
0000
0000
0100
0000
0000
0010
0000
0000
,
0002
0000
0000
1000
0000
0000
0103
0000
0000
0010
0000
0000
0100
0000
0001
0000
0000
0000
1000
0000
0000
1000
0000
0000
,
2001
0000
0000
0100
0000
0000
3002
0000
0000
0100
0000
0000
2003
0000
0000
0000
0000
3100
0000
0000
0010
0001
0000
0000
,
1002
0100
2003
0100
3002
0000
0103
0001
,
1010
0001
0100
0011
1000
0100
0010
0001
,
0100
0000
0000
00M0
0000
0000
0100
0000
0000
0000
0000
0000
1000
0000
0000
0000
0010
0000
0000
0000
0000
0000
0120
0000
0000
0000
0000
0000
0000
0000
0130
0000
0000
0000
0001
0000
2000
0000
0000
0000
0000
0000
0000
0000
0000
0000
3000
0000
,
0012
0000
0000
1003
0000
0000
0001
0000
0010
0000
0000
0200
0000
0000
0000
0301
0000
0000
0100
0000
0000
2000
0000
0000
,
0010
0000
0000
3002
0000
0000
0013
0000
0100
0000
0000
2000
0000
0000
0000
3010
0000
0100
0001
0000
1000
0100
0000
0000
,
0010
0000
0000
0100
0000
0000
1000
0000
0001
0000
0000
0100
0000
0000
0010
0000
0000
1000
0001
0000
1000
0100
0000
0000
,
0010
0000
0000
0001
0000
0100
0000
0000
0010
0000
0000
0001
0000
0000
0010
1000
0000
0000
0200
0000
0000
0000
0000
0300
,
2010
0000
0000
0000
0000
0000
3001
0000
0000
0000
0000
0000
1000
0000
0000
0000
0010
0000
0000
0000
0000
0000
0100
0000
0000
0000
0000
0000
0010
0000
1000
0000
0000
0000
0000
0000
0001
0000
0000
0010
0000
0000
0100
0000
0000
1000
0000
0000
,
0001
0000
0000
1000
0000
0000
0010
0000
0100
0000
0000
0002
0000
0000
0000
0013
0000
0000
0100
0000
1000
0001
0000
0000
,
0012
0000
0000
0013
0000
0000
0100
0000
1000
0001
0000
0000
0102
0000
0000
0000
0000
2003
0000
0000
0000
3100
0000
0000
,
0110
0000
0000
0000
,
2001
0000
0000
0000
0000
3010
0000
0000
0100
0000
0000
0010
1000
0000
0000
0001
0000
0010
0000
0000
0100
0000
0000
0010
,
0001
0000
0000
1000
0000
0000
0001
0000
0100
0000
0000
0010
0000
0000
0000
1100
0000
0000
0001
0000
0000
1100
0000
0000
,
0002
0000
0000
0000
0000
0013
0000
0000
0100
0000
0000
0010
0001
0000
0000
1000
0000
0010
0000
0000
0100
0002
0000
0000
,
0010
2003
3020
0230
0302
1000
0013
0000
,
1002
0000
0000
0000
0000
0103
0000
0000
0010
0000
0000
0100
0001
0000
0000
1000
0000
0100
0000
0000
0010
0000
0000
0001
,
0100
0000
0000
0010
0000
0000
1000
0000
0100
0000
0000
0010
0001
0000
0000
0100
0000
0000
0010
0000
0000
1000
0000
0000
,
0100
0100
0100
0100
,
0010
0000
0000
0001
0000
0000
0010
0000
0000
0001
0000
0000
1000
0000
0000
0001
0000
0000
0100
0000
0000
0010
0000
0000
1000
0000
0001
0000
1000
0000
0001
0000
1000
0000
0001
0000
0020
0000
0000
0000
0000
0000
0030
0000
0000
0000
0000
0000
,
0002
0000
0000
0100
0000
0000
2003
0000
0000
0100
0000
0000
3001
0000
0000
1000
0000
0010
0000
0000
0100
0001
0000
1000
,
0001
0000
0010
0001
0000
1000
0010
0000
1000
0001
0000
1000
0100
0000
0010
0001
0000
1000
0010
0000
0100
0001
0000
0000
,
1000
0000
0000
0100
0000
0000
0010
0000
0000
0001
0000
0000
0100
0000
0000
0010
0000
1000
0100
0000
1000
0001
0000
1000
,
0010
0100
0010
1000
0000
0000
0001
0000
0010
0000
0000
0110
0000
0000
0000
0100
0000
1000
0002
0000
0000
0000
0000
0000
,
0103
0000
0010
1000
0100
0010
0001
0100
0010
1000
0001
0010
0100
1000
0001
0100
,
0001
1000
0100
0010
0001
1000
0010
0100
0001
0010
0100
1000
0001
0100
0010
1000
,
0100
0000
0010
0000
0100
0000
0010
0000
0002
0000
0000
0103
0000
0000
0010
0000
,
1000
0000
0000
0000
0001
0000
0010
0000
0000
0000
0000
0000
0100
0000
0000
0000
0000
0000
1000
0000
0000
0000
0000
0000
0011
0000
0000
0000
0000
0000
0000
0000
0000
1100
0000
0000
0000
0000
0000
0000
0000
0000
2002
0000
0000
0000
0000
0000
,
0000
3003
0000
0000
0000
0000
0000
0000
;
