#TITLE:Alice-D Agenda;
#SUBTITLE:;
#ARTIST:Technical Hitch & Dark Whisper;
#TITLETRANSLIT:;
#SUBTITLETRANSLIT:;
#ARTISTTRANSLIT:;
#GENRE:;
#CREDIT:NAOKI;
#MUSIC:Technical Hitch & Dark Whisper - Alice-D Agenda.ogg;
#BANNER:Alice-D-Agenda-bn.png;
#BACKGROUND:Alice-D-Agenda-bg.png;
#CDTITLE:naokicdtitle.png;
#SAMPLESTART:298.563;
#SAMPLELENGTH:9.600;
#SELECTABLE:YES;
#OFFSET:0.237;
#BPMS:0.000=200.000;
#STOPS:;
#BGCHANGES:0.237=alice-d-agenda-video.avi=1.000=0=0=0=StretchNoLoop====,
99999.000=-nosongbg-=1.000=0=0=0=StretchNoLoop====
;
#FGCHANGES:;

//--------------- dance-single - N@OKI Mad Pattern 15/46/72*/139* ----------------
#NOTES:
     dance-single:
     N@OKI Mad Pattern 15/46/72*/139*:
     Challenge:
     18:
     0,0,0,0,0:
0000
0000
0000
0000
,
1000
0010
0100
0001
1000
0100
0010
0001
1000
0010
0100
0001
1000
0100
1000
0001
,
0100
0010
1000
0001
0010
0100
1000
0001
0100
0010
1000
0001
0010
0100
1000
0001
,
1000
0010
0100
0001
1000
0100
0010
0001
0100
0001
1000
0001
0010
0100
1000
0001
,
0100
0010
1000
0001
0010
0001
1000
0010
0100
0001
2000
0000
3000
0000
0000
0000
,
0001
0010
0100
1000
0001
0100
0010
1000
0001
0010
0100
1000
0001
0100
0001
1000
,
0100
0010
0001
1000
0010
1000
0001
1000
0100
0010
0001
1000
0001
0100
0001
1000
,
0100
0010
0001
1000
0010
0100
0001
1000
0100
0010
0001
1000
0010
0100
0001
1000
,
0100
1000
0010
1000
0001
0010
0100
0010
0001
1000
0010
1000
0100
1000
0001
0010
,
0001
0100
0010
1000
0001
0010
0001
1000
0010
0100
0010
1000
0001
0010
0100
1000
,
0001
1000
0010
0100
0001
1000
0100
1000
0001
0100
0010
0100
0001
1000
0100
0010
,
0001
0100
0010
1000
0001
0010
0100
0010
0001
1000
0010
1000
0001
0010
0100
1000
,
0010
0100
0001
1000
0100
0010
0100
1000
0001
0100
0001
1000
0100
0010
0001
1000
,
0001
0100
0010
1000
0001
0010
0100
0010
0001
1000
0010
1000
0001
0010
0100
1000
,
0001
1000
0010
0100
0001
1000
0100
1000
0001
0100
0010
0100
0001
1000
0100
0010
,
0001
0100
0001
0100
0010
1000
0010
1000
0100
1000
0100
0010
0001
0010
0002
0003
,
0000
0000
0000
0000
0000
0000
0M00
0000
0000
0000
0000
0000
0M00
0000
0000
0000
0M00
0000
0000
0000
0M00
0000
0000
0000
0M00
0000
0000
0M00
0000
0000
0M00
0000
0000
0M00
0000
0000
0M00
0000
0000
0M00
0000
0000
0M00
0000
0000
0M00
0000
0000
,
0001
0100
0010
1000
0001
0010
0001
1000
0010
0100
0001
1000
0100
1000
0001
0100
,
0010
1000
0100
0010
0100
1000
0001
0100
0010
1000
0010
0100
0001
1000
0100
0010
,
0100
1000
0001
0100
0010
1000
0010
0100
0001
1000
0100
0010
0100
1000
0001
0100
,
0010
1000
0010
0100
0001
1000
0100
0010
0100
1000
0001
0100
0010
1000
0001
0010
,
0100
0010
0001
1000
0001
0100
0010
1000
0100
0010
0100
1000
0010
0100
0001
1000
,
0001
0010
0100
1000
0010
0100
0010
1000
0100
0010
0001
1000
0001
0100
0010
1000
,
0100
0010
0100
1000
0010
0100
0001
1000
0001
0010
0100
1000
0010
0100
0001
1000
,
0100
0010
0001
1000
0010
0100
0010
1000
0001
0010
0001
0100
0010
1000
0100
1000
,
0010
0100
0001
1000
0100
0010
0001
1000
0010
0100
0010
1000
0001
0010
0100
1000
,
0001
0100
0001
1000
0001
0010
0001
1000
0010
0100
0001
1000
0100
0010
0001
1000
,
0001
0100
0010
1000
0100
1000
0010
0100
0001
0010
0100
1000
0001
0100
0010
1000
,
0100
0010
0001
1000
0010
0100
0010
0100
0001
0010
0001
0100
0010
1000
0100
1000
,
0010
0100
0001
0100
0010
1000
0010
1000
0001
0010
0100
1000
0100
0010
0001
1000
,
0010
0100
0001
1000
0100
0010
0100
1000
0001
0100
0010
0100
0001
0010
0001
1000
,
0010
0000
0000
0000
0000
0000
0000
0000
0000
0000
0000
0000
0000
0000
0000
0000
0200
0300
0000
0000
0010
0000
0000
0000
1000
0000
0000
0000
0200
0300
0000
0000
1000
0000
0000
0000
0010
0000
0000
0000
0200
0300
0000
0000
0010
0000
0000
0000
1000
0000
0000
0000
0200
0300
0000
0000
1000
0000
0000
0000
0010
0000
0000
0000
,
0100
0001
1000
0100
0010
0001
0010
0001
0100
0001
0100
0010
1000
0010
0100
0001
,
0010
0100
1000
0010
1000
0100
0010
0001
0100
0010
0100
0001
1000
0100
0010
0001
,
0100
0001
0010
0100
1000
0010
1000
0001
0010
0100
1000
0010
0100
0010
1000
0001
,
0010
0100
0010
0001
1000
0010
0100
0001
0010
0100
1000
0010
1000
0100
0010
0001
,
0100
0001
0010
0001
1000
0100
1000
0010
1000
0001
0100
0001
0010
0001
1000
0010
,
1000
0100
0010
0001
0100
0001
0010
0100
1000
0010
0100
0001
1000
0100
1000
0001
,
0100
0000
0000
0000
0020
0030
0000
0000
0100
0000
0000
0000
0001
0000
0000
0000
0020
0030
0000
0000
0001
0000
0000
0000
0100
0000
0000
0000
0020
0030
0000
0000
0100
0000
0000
0000
0001
0000
0000
0000
0020
0030
0000
0000
0001
0000
0000
0000
0100
0000
0000
0000
0010
0000
0000
0000
0100
0000
0000
0000
0001
0000
0000
0000
,
1000
0100
1000
0010
0100
0001
0010
0001
0100
0010
1000
0100
1000
0001
1000
0010
,
0100
0010
1000
0001
0010
0100
1000
0001
0100
0010
1000
0010
1000
0100
1000
0100
,
0010
0001
1000
0001
0100
0010
1000
0001
0010
0001
0100
0010
1000
0100
1000
0010
,
0100
0001
0010
0100
1000
0010
0100
0001
0010
0001
0100
0010
1000
0001
1000
0100
,
0010
0001
1000
0010
0100
0001
1000
0100
1000
0001
0100
0010
1000
0010
0100
0001
,
1000
0100
0010
0001
0010
0100
1000
0001
0100
0010
1000
0010
0100
0001
1000
0100
,
0010
0001
0100
0010
1000
0001
0010
0100
1000
0001
1000
0010
1000
0001
0010
0100
,
1000
0001
0100
0001
1000
0001
0010
0100
1000
0001
0100
0001
1000
0100
0010
0001
,
1000
0010
1000
0001
0010
0100
0010
0001
1000
0010
0100
0001
1000
0100
1000
0001
,
0100
0000
0000
0000
0010
0000
0000
0000
4000
3000
0000
0000
0001
0000
0000
0000
0010
0000
0000
0000
0001
0000
0000
0000
4000
3000
0000
0000
0001
0000
0000
0000
0100
0000
0000
0000
0010
0000
0000
0000
4000
3000
0000
0000
0001
0000
0000
0000
0010
0000
0000
0000
0100
0000
0000
0000
1000
0000
0000
0000
0001
0000
0000
0000
,
0100
0010
1000
0010
0100
0001
0010
0100
1000
0100
0010
0001
0100
0010
1000
0010
,
0100
0001
0010
0100
1000
0100
0010
0001
0100
0010
1000
0010
0100
0001
1000
0100
,
0010
0001
0100
0001
0010
0100
1000
0010
1000
0100
0010
0001
0100
0010
0100
0001
,
1000
0100
1000
0010
0100
0001
1000
0001
0010
0100
1000
0001
0100
0010
1000
0100
,
1000
0001
0100
0010
1000
0100
0010
0001
0100
0010
1000
0001
1000
0100
0010
0001
,
0100
0010
1000
0001
1000
0100
0010
0001
0100
0010
1000
0001
1000
0100
0010
0001
,
0100
0001
1000
0100
0010
0001
1000
0001
0100
0010
1000
0010
0100
0001
0100
0001
,
1000
0100
0010
0001
1000
0001
0100
0010
1000
0100
0010
0001
1000
0001
0100
0010
,
1000
0100
1000
0010
0100
0001
0100
0001
1000
0001
1000
0001
0010
0100
1000
0100
,
1000
0000
0000
0000
0001
0000
0000
0000
1000
0000
0000
0000
0001
0000
0000
0000
0100
0000
0000
0000
0010
0000
0000
0000
1000
0000
0000
0000
0010
0000
0000
0000
0400
0300
0000
0000
0001
0000
0000
0000
0020
0030
0000
0000
0001
0000
0000
0000
0400
0300
0000
0000
0001
0000
0000
0000
0020
0030
0000
0000
0001
0000
0000
0000
,
0100
0010
1000
0100
1000
0001
0010
0001
0100
0010
1000
0001
0010
0001
0100
0010
,
1000
0100
1000
0001
0100
0001
0010
0100
1000
0001
0100
0001
1000
0100
0010
0001
,
1000
0010
1000
0100
0010
0001
1000
0010
1000
0100
0010
0001
1000
0010
1000
0001
,
0010
0000
0000
0001
0000
0000
0100
0000
0000
0010
0000
0000
1000
0000
0000
0001
0000
0000
0010
0000
0000
0001
0000
0000
1000
0000
0000
0010
0000
0000
0100
0000
0000
0001
0000
0000
1000
0000
0000
0000
0100
0000
0000
0000
0010
0000
0000
0000
,
0001
0000
0000
0000
0000
0000
0000
0000
0000
0000
0000
0000
0000
0000
0000
0000
1000
0000
0000
0000
0000
0000
0000
0000
0000
0000
0000
0000
0000
0000
0000
0000
0010
0000
0000
0000
0000
0000
0000
0000
0000
0000
0000
0000
0000
0000
0000
0000
1000
0000
0000
0000
0000
0000
0000
0000
0000
0000
0000
0000
0000
0000
0000
0000
0001
0000
0000
0000
0000
0000
0000
0000
0000
0000
0000
0000
0000
0000
0000
0000
0010
0000
0000
0000
0000
0000
0000
0000
0000
0000
0000
0000
0000
0000
0000
0000
0100
0000
0000
0000
0000
0000
0000
0000
0000
0000
0000
0000
0000
0000
0000
0000
0000
0000
1000
0000
0000
0000
0000
0000
0000
0000
0000
0000
0000
0000
0000
0000
0000
0000
0000
0000
0000
0000
0000
0001
0000
0000
0000
0000
0000
0000
0000
0000
0000
0000
0000
0000
0000
0000
0000
0000
0000
0000
0000
0000
0000
0000
0000
0000
0000
0000
0000
0000
0000
0100
0000
0000
0000
0000
0000
0000
0000
0000
0000
0000
0000
0000
0000
0000
0000
0000
0000
0000
0000
0000
0000
0000
0000
0000
0000
0000
,
0020
0030
2000
3000
0002
0003
0020
0030
0200
0300
2000
3000
0040
0030
0400
0300
,
0001
0010
0001
0100
0010
1000
0100
0010
0001
1000
0001
0100
0010
1000
0100
0010
,
0001
0100
0001
0010
0100
1000
0010
0100
0001
1000
0001
0010
0100
1000
0010
0100
,
0001
0010
0001
0100
0010
1000
0100
0010
0001
1000
0001
0100
0010
1000
0100
0010
,
0001
0100
0001
0010
0100
1000
0001
0010
0001
0100
0001
1000
0010
1000
0100
1000
,
0001
0100
0001
1000
0100
1000
0010
0100
0001
1000
0001
0010
0100
1000
0001
1000
,
0010
0100
0001
1000
0001
0100
0001
0010
0100
1000
0001
1000
0100
1000
0010
0100
,
0001
0010
0001
1000
0001
0010
0100
1000
0010
1000
0001
1000
0010
0100
0001
1000
,
0100
0010
0001
1000
0001
0100
0001
0010
0100
1000
0010
1000
0100
0010
0100
1000
,
0001
0100
0010
1000
0010
0100
0001
1000
0100
0010
0001
1000
0010
0100
0001
1000
,
0100
0010
0100
1000
0010
0100
0010
1000
0001
0010
0100
1000
0001
0100
0001
1000
,
0100
1000
0001
1000
0010
0100
0010
1000
0001
0010
0100
1000
0001
0100
0010
1000
,
0010
0100
0001
0010
0100
1000
0100
0010
0001
0010
0100
1000
0100
0010
0001
1000
,
0010
1000
0001
0010
0100
1000
0001
1000
0010
0100
0001
1000
0100
0010
0100
1000
,
0001
0100
0001
1000
0001
0010
0100
1000
0001
0100
0010
1000
0001
0010
0001
1000
,
0010
0100
0001
1000
0100
0010
0001
1000
0010
0100
0001
1000
0100
1000
0001
0100
,
0001
0010
0100
1000
0010
1000
0100
0010
0001
0100
0001
0100
0010
1000
0100
1000
,
0100
0010
0001
1000
0010
0100
0001
0010
0001
0100
0010
1000
0100
1000
0001
1000
,
0010
0100
0010
1000
0100
0010
0001
0100
0001
0010
0100
1000
0010
1000
0001
0010
,
0100
0010
0001
0100
0010
1000
0100
1000
0010
1000
0100
0010
0001
0100
0001
0010
,
0100
1000
0010
0100
0001
0010
0001
0100
0010
1000
0010
0100
0001
0100
0010
1000
,
0100
1000
0010
0100
0001
0010
0001
0100
0010
1000
0100
0010
0001
0100
0001
0100
,
0010
1000
0001
0010
0100
1000
0010
1000
0100
0010
0001
0100
0001
1000
0100
1000
,
0001
0100
0010
1000
0100
1000
0001
0100
0010
1000
0001
1000
0100
0010
0100
1000
,
0010
0100
0001
0100
0010
1000
0001
0010
0400
0300
0000
0000
0010
0001
1000
0010
,
0100
0001
0100
0010
1000
0100
1000
0001
0100
0010
1000
0010
0100
0001
0100
0001
,
0010
0100
1000
0010
0100
0001
0010
0100
1000
0010
1000
0100
0010
0100
1000
0001
,
0100
0010
1000
0010
0100
0001
0010
0100
1000
0100
0010
0001
1000
0010
0100
0001
,
1000
0100
1000
0001
0100
0010
1000
0100
1000
0010
0100
0001
0010
0100
0010
0100
,
1000
0010
0100
0001
0010
0100
1000
0010
1000
0100
0010
0001
0100
0010
0100
0001
,
0010
0100
0010
0001
1000
0010
1000
0100
0010
0100
1000
0010
0100
0001
0010
0001
,
0100
0010
1000
0010
0100
0001
0010
0001
0100
0010
1000
0100
0010
0001
0100
0010
,
1000
0100
1000
0010
0100
0001
1000
0100
0010
0001
0010
0001
1000
0001
1000
0010
,
0100
0001
0010
0001
0100
0010
1000
0100
1000
0010
0100
0001
0010
0100
1000
0010
,
0100
0001
0010
0001
1000
0010
0100
0001
0010
0001
1000
0010
0100
0001
0010
0001
,
0100
0010
1000
0001
0010
0100
1000
0001
1000
0010
0100
0001
0010
0100
1000
0001
,
0100
0001
1000
0100
0010
0001
0100
0001
0010
0100
1000
0001
0100
0001
1000
0100
,
0010
0001
0100
0001
0010
0100
1000
0001
0100
0001
1000
0100
0010
0001
0100
0010
,
1000
0100
1000
0010
0100
0001
1000
0100
1000
0001
0100
0010
1000
0100
1000
0001
,
0100
0010
1000
0010
0100
0001
1000
0100
1000
0001
0100
0010
1000
0100
0010
0001
,
1000
0010
0100
0001
1000
0001
0010
0100
1000
0100
0010
0001
0100
0010
1000
0100
,
0010
0100
1000
0010
0100
0001
0010
0001
0100
0010
1000
0100
0010
0001
0100
0010
,
1000
0100
0010
0001
0100
0010
1000
0100
1000
0010
0100
0001
0010
0100
1000
0010
,
0100
0001
0010
0100
1000
0010
0100
0001
1000
0100
0010
0001
0100
0001
0010
0100
,
1000
0010
1000
0100
0010
0001
0100
0001
0010
0100
1000
0010
0100
0001
0010
0001
,
0100
0010
1000
0001
0010
0100
1000
0010
1000
0100
0010
0001
0100
0010
1000
0100
,
0010
0001
0100
0010
1000
0100
1000
0010
0100
0001
0010
0100
1000
0010
0100
0001
,
0010
0001
0100
0010
1000
0100
0010
0001
0100
0010
1000
0100
0010
0001
0100
0010
,
2000
0004
0000
0000
0000
0000
0000
0000
3003
0000
0000
0000
1000
0100
1000
0100
,
0010
0100
1000
0010
1000
0100
0010
0100
1000
0010
0100
0010
1000
0100
1000
0010
,
1000
0100
0010
0100
1000
0010
1000
0100
1000
0010
0100
0010
1000
0010
0100
0001
,
0010
0100
0010
0001
0100
0001
0010
0100
0010
0001
0100
0010
0100
0001
0010
0001
,
0100
0001
0010
0100
0010
0001
0100
0001
0010
0001
0100
0010
0100
0001
0010
0001
,
0100
0010
1000
0100
0010
0001
0100
0010
1000
0100
0010
0001
0100
0010
1000
0100
,
0010
0001
0100
0010
1000
0100
0010
0001
0100
0010
1000
0100
0010
0001
0100
0010
,
1000
0100
0010
0001
0100
0001
0010
0100
1000
0010
0100
0001
0010
0100
1000
0010
,
0100
0001
0010
0100
1000
0010
1000
0100
0010
0001
0100
0010
1000
0100
0010
0001
,
0100
0001
1000
0100
0010
0001
0100
0001
1000
0100
0010
0001
0100
0001
1000
0100
,
0010
0001
0100
0001
1000
0100
0010
0001
0100
0001
1000
0100
0010
0001
0100
0010
,
1000
0100
1000
0001
0100
0010
1000
0100
1000
0001
0100
0010
1000
0100
1000
0001
,
0100
0010
1000
0100
1000
0001
0100
0010
1000
0100
1000
0001
0100
0010
0100
0001
,
0010
0001
1000
0010
0100
0001
0010
0001
1000
0010
0100
0001
0010
0001
1000
0010
,
0100
0001
0010
0001
1000
0010
0100
0001
0010
0001
1000
0010
0100
0001
0010
0100
,
1000
0010
1000
0001
0010
0100
4000
0010
3000
0001
0010
0100
4000
0010
3000
0001
,
0010
0100
4000
0010
3000
0001
0100
0001
0010
0100
0010
0001
0100
0010
1000
0001
,
0010
0001
1000
0010
0100
0001
0010
0001
1000
0010
0100
0001
0010
0100
0010
0001
,
0100
0010
1000
0100
1000
0001
0100
0010
1000
0100
1000
0010
0100
0001
0010
0100
,
1000
0010
1000
0001
0010
0100
1000
0010
1000
0100
0010
0001
0100
0001
0010
0100
,
1000
0010
0100
0010
1000
0100
0010
0001
0100
0010
0100
0001
0010
0100
1000
0001
,
0100
0001
1000
0100
0010
0001
0100
0001
0010
0100
1000
0010
0100
0010
1000
0100
,
0010
0001
0100
0010
0100
0001
0010
0100
1000
0010
0100
0001
0010
0001
0100
0001
,
1000
0100
1000
0010
1000
0001
0010
0001
0100
0001
0010
0100
1000
0010
1000
0100
,
1000
0001
0100
0001
0010
0001
0100
0010
2000
0000
3000
0000
0002
0000
0003
0000
,
0010
0100
1000
0010
0100
0001
0010
0100
1000
0010
0100
0001
0010
0100
0010
0001
,
0100
0010
1000
0100
0010
0001
0100
0010
1000
0100
1000
0010
0100
0001
0100
0001
,
0010
0100
1000
0010
0100
0001
0010
0100
1000
0010
0100
0001
0020
0000
0000
0030
,
0200
0000
0300
2000
0000
3000
0002
0000
0003
0200
0000
0300
0010
0000
1000
0000
,
0002
0000
0003
0020
0000
0030
0200
0000
0300
2000
0000
3000
0001
0000
0100
0000
,
0020
0000
0030
2000
0000
3000
0200
0000
0300
0020
0000
0030
0001
0000
1000
0000
,
0020
0000
0030
0200
0000
0300
0002
0000
0003
0020
0000
0030
0100
0000
1000
0000
,
0002
0000
0003
0200
0000
0300
0020
0000
0030
2000
0000
3000
0001
0000
0010
0000
,
0200
0000
0300
2000
0000
3000
0002
0000
0003
0200
0000
0300
0010
0000
1000
0000
,
0200
0000
0300
0020
0000
0030
0002
0000
0003
2000
0000
3000
0010
0000
0100
0000
,
0002
0000
0003
0020
0000
0030
0200
0000
0300
2000
0000
3000
0001
0000
0100
0000
,
0020
0000
0030
2000
0000
3000
0200
0000
0300
0020
0000
0030
0001
0000
1000
0000
,
0010
0100
0001
1000
,
0100
0010
0001
0100
,
0010
1000
0001
0010
,
0100
1000
0010
0100
,
0001
0010
0100
1000
0001
0100
0010
1000
0001
0010
0100
1000
0001
0100
0001
1000
,
0100
0010
0001
1000
0010
0100
0001
1000
0100
0010
0001
1000
0010
1000
0001
0010
,
0100
1000
0001
0100
0010
1000
0001
1000
0100
0010
0001
1000
0010
0100
0001
1000
,
0001
0010
0100
1000
0001
0100
0010
1000
0000
0000
0000
0000
0000
0000
0000
0000
,
1000
0010
0100
0001
1000
0100
0010
0001
1000
0010
0100
0001
1000
0100
1000
0001
,
0100
0010
1000
0001
0010
0100
1000
0001
0100
0010
1000
0001
0010
0001
1000
0010
,
0100
0001
1000
0100
0010
0001
1000
0001
0100
0010
1000
0001
0010
0100
1000
0001
,
1000
0010
0100
0001
1000
0100
0010
0001
1000
0000
0000
0000
0000
0000
0000
0000
,
0001
0100
0010
1000
0001
0010
0001
1000
0010
0100
0001
1000
0100
1000
0001
0100
,
0010
0100
0001
1000
0100
0010
0001
1000
0010
0100
0001
1000
0001
0010
0100
1000
,
0001
0100
0010
1000
0001
0010
0001
1000
0010
0100
0001
1000
0100
0010
0001
1000
,
0010
1000
0001
0010
0100
0010
0001
1000
0010
1000
0001
1000
0010
0100
0001
1000
,
0100
0010
0001
1000
0010
1000
0001
0010
0100
1000
0001
0100
0001
1000
0100
0010
,
0001
1000
0001
0100
0010
1000
0001
0010
0100
1000
0001
0100
0001
1000
0100
0010
,
0001
1000
0010
0100
0001
1000
0001
0010
0100
1000
0001
0100
0001
1000
0100
1000
,
0001
1000
0010
0100
0001
0100
0001
1000
0001
0010
0100
1000
0100
1000
0001
1000
,
0001
0100
0010
1000
0001
0010
0001
1000
0010
0100
0001
1000
0100
1000
0001
0100
,
0010
1000
0010
0100
0001
0010
0001
0100
0010
1000
0100
0010
0001
0010
0100
1000
,
0010
0100
0001
1000
0100
0010
0100
1000
0001
0100
0001
1000
0100
0010
0100
1000
,
0010
0100
0010
1000
0001
0010
0001
1000
0010
0100
0010
1000
0100
0010
0100
1000
,
0010
0100
0001
0100
0010
1000
0100
1000
0010
0100
0001
0100
0010
1000
0001
0010
,
0100
1000
0010
1000
0001
0010
0001
1000
0010
0100
0001
0100
0010
1000
0001
0010
,
0200
0300
0010
0001
1000
0010
0100
0010
1000
0000
0001
0000
0010
0100
1000
0001
,
0200
0000
0000
0000
0300
0000
0000
0000
0000
0000
0000
0000
0000
0000
0000
0000
0020
0030
0000
0000
0100
0000
0000
0000
0001
0000
0000
0000
0020
0030
0000
0000
0100
0000
0000
0000
1000
0000
0000
0000
0020
0030
0000
0000
0100
0000
0000
0000
0001
0000
0000
0000
0020
0030
0000
0000
0100
0000
0000
0000
1000
0000
0000
0000
,
0040
0030
0000
0000
0100
0000
0000
0000
0001
0000
0000
0000
1000
0000
0000
0000
0100
0000
0000
0000
0010
0000
0000
0000
0100
0000
0000
0000
1000
0000
0000
0000
0001
0000
0000
0000
0100
0000
0000
0000
0010
0000
0000
0000
0100
0000
0000
0000
0001
0000
0000
0000
0010
0000
0000
0000
0001
0000
0000
0000
1000
0000
0000
0000
,
0100
1000
0010
1000
0001
0100
0001
1000
0100
1000
0010
1000
0001
0100
0001
1000
,
0100
1000
0010
1000
0001
0100
0001
1000
0100
1000
0010
1000
0001
0100
0001
1000
,
0100
1000
0010
1000
0001
0100
0001
1000
0100
1000
0010
1000
0001
0100
0001
1000
,
0100
0010
0001
1000
0010
1000
0100
1000
0010
0100
0001
0010
0001
0100
0001
1000
,
0100
0010
0001
0010
0100
1000
0001
0100
0010
1000
0010
0100
0001
0010
0100
1000
,
0010
1000
0100
0010
0001
0100
0001
0010
0100
1000
0001
0100
0010
1000
0100
1000
,
0010
0100
0001
0010
0001
1000
0010
0100
0001
0100
0001
0010
0100
1000
0100
1000
,
0010
0100
0001
0010
0100
0010
0001
0100
0010
0100
0001
0010
0100
1000
0010
1000
,
0100
0010
0100
1000
0001
0100
0010
1000
0100
0010
0001
0100
0001
0010
0100
0010
,
0001
0100
0010
1000
0010
0100
0001
1000
0100
1000
0010
1000
0001
0010
0100
1000
,
0010
0100
0001
1000
0100
1000
0010
1000
0001
0010
0001
0100
0001
0010
0100
1000
,
0010
1000
0001
1000
0100
0010
0100
1000
0010
0100
0001
1000
0100
1000
0010
1000
,
0001
0010
0001
1000
0010
0100
0010
1000
0100
0010
0001
1000
0010
0100
0001
1000
,
0100
1000
0001
0100
0010
1000
0001
0010
0100
0000
0000
0000
0000
0000
0000
0000
,
1000
0000
0100
1000
0010
1000
0001
1000
0200
0000
0300
0000
0020
0000
0030
0000
,
0001
0100
0001
1000
0001
0010
0100
1000
0010
1000
0001
1000
0100
0010
0001
1000
,
0010
1000
0100
1000
0001
0100
0001
0010
0001
1000
0010
0100
0001
1000
0100
1000
,
0001
0100
0010
1000
0001
0010
0100
1000
0001
1000
0010
0100
0010
1000
0001
0010
,
0001
0100
0010
1000
0100
1000
0001
0100
0010
0100
0001
1000
0001
0010
0100
0010
,
0001
0100
0001
1000
0001
0010
0100
0010
0001
0100
0001
1000
0100
0010
0001
0100
,
0010
1000
0100
1000
0010
0100
0001
0010
0100
1000
0010
1000
0100
0010
0001
0100
,
0010
0100
0001
0010
0100
1000
0010
0100
0001
0010
0100
1000
0010
0100
0001
0010
,
0100
1000
0100
1000
0010
1000
0001
0100
0001
0010
0001
0010
0100
1000
0100
0010
,
0001
0100
0010
1000
0100
1000
0010
0100
0001
0010
0001
0100
0010
1000
0100
1000
,
0001
0100
0001
0010
0100
1000
0010
1000
0100
0010
0001
0100
0001
0010
0100
1000
,
0010
0100
0001
0010
0001
1000
0010
1000
0100
0010
0001
0100
0001
0010
0100
1000
,
0010
0100
0001
0010
0001
0100
0010
1000
0100
1000
0010
0100
0001
0010
0100
1000
,
0010
1000
0100
0010
0001
0100
0001
0010
0100
1000
0010
1000
0100
0010
0001
0100
,
0001
1000
0100
1000
0010
0100
0001
0010
0001
0100
0010
1000
0100
1000
0010
0100
,
0001
0010
0100
1000
0010
1000
0001
0010
0001
0100
0010
1000
0100
1000
0010
0100
,
0001
0010
0001
0100
0010
1000
0010
0100
0001
1000
0001
0010
0100
1000
0100
0010
,
0001
0100
0010
1000
0100
1000
0010
0100
0001
0010
0001
0100
0010
1000
0100
1000
,
0001
0100
0001
0010
0100
1000
0010
1000
0100
0010
0001
0100
0001
0010
0100
1000
,
0010
0100
0001
0010
0001
1000
0010
1000
0100
0010
0001
0100
0001
0010
0100
1000
,
0010
0100
0001
0010
0001
0100
0010
1000
0100
1000
0010
0100
0001
0010
0100
1000
,
0020
0030
0000
0000
1000
0100
0010
0001
1000
0100
0010
0001
1000
0100
0010
0001
,
0100
0001
0010
0001
1000
0001
0100
0001
0010
0001
1000
0001
0100
0010
0100
0010
,
1000
0001
1000
0100
0010
0001
0010
0001
1000
0010
1000
0010
0100
0001
0100
0001
,
1000
0100
0010
0001
0010
0100
1000
0010
0100
0001
0100
0010
1000
0010
0100
0001
,
0010
0100
0010
0001
0100
0001
1000
0100
0010
0001
0100
0010
0100
0001
0010
0100
,
0010
0001
0100
0010
1000
0100
1000
0001
0100
0010
1000
0100
1000
0010
0100
0010
,
1000
0100
0010
0001
0100
0001
0010
0100
1000
0010
0100
0010
1000
0100
0010
0001
,
0100
0010
0100
0001
0010
0100
1000
0001
0100
0001
0010
0100
1000
0001
0100
0001
,
0010
0100
1000
0001
0100
0010
1000
0010
0100
0001
1000
0100
1000
0100
1000
0100
,
1000
0010
0100
0001
0010
0100
0010
0001
0010
0100
1000
0001
1000
0010
0100
0010
,
1000
0100
0010
0001
0100
0010
1000
0010
0100
0001
0010
0100
1000
0100
0010
0001
,
0100
0010
0100
0010
1000
0001
0010
0100
0010
0001
1000
0010
0100
0010
1000
0001
,
1000
0100
0010
0001
0100
0001
0010
0100
1000
0010
0100
0010
1000
0100
0010
0001
,
0100
0010
0100
0001
0010
0100
1000
0010
0100
0001
0010
0001
0100
0010
1000
0100
,
0010
0100
1000
0010
0100
0001
0100
0010
1000
0100
0010
0100
1000
0010
0100
0001
,
0010
0100
0010
0001
0100
0010
1000
0100
0010
0001
0100
0001
0010
0100
1000
0010
,
0100
0010
1000
0100
0010
0100
1000
0010
0100
0001
0010
0001
0100
0010
1000
0100
,
0010
0100
1000
0010
0100
0010
1000
0100
0010
0001
0100
0001
1000
0001
0010
0001
,
0100
0000
0000
0000
0010
0000
0000
0000
1000
0000
0000
0000
0010
0000
0000
0000
0400
0300
0000
0000
0001
0000
0000
0000
0010
0000
0000
0000
0400
0300
0000
0000
0010
0000
0000
0000
0001
0000
0000
0000
0400
0300
0000
0000
0001
0000
0000
0000
0010
0000
0000
0000
0400
0300
0000
0000
0010
0000
0000
0000
0001
0000
0000
0000
,
0100
0010
1000
0001
0010
0001
1000
0010
0100
0010
1000
0100
1000
0001
0100
0010
,
0100
0001
1000
0001
0010
0100
1000
0100
1000
0001
0100
0010
1000
0010
1000
0001
,
0010
0100
1000
0001
0100
0010
1000
0010
1000
0001
0010
0100
1000
0100
1000
0001
,
0100
0010
1000
0001
0010
0001
0010
0100
1000
0010
0100
0001
0100
0001
1000
0100
,
0010
0001
1000
0010
0100
0001
0100
0001
1000
0100
0010
0001
0010
0001
1000
0010
,
0100
0001
0100
0001
0010
0100
1000
0100
1000
0010
0100
0001
0010
0001
0010
0100
,
1000
0010
0100
0001
0010
0100
1000
0010
1000
0100
1000
0001
0100
0001
0010
0001
,
1000
0000
0000
0000
0001
0000
0000
0000
0000
0000
1000
0000
0000
0000
0001
0000
0000
0000
1000
0000
0000
0001
0000
0000
1000
0000
0001
0000
1000
0000
0001
0000
,
0100
0010
1000
0001
1000
0001
0010
0100
1000
0001
1000
0001
1000
0001
1000
0001
,
0010
0100
1000
0010
1000
0001
1000
0010
0100
0001
1000
0100
1000
0001
1000
0100
,
0010
0001
1000
0010
1000
0001
1000
0010
0100
0001
1000
0100
0010
0001
0010
0001
,
0100
0010
1000
0001
0010
0001
1000
0001
0010
0100
1000
0001
0100
0001
1000
0001
,
0100
0010
1000
0001
0010
0001
1000
0001
0010
0100
1000
0001
0100
0010
1000
0001
,
0010
0001
1000
0010
0100
0001
0010
0100
1000
0010
0100
0001
1000
0100
0010
0001
,
1000
0010
1000
0001
0010
0001
1000
0010
0100
0001
0100
0001
0010
0100
0010
0100
,
1000
0001
1000
0001
0100
0010
0100
0010
1000
0001
1000
0100
0010
0001
1000
0001
,
0100
0010
1000
0010
0100
0001
1000
0100
0010
0001
0010
0100
1000
0001
1000
0001
,
0100
0010
1000
0001
0010
0100
1000
0010
0100
0001
0010
0100
1000
0010
1000
0100
,
0010
0001
0100
0010
1000
0100
0010
0001
0100
0010
1000
0100
0010
0001
0100
0010
,
1000
0100
1000
0010
0100
0001
0010
0100
1000
0010
0100
0001
0010
0100
1000
0010
,
0100
0001
0010
0100
1000
0010
0100
0001
0010
0001
0100
0010
1000
0100
0010
0001
,
0100
0010
0100
0001
0010
0100
1000
0010
0100
0001
0010
0100
1000
0010
0100
0001
,
0010
0100
1000
0010
0100
0001
0010
0100
1000
0010
0100
0001
0010
0100
1000
0010
,
0100
0001
0010
0100
1000
0010
0100
0001
0010
0100
1000
0010
0100
0001
0010
0100
,
1000
0010
0100
0001
0010
0100
1000
0001
0010
0001
0100
0001
1000
0010
1000
0100
,
1000
0001
0100
0010
1000
0001
0010
0001
1000
0100
0010
0001
1000
0010
1000
0001
,
0010
0100
1000
0100
0010
0001
0010
0100
1000
0100
0010
0001
0100
0010
0100
0001
,
0010
0100
0010
0001
0010
0100
1000
0001
0100
0010
1000
0001
0010
0001
1000
0010
,
0100
0010
1000
0010
0100
0001
0100
0010
1000
0100
0010
0001
0010
0100
1000
0100
,
0010
0001
0010
0001
0010
0001
0100
0010
1000
0100
1000
0100
0010
0001
0100
0001
,
0100
0010
1000
0100
0010
0001
0010
0001
0100
0010
1000
0010
1000
0100
0010
0001
,
1000
0010
1000
0010
0100
0001
0010
0001
0010
0100
1000
0001
0100
0001
0100
0010
,
1000
0100
1000
0010
1000
0100
0010
0001
0100
0010
1000
0010
0100
0001
0100
0010
,
1000
0100
0010
0001
0100
0010
0100
0001
0010
0100
1000
0010
0100
0001
0100
0010
,
1000
0100
0010
0001
1000
0010
0100
0001
0010
0001
1000
0010
1000
0001
0010
0001
,
1000
0010
1000
0001
0010
0001
1000
0010
1000
0001
0010
0001
1000
0010
1000
0001
,
0010
0100
1000
0100
0010
0001
1000
0010
0100
0001
0100
0010
1000
0001
1000
0100
,
0010
0100
1000
0010
0100
0010
1000
0001
0010
0100
1000
0100
0010
0001
0010
0001
,
1000
0010
0100
0001
1000
0100
1000
0001
0100
0010
1000
0001
0010
0100
1000
0001
,
1000
0010
0100
0001
1000
0001
0010
0100
1000
0001
1000
0010
0100
0010
1000
0001
,
0010
0100
0010
0001
1000
0001
0100
0010
1000
0100
0010
0001
0010
0100
1000
0001
,
0100
0010
1000
0010
0100
0001
1000
0001
0010
0100
1000
0001
1000
0001
0010
0100
,
1000
0010
0100
0001
1000
0001
1000
0100
0010
0001
1000
0001
1000
0001
1000
0001
,
0100
0010
1000
0100
0010
0001
0100
0010
1000
0100
0010
0001
0100
0010
1000
0001
,
0010
0100
1000
0010
0100
0001
0010
0100
1000
0010
0100
0001
0010
0100
1000
0001
,
1000
0010
0100
0001
0010
0100
1000
0010
0100
0001
0010
0100
1000
0010
0100
0001
,
1000
0100
0010
0001
0100
0010
1000
0100
0010
0001
0100
0010
1000
0100
1000
0001
,
0100
0010
1000
0100
0010
0001
0100
0010
1000
0100
0010
0001
0100
0010
1000
0001
,
0010
0100
1000
0010
0100
0001
0010
0100
1000
0010
0100
0001
0010
0100
1000
0001
,
0100
0010
1000
0100
0010
0001
0100
0010
1000
0100
0010
0001
0100
0010
1000
0001
,
0010
0100
1000
0010
0100
0001
0010
0100
1000
0010
0100
0001
0010
0100
1000
0001
,
1000
0010
0100
0001
0010
0100
0010
0001
0100
0010
0100
0001
1000
0100
0010
0001
,
1000
0010
1000
0001
0010
0100
0010
0001
1000
0010
0100
0001
0010
0001
1000
0010
,
0100
0010
1000
0001
0010
0001
0100
0001
1000
0001
0100
0001
0010
0001
1000
0010
,
1000
0100
1000
0001
0010
0001
0100
0001
1000
0100
0010
0001
0100
0010
0100
0001
,
1000
0100
1000
0010
1000
0001
1000
0010
1000
0100
1000
0010
0100
0001
1000
0100
,
0010
0001
1000
0010
0100
0001
1000
0100
0010
0001
1000
0010
0100
0001
1000
0100
,
0010
0001
0100
0010
1000
0001
0010
0100
1000
0001
0100
0010
1000
0001
0010
0100
,
1000
0001
1000
0010
0100
0001
1000
0100
0010
0001
1000
0010
0100
0001
1000
0001
,
0010
0100
1000
0010
0100
0001
0010
0100
1000
0010
0100
0001
1000
0001
0010
0100
,
0010
0001
1000
0010
0100
0001
0010
0100
1000
0010
0100
0001
0010
0100
1000
0001
,
0100
0010
1000
0100
0010
0001
0100
0010
1000
0100
0010
0001
1000
0010
0100
0010
,
1000
0001
0010
0100
1000
0001
0100
0001
1000
0100
1000
0001
0100
0001
1000
0100
,
0010
0100
1000
0010
0100
0010
1000
0100
0010
0100
1000
0010
0100
0010
1000
0001
,
0010
0100
0010
0001
0100
0010
0100
0001
0010
0100
0010
0001
0100
0010
0100
0001
,
0010
0001
0010
0100
1000
0001
1000
0010
1000
0001
0010
0001
1000
0001
0100
0010
,
2000
0000
3000
0200
0000
0300
0020
0000
0030
0002
0000
0003
0200
0000
0300
0000
,
0020
0000
0030
2000
0000
3000
0002
0000
0003
0020
0000
0030
0200
0000
0300
0000
,
2000
3000
0020
0030
0200
0300
0002
0003
,
0020
0000
0030
0000
0000
0200
0000
0300
0000
2000
0000
3000
0000
0002
0000
0003
,
0000
0200
0000
0300
0000
0020
0000
0030
0000
0000
0000
0000
2000
0000
0000
3000
,
0000
0002
0000
0000
0003
0000
0020
0000
0000
0030
0000
0000
0200
0000
0000
0300
,
0000
0000
2000
0000
0000
3000
0000
0000
0000
0000
0000
0000
0002
0000
0000
0000
,
0003
0000
0000
0200
0000
0000
0000
0000
,
0000
0000
0000
0000
,
0000
0000
0000
0000
,
0000
0000
0000
0000
,
0000
0000
0000
0000
,
0000
0000
0000
0000
,
0300
0000
0000
0000
,
0000
0000
0000
0000
,
0000
0000
0000
0000
,
0000
0000
0000
0000
,
0000
0000
0000
0000
,
0000
0000
0000
0000
,
0000
0000
0000
0000
,
0000
0000
0000
0000
,
0000
0000
0000
0000
,
0000
0000
0000
0000
0000
0000
0000
0000
0000
0000
0000
0000
0000
0000
0000
0000
0000
0000
0000
0000
0000
0000
0000
0000
0000
0000
0000
0000
0000
0000
0000
0000
0000
0000
0000
0000
0000
0000
0000
0000
0000
0000
0000
0000
0000
0000
0000
0000
0000
0000
0000
0000
0000
0000
0000
0000
0000
0000
0000
0000
0000
0000
0000
0000
0000
0000
0000
0000
0000
0000
0000
0000
0000
0000
0000
0000
0000
0000
0000
0000
0000
0000
0000
0000
0000
0000
0000
0000
0000
0000
0000
0000
0000
0000
0000
0000
0000
0000
0000
0000
0000
0000
0000
0000
0000
0000
0000
0000
0000
0000
0000
0000
0000
0000
0000
0000
0000
0000
0000
0000
0000
0000
0M00
0000
0000
0000
0000
0000
0000
0000
0000
0000
0M00
0000
0000
0000
0000
0000
0000
0000
0000
0M0M
0000
0000
0000
0000
0000
0000
0000
0000
0000
MMM0
0000
0000
0000
0000
0000
0000
0000
0000
0000
0100
0000
0000
0000
0000
0000
0000
0000
0000
0000
0000
0000
0000
0000
0000
0000
0000
0000
0000
0000
0000
0000
0000
0000
0000
0000
0000
0000
0000
0000
0000
;
