#VERSION:0.83;
#TITLE:5H1NY D△Y5 ;
#SUBTITLE:(takashima & The Herb Shop Bootleg);
#ARTIST:takashima;
#TITLETRANSLIT:;
#SUBTITLETRANSLIT:;
#ARTISTTRANSLIT:;
#GENRE:;
#CREDIT:NAOKI;
#MUSIC:5H1NY D△Y5 (takashima & The Herb Shop Bootleg).ogg;
#BANNER:shiny_days-bn.png;
#BACKGROUND:shiny_days-bg.png;
#CDTITLE:naokicdtitle.png;
#SAMPLESTART:54.432;
#SAMPLELENGTH:14.143;
#SELECTABLE:YES;
#OFFSET:0.000;
#BPMS:0.000=140.000;
#STOPS:;
#FAKES:127.000=0.792,
160.729=0.042,
164.729=0.042,
168.729=0.042,
193.229=0.042,
195.229=0.042,
197.229=0.042,
199.229=0.042,
208.979=0.042,
219.979=0.042,
220.979=0.042,
225.479=0.042,
227.979=0.042,
228.979=0.042,
230.979=0.042,
232.479=0.042,
235.979=0.042,
236.979=0.042,
238.979=0.042,
241.479=0.042,
243.979=0.042,
244.979=0.042,
248.479=0.042,
251.979=0.042,
252.979=0.042,
257.479=0.042,
259.979=0.042,
260.979=0.042,
262.979=0.042,
264.479=0.042,
267.979=0.042,
268.979=0.042,
270.979=0.042
;
#BGCHANGES:;
#FGCHANGES:;

//--------------- dance-single - NAOKI FS+ XO DS RH ----------------
#NOTEDATA:;
#STEPSTYPE:dance-single;
#DESCRIPTION:NAOKI FS+ XO DS RH;
#DIFFICULTY:Challenge;
#METER:11;
#RADARVALUES:0,0,0,0,0;
#NOTES:
0000
0000
0000
0000
,
0000
0000
0000
0000
,
0000
0000
0000
0000
,
0000
0000
0000
0000
,
0000
0000
0000
0000
,
1000
0000
0001
0000
0100
0000
0000
0010
0000
1000
0000
0001
0010
0000
0000
0000
,
0001
0000
1000
0000
0010
0000
0000
0100
0000
0001
0000
1000
0100
0000
0000
0000
,
1000
0000
0000
0001
0000
0000
1000
0000
0000
0001
0000
0000
0100
0000
0010
1000
0000
0001
0010
0000
0100
1000
0000
0001
,
0200
0000
0000
0000
0000
0000
0000
0000
0000
0000
0000
0000
0000
0000
0000
0000
0000
0000
0000
0000
0000
0000
0000
0000
0000
0000
0000
0000
0000
0000
0000
0000
0300
0000
0000
0000
0000
0000
0000
0000
0000
0000
0000
0000
0000
0000
0000
0000
2020
0000
0000
0000
0000
0000
0000
0000
0000
0000
0000
0000
0000
0000
0000
0000
3030
0000
0000
0000
0000
0000
0000
0000
0000
0000
0000
0000
0000
0000
0000
0000
0000
0000
0000
0000
0022
0000
0000
0000
0000
0000
0000
0000
0000
0000
0000
0000
0000
0000
0000
0000
0000
0000
0033
0000
0000
0000
0000
0000
0000
0000
0000
0000
0000
0000
0000
0000
0000
0000
0000
0000
0100
0000
0000
0000
0000
0000
0000
0000
0000
0000
0000
0000
0000
0000
0000
0000
0000
0000
0000
0000
0000
0000
0000
0000
4000
0000
0000
0000
0000
0000
0000
0000
0000
0000
0000
0000
0000
0000
0000
0000
0000
0000
0000
0000
0000
3000
0000
0000
0000
0000
0000
0000
0000
0000
0000
0000
0000
0000
0000
0000
0000
0000
0000
0000
0000
0000
0000
0000
0000
0000
0000
0000
,
0010
0000
0100
0000
0001
1000
0000
0100
0000
0010
0001
0000
0100
0010
1000
0001
,
0010
0000
0100
0000
1000
0001
0000
0100
0000
0010
1000
0000
0001
0010
0001
1000
,
0010
0000
0100
0000
0010
1000
0000
0001
0000
0010
0100
0000
0010
0001
1000
0010
,
0000
0100
0001
1000
0100
0000
0010
0010
0000
0001
1000
0000
0010
0100
0001
1000
,
0100
0000
0010
0000
0001
1000
0000
0010
0000
0100
0001
0000
1000
0100
1000
0001
,
0100
0000
0010
0000
1000
0001
0000
0010
0000
0100
1000
0000
0010
0100
0001
1000
,
0100
0000
0010
0000
0100
1000
0000
0001
0000
0100
0010
0000
0100
0001
1000
0100
,
0010
0000
0001
0100
0001
1000
0100
0000
0010
0000
0011
0000
0100
0000
1000
0000
,
0002
0000
0000
0100
0000
0000
1003
0000
0000
0100
0000
0000
0010
0000
0001
1000
0000
0010
0000
0000
0100
0001
0000
0000
,
1000
0000
0100
0010
0000
0000
0001
0000
0000
0100
0000
0010
0000
0000
1000
0001
0000
0000
0010
0000
0100
1000
0000
0000
,
0001
0000
0000
0200
0000
0000
0010
0000
0000
0301
0000
0000
1000
0000
0000
0200
0000
0000
0010
0000
0000
1300
0000
0001
,
0100
0000
0000
0010
0000
0000
1000
0000
0000
0100
0000
0010
0000
0000
0000
0001
0000
1000
0010
0000
0100
0000
0000
0001
,
2000
0000
0000
0100
0000
0000
3001
0000
0000
0100
0000
0000
0010
0000
1000
0001
0000
0010
0000
0000
0100
1000
0000
0000
,
0001
0000
0100
0010
0000
0000
1000
0000
0000
0100
0000
0010
0000
0000
0001
1000
0000
0000
0010
0000
0100
0001
0000
0000
,
1000
0000
0000
0200
0000
0000
0010
0000
0000
1300
0000
0000
0001
0000
0000
0200
0000
0000
0010
0000
0000
0301
0000
1000
,
0100
0000
0000
0010
0000
0000
0001
0000
1000
0010
0000
1000
0001
0000
0010
0100
0000
0010
0001
0000
1000
0010
0000
0100
,
0002
0000
1000
0000
0013
0000
0100
0000
1000
0000
0001
0200
0000
0300
0010
0000
,
0001
0000
0010
0000
1000
0000
0001
0020
0100
0000
0031
0000
0100
0000
0010
0000
,
2000
0000
0001
0000
3100
0000
0010
0000
1000
0000
0000
0010
0000
0000
0001
0000
,
0200
0000
0310
0000
1000
0000
0001
0000
0010
0000
0000
0000
0100
1000
0001
0000
,
0102
1000
0013
2100
0001
3010
0100
0210
,
0000
0000
0000
0000
0000
0000
0301
0000
0000
1000
0000
0000
0100
0000
0000
0000
0000
0000
1000
0000
0000
0001
0000
0000
0100
0000
0000
0000
0010
0000
1000
0000
0000
0001
0000
0000
0010
0000
0000
0000
0100
0000
1000
0000
0000
0001
0000
0000
,
0100
0000
0000
0000
0010
0000
1000
0000
0000
0000
0001
0000
0010
0000
0000
0000
0100
0000
1000
0000
0000
0000
0001
0000
0100
0000
0000
0000
0000
0000
0000
0000
0000
0000
0000
0000
M000
0000
0000
0M00
0000
0000
00M0
0000
0000
000M
0000
0000
,
2100
0000
0000
0000
0000
0000
0000
0000
0001
0000
0000
0000
0000
0000
0000
0000
3020
0000
0000
0000
0000
0000
0000
0000
0130
0000
0000
0000
2000
0000
0000
0000
3000
0000
0000
0000
0100
0000
0000
0000
0001
0000
0000
0000
0000
0000
0000
0000
0010
0000
0000
0000
0000
0100
0000
0000
1000
0000
0000
0000
0000
0001
0000
0000
,
0200
0000
0000
0000
0000
0000
0010
0000
0000
0000
0000
0000
0302
0000
0000
0000
0000
0000
1003
0000
0000
0200
0000
0000
0300
0000
0000
0010
0000
0000
0001
0000
0000
0000
0000
0000
1000
0000
0000
0000
0001
0000
0100
0000
0000
0000
0001
0000
,
2000
0000
0000
0000
0000
0000
0100
0000
0000
3000
0000
0000
0002
0000
0000
0000
0000
0000
0100
0000
0000
0003
0000
0000
1000
0000
0000
0100
0000
0000
0010
0000
0000
0001
0000
0000
1000
0000
0000
0000
0000
0000
0010
0000
0000
0000
0100
0000
,
0002
0000
0000
0000
0000
0000
1003
0000
0000
0000
0000
0000
2100
0000
0000
0000
0000
0000
3001
0000
0000
0200
0000
0000
0300
0000
0000
0000
0010
0000
1000
0000
0000
0000
0000
0000
0001
0000
0000
0010
0000
0000
0100
0000
0000
1000
0000
0000
,
0002
0000
0000
0000
0000
0000
0000
0000
1000
0000
0000
0000
0000
0000
0000
0000
0023
0000
0000
0000
0000
0000
0000
0000
0130
0000
0000
0000
0002
0000
0000
0000
0003
0000
0000
0000
0100
0000
0000
0000
1000
0000
0000
0000
0000
0000
0000
0000
0010
0000
0000
0000
0000
0100
0000
0000
0001
0000
0000
0000
0000
1000
0000
0000
,
0200
0000
0000
0000
0000
0000
0010
0000
0000
0000
0000
0000
2300
0000
0000
0000
0000
0000
3001
0000
0000
0200
0000
0000
0300
0000
0000
0010
0000
0000
1000
0000
0000
0000
0000
0000
0001
0000
0000
0000
1000
0000
0100
0000
0000
0000
1000
0000
,
0002
0000
0100
0003
2000
0000
0100
3000
0001
0100
0010
1000
0001
0000
0010
0000
,
2100
0000
0000
0000
0000
0000
3001
0000
0000
0000
0000
0000
0102
0000
0000
0000
0000
0000
1003
0000
0000
0200
0000
0000
0300
0000
0000
0000
0010
0000
0001
0000
0000
0000
0000
0000
0020
0000
0000
0000
0000
0000
0130
0000
0000
0000
1000
0000
,
0001
0000
0100
M00M
0100
0000
0100
0000
0001
0000
1000
0200
0000
0300
0010
0001
,
1000
0000
0100
M00M
0100
0000
0100
0000
1000
0001
0100
0020
0000
0130
0001
0000
,
1000
0000
0010
M00M
0010
0000
0010
0000
1000
0001
0000
0020
0100
0000
0031
1000
,
0010
0000
0110
0000
1000
0001
0010
0000
0100
1000
0001
0100
0020
0030
2000
3000
,
0200
0000
0010
0300
2000
3000
0002
0003
0200
0000
0010
0300
0002
0003
2000
3000
,
0200
0000
0010
0300
2000
3000
0002
0003
0200
0000
0010
0300
0002
0003
2000
3000
,
0020
0000
0100
0030
2000
3000
0002
0003
0020
0000
0100
0030
0002
0003
2000
3000
,
0020
0000
0100
0030
2000
3000
0002
0003
0020
0000
0100
0030
0002
0003
2000
3000
,
0001
0000
0001
0000
0100
00M0
0100
0000
1000
0000
1000
0000
0100
00M0
0100
0000
,
0001
0000
0001
0000
0010
0M00
0010
0000
1000
0000
1000
0000
0010
0M00
0010
0000
,
0001
1000
0001
0100
0010
1000
0001
0010
0100
1000
0001
1000
0010
0100
0001
1000
,
0200
0300
0000
0000
0000
0010
0000
0000
0001
0000
0000
0000
0000
1000
0000
0000
0020
0030
0000
0000
0000
0100
0000
0000
0001
0000
0000
0000
0000
1000
0000
0000
0200
0300
0000
0000
0000
0010
0000
0000
0001
0000
0000
0000
0000
0000
0000
0000
0220
0000
0000
0000
0000
0000
0000
0000
0330
0000
0000
0000
0000
0000
0000
0000
,
2001
0000
3001
0010
0M00
0010
1000
0001
0010
0100
2000
0000
3001
0100
0000
0001
,
1000
0100
1000
0000
0000
0000
0001
0000
1000
0010
1000
0000
0002
0000
0003
0000
1000
0100
1000
0000
0002
0000
0003
0000
1000
0010
1000
0000
0001
0000
0010
0000
,
0200
0000
0000
0000
0000
0000
0000
0000
0310
0000
0000
0000
0001
0000
0000
0000
1000
0000
0000
0000
0010
0000
0000
0000
0100
0000
0000
0000
0010
0000
0000
0000
0004
0003
0000
0000
0000
0000
0000
0000
0020
0000
0000
0000
0100
0000
0000
0000
0030
0000
0000
0000
1000
0000
0000
0000
0001
0000
0000
0000
0010
0000
0000
0000
,
0M00
0010
1000
0010
0M00
0010
0002
0000
1003
0000
0020
0100
0030
2000
3001
0010
,
0200
0000
0310
0001
1000
0010
0M00
0010
0001
1000
0020
0100
0030
1000
0001
0010
,
0M00
0000
0000
0000
0010
0000
0000
0000
1000
0000
0000
0000
0010
0000
0000
0000
0M00
0000
0000
0000
0010
0000
0000
0000
0002
0000
0000
0000
0000
0000
0000
0000
1003
0000
0000
0000
0000
0000
0000
0000
0001
0000
0000
0000
0200
0300
0000
0000
00M0
0000
0000
0000
0200
0300
0000
0000
1000
0000
0000
0000
0001
0000
0000
0000
,
1000
0000
0000
0000
0010
0000
0000
0000
0M00
0000
0000
0000
0010
0000
0000
0000
0001
0000
0000
0000
0010
0000
0000
0000
0100
0000
0000
0000
0010
0000
0000
0000
4000
3000
0000
0000
0000
0000
0000
0000
0020
0000
0000
0000
0100
0000
0000
0000
0030
0000
0000
0000
0001
0000
0000
0000
1000
0000
0000
0000
0010
0000
0000
0000
,
0M00
0000
0000
0000
0010
0000
0000
0000
0001
0000
0000
0000
0010
0000
0000
0000
0M00
0000
0000
0000
0010
0000
0000
0000
2000
0000
0000
0000
0000
0000
0000
0000
3001
0000
0000
0000
0000
0000
0000
0000
1000
0000
0000
0000
0200
0300
0000
0000
00M0
0000
0000
0000
0200
0300
0000
0000
0001
0000
0000
0000
1000
0000
0000
0000
,
0200
0000
0310
0001
1000
0010
0M00
0010
0001
1000
0020
0100
0030
1000
0001
0010
,
0M00
0010
1000
0010
0M00
0010
0002
0000
1003
0000
0020
0100
0030
2000
3001
0010
,
0001
0000
0000
0000
0100
0000
0000
0000
00M0
0000
0000
0000
0100
0000
0000
0000
1000
0000
0000
0000
0100
0000
0000
0000
0010
0000
0000
0000
0100
0000
0000
0000
0004
0003
0000
0000
0000
0000
0000
0000
0200
0000
0000
0000
0010
0000
0000
0000
0300
0000
0000
0000
1000
0000
0000
0000
0001
0000
0000
0000
0100
0000
0000
0000
,
00M0
0100
1000
0100
00M0
0100
0002
0000
1003
0000
0200
0010
0300
2000
3001
0100
,
0020
0000
0130
0001
1000
0100
00M0
0100
0001
1000
0200
0010
0300
1000
0001
0100
,
00M0
0000
0000
0000
0100
0000
0000
0000
1000
0000
0000
0000
0100
0000
0000
0000
00M0
0000
0000
0000
0100
0000
0000
0000
0002
0000
0000
0000
0000
0000
0000
0000
1003
0000
0000
0000
0000
0000
0000
0000
0001
0000
0000
0000
0020
0030
0000
0000
0M00
0000
0000
0000
0020
0030
0000
0000
1000
0000
0000
0000
0001
0000
0000
0000
,
1000
0000
0000
0000
0100
0000
0000
0000
00M0
0000
0000
0000
0100
0000
0000
0000
0001
0000
0000
0000
0100
0000
0000
0000
0010
0000
0000
0000
0100
0000
0000
0000
4000
3000
0000
0000
0000
0000
0000
0000
0200
0000
0000
0000
0010
0000
0000
0000
0300
0000
0000
0000
0001
0000
0000
0000
1000
0000
0000
0000
0100
0000
0000
0000
,
00M0
0000
0000
0000
0100
0000
0000
0000
0001
0000
0000
0000
0100
0000
0000
0000
00M0
0000
0000
0000
0100
0000
0000
0000
2000
0000
0000
0000
0000
0000
0000
0000
3001
0000
0000
0000
0000
0000
0000
0000
1000
0000
0000
0000
0020
0030
0000
0000
0M00
0000
0000
0000
0020
0030
0000
0000
0001
0000
0000
0000
1000
0000
0000
0000
,
0010
0100
0001
1000
0100
1000
0001
1000
0010
0100
0010
1000
0001
0010
0001
1000
,
0001
0100
0010
1000
0100
0010
0001
0100
0010
1000
0001
0010
0100
0000
1000
0001
,
0200
0000
0300
0000
0020
0000
0030
2002
0000
0000
0000
0000
0000
0000
0000
0000
,
3003
0000
0000
0000
;
