#TITLE:weclippedthrueachother;
#SUBTITLE:;
#ARTIST:former hero;
#TITLETRANSLIT:;
#SUBTITLETRANSLIT:;
#ARTISTTRANSLIT:;
#GENRE:;
#CREDIT:;
#BANNER:banner.png;
#BACKGROUND:background.png;
#LYRICSPATH:;
#CDTITLE:;
#MUSIC:Weclippedthrueachother.ogg;
#OFFSET:-0.159886;
#SAMPLESTART:51.216656;
#SAMPLELENGTH:24.000004;
#SELECTABLE:YES;
#BPMS:0.000000=160.000000
;
#STOPS:
;
#BGCHANGES:;
#KEYSOUNDS:;
#ATTACKS:;

//---------------dance-single - ----------------
#NOTES:
     dance-single:
     :
     Hard:
     13:
     0.589761,0.795822,0.527232,0.666501,0.517284,415.000000,362.000000,53.000000,67.000000,0.000000,0.000000,0.589761,0.795822,0.527232,0.666501,0.517284,415.000000,362.000000,53.000000,67.000000,0.000000,0.000000:
0000
0000
0000
0000
,
0000
0000
0000
0000
,
0020
0000
0000
1000
0000
0000
1030
0000
0002
1000
0000
0000
1000
0000
0003
1000
,
0020
0000
0100
0000
0000
0100
0030
0000
0102
0000
0000
0100
0000
0000
0103
0000
,
0020
0000
0000
1000
0000
0000
1030
0000
0002
1000
0000
0000
1000
0000
0003
1000
,
0020
0000
0100
0000
0000
0100
0030
0000
0102
0000
0000
0100
0000
0000
0103
0000
,
2000
0000
0000
0010
0000
0000
3010
0000
0200
0001
0000
0000
0001
0000
0300
0001
,
2000
0000
0010
0000
0000
0010
3000
0000
0201
0000
0000
0001
0000
0000
0301
0000
,
2000
0000
0000
0010
0000
0000
3010
0000
0200
0001
0000
0000
0001
0000
0300
0001
,
2000
0000
0010
0000
0000
0010
3000
0000
0202
0000
0303
0000
2200
0000
3300
0000
,
0010
1000
0001
1000
0100
1000
0010
0100
,
0010
0100
0001
0010
0001
1000
0100
1000
,
0010
1000
0100
0001
0100
1000
0001
0010
,
0001
0100
0010
0100
0001
1000
0001
1000
,
0010
0100
0001
0010
1000
0010
0001
1000
,
0100
1000
0010
0100
0001
1000
0001
1000
,
0100
0010
0100
1000
0010
0100
0001
1000
,
0001
0000
1000
0000
0001
0000
1000
0110
,
0001
0000
0000
0020
0000
0030
0001
0000
1000
0100
0000
0000
1000
0000
0000
0001
,
1000
0000
0010
0000
0000
0200
0000
0000
0301
0000
0000
1000
0000
0000
0002
0000
,
0013
0000
0000
0000
0000
0000
0200
0000
0000
0000
0000
0000
1300
0000
0000
0000
0010
0000
2000
3000
0000
0000
0000
0000
0002
0003
0000
0000
0000
0000
0020
0030
,
0100
0000
0000
0000
0020
0000
0030
0000
0000
0000
0002
0000
0003
0000
0000
0000
2100
0000
0000
3000
0000
0000
0020
0000
0000
0030
0000
0000
2000
0000
0000
0000
,
3001
0000
0000
0200
0000
0000
0310
0000
1000
0010
0000
0000
1000
0000
0000
0001
,
0100
0000
0001
0000
0000
0020
0000
0000
0130
0000
0000
1000
0000
0000
0010
0000
,
1000
0000
0000
0000
0000
0000
0202
0000
0303
0000
0000
0000
0010
0000
0000
0000
1000
0000
0200
0300
0000
0000
0000
0000
0020
0030
0000
0000
0000
0000
0002
0003
,
1000
0000
0000
0000
0020
0000
0030
0000
0000
0000
2000
0000
3000
0000
0000
0000
0202
0000
0303
0000
0000
0000
2000
0000
0000
3000
0000
0000
0200
0000
0000
0000
,
0310
0000
0000
0002
0000
0000
1003
0000
0100
1000
0000
0000
0010
0000
0000
1000
,
0100
0000
0010
0000
0000
0200
0000
0000
1300
0000
0000
0010
0000
0000
2000
3000
,
0001
0000
0000
0220
0330
0000
1001
0000
1000
0100
0000
0000
0010
0000
0000
0001
,
1000
0000
0001
0100
0001
1000
0100
1000
0001
0010
0001
1000
0010
1000
0001
0000
,
1001
0000
0000
0200
0000
0000
0310
0000
1000
0001
0000
0000
0010
0000
0000
0001
,
0100
0000
0010
0000
0000
2000
0000
0000
3001
0000
0000
0100
0000
0000
0020
0000
,
1030
0000
0000
0200
0000
0000
1300
0000
0001
0010
0000
0000
0100
0000
0000
1100
,
0000
0000
0010
0000
0000
0010
0000
0000
0010
0000
0000
0010
0000
0000
0010
0000
,
0000
0000
1001
0101
,
1100
0110
1010
1100
,
0011
1001
1010
0110
,
1001
1100
0101
1001
,
1010
0110
1001
0011
,
1100
0110
1001
0101
,
1010
1100
1001
1010
,
0110
0000
0011
0000
1001
0000
2002
3003
,
0110
0000
0000
0010
1000
0000
0001
0000
1000
0100
0000
0000
0022
0033
0000
0001
,
1000
0000
0010
0000
1000
0100
0000
0000
0021
0000
0030
0100
2000
0000
3010
0000
,
0100
0000
0000
0001
1000
0000
0010
0000
1000
0001
0000
0000
1001
0000
0000
0010
,
1000
0000
0100
0000
0010
0100
0000
0000
0010
0000
0001
0001
2000
3000
2000
3000
,
0110
0000
0000
0100
0001
0000
1000
0000
0001
0010
0000
0000
2200
3300
0000
1000
,
0001
0000
0100
0000
0001
0010
0000
0000
1200
0000
0300
0010
0002
0000
0103
0000
,
0010
0000
0000
1000
0001
0000
0100
0000
0001
1000
0000
0000
1001
0000
0000
0100
,
0010
0000
1000
0000
0001
1000
0000
0000
0101
0000
0000
0100
0010
0000
0100
0000
,
0001
1000
0000
0000
0001
0000
0000
1000
0000
0000
0001
0000
0000
1000
0000
0000
,
0010
0000
0000
1000
0000
0000
0010
0000
0000
1000
0000
0000
0001
0000
0000
0100
,
0000
0000
0001
0000
0000
0010
0000
0000
0100
0000
0000
1000
0000
0000
0010
0000
,
0000
1000
0000
0000
0001
0000
0000
1000
0000
0000
0100
0000
0000
1000
0000
0000
,
0010
0000
0000
0100
0000
0000
0001
0000
0000
1000
0000
0000
0100
0000
0000
0010
,
0000
0000
0001
0000
0000
0010
0000
0000
0100
0000
0000
1000
0000
0000
0010
0000
,
0000
1000
0000
0000
0001
0000
0000
0010
0000
0000
0100
0000
0000
0010
0000
0000
,
0001
0000
0000
1000
0000
0000
0100
0000
0000
0010
0000
0000
0100
0000
0000
0000
,
2002
0000
0000
0000
,
0000
0000
0000
0000
,
0000
0000
0000
0000
,
0000
0000
0000
0000
,
0000
0000
0000
0000
,
0000
0000
0000
0000
,
3003
0000
0000
0000
;

//---------------dance-single - ----------------
#NOTES:
     dance-single:
     :
     Medium:
     8:
     0.416385,0.445660,0.169112,0.159164,0.288485,293.000000,276.000000,17.000000,16.000000,0.000000,0.000000,0.416385,0.445660,0.169112,0.159164,0.288485,293.000000,276.000000,17.000000,16.000000,0.000000,0.000000:
0000
0000
0000
0000
,
0000
0000
0000
0000
,
1000
0000
0000
0100
0000
0000
1000
0000
0000
0100
0000
0000
1000
0000
0000
0100
,
0000
0000
1000
0000
0000
0100
0000
0000
1000
0000
0000
0100
0000
0000
1000
0000
,
0010
0000
0000
1000
0000
0000
0010
0000
0000
1000
0000
0000
0010
0000
0000
1000
,
0000
0000
0010
0000
0000
1000
0000
0000
0010
0000
0000
1000
0000
0000
0010
0000
,
0100
0000
0000
0001
0000
0000
0100
0000
0000
0001
0000
0000
0100
0000
0000
0001
,
0000
0000
0100
0000
0000
0001
0000
0000
0100
0000
0000
0001
0000
0000
0100
0000
,
0010
0000
0000
0100
0000
0000
0010
0000
0000
0100
0000
0000
0010
0000
0000
0100
,
0000
0000
0010
0000
0000
0100
0000
0000
0010
0000
0000
0000
0110
0000
0000
0000
,
1001
0000
1000
0001
1000
0000
0001
0000
,
0010
0100
0010
0000
0001
0000
0100
0000
,
0001
0000
1000
0001
1000
0000
0010
0000
,
1000
0010
1000
0000
0001
0000
1000
0000
,
0001
0000
0010
0100
0010
0000
0001
0000
,
0100
0001
0100
0000
0010
0000
1000
0000
,
0001
0000
1000
0001
1000
0000
0100
0000
,
0010
0100
0010
0000
0001
0000
1000
1000
,
0010
0000
0000
1000
0000
0000
0001
0000
0000
1000
0000
0000
0100
0000
0000
0010
,
0000
0000
0001
0000
0000
0010
0000
0000
0100
0000
0000
1000
0000
0000
0010
0000
,
1000
0000
0000
0001
0000
0000
0100
0000
0000
0010
0000
0000
0100
0000
0000
0001
,
0000
0000
1000
0000
0000
0001
0000
0000
0010
0000
0000
0001
0000
0000
0100
0000
,
0010
0000
0000
1000
0000
0000
0001
0000
0000
1000
0000
0000
0100
0000
0000
0010
,
0000
0000
0001
0000
0000
1000
0000
0000
0001
0000
0000
0100
0000
0000
0010
0000
,
1000
0000
0000
0100
0000
0000
0010
0000
0000
0001
0000
0000
1000
0000
0000
0100
,
0000
0000
0001
0000
0000
1000
0000
0000
0010
0000
0000
0001
0000
0000
0100
0000
,
0010
0000
0000
0100
0000
0000
0001
0000
0000
0100
0000
0000
0010
0000
0000
1000
,
0000
0000
0100
0000
0000
0010
0000
0000
0100
0000
0000
1000
0000
0000
0001
0000
,
0100
0000
0000
0010
0000
0000
1000
0000
0000
0001
0000
0000
0100
0000
0020
0000
,
0000
0000
1000
0000
0000
1000
0000
0000
1000
0000
0000
1000
0000
0000
1030
0000
,
0001
0000
0000
0100
0000
0000
1000
0000
0000
0100
0000
0000
0001
0000
0000
0010
,
0000
0000
0001
0000
0000
1000
0000
0000
0100
0000
0000
0001
0000
0000
0100
0000
,
1000
0000
0000
0010
0000
0000
0100
0000
0000
0001
0000
0000
1000
0000
0000
0200
,
0000
0000
0010
0000
0000
0010
0000
0000
0010
0000
0000
0010
0000
0000
0310
0000
,
0000
0000
0101
0100
,
0110
0010
1010
1000
,
1001
0010
1100
0001
,
0110
0100
0010
0100
,
0011
0001
1001
1000
,
1010
0010
0110
0100
,
0101
1000
0011
0100
,
1010
0000
1000
0000
0001
0000
0220
0330
,
1000
0000
0001
1000
0001
0000
0200
0000
,
0310
1000
0010
0000
2000
0000
3200
0000
,
0310
0000
0100
0010
0100
0000
0010
0000
,
0001
1000
0001
0000
0100
0000
0010
0010
,
1000
0000
0001
0010
0001
0000
2000
0000
,
3010
0100
0010
0000
2000
0000
3002
0000
,
0013
0000
0100
1000
0100
0000
0010
0000
,
0001
0100
0001
0000
0010
0000
0100
0000
,
2000
0010
0010
0010
,
3002
0100
0100
0010
,
0203
0010
0010
0001
,
0320
1000
1000
0100
,
1030
0001
1000
0001
,
1000
0100
0010
0100
,
0010
0001
1000
0001
,
0100
0001
0100
0010
,
2002
0000
0000
0000
,
0000
0000
0000
0000
,
0000
0000
0000
0000
,
0000
0000
0000
0000
,
0000
0000
0000
0000
,
0000
0000
0000
0000
,
3003
0000
0000
0000
;

//---------------dance-single - ----------------
#NOTES:
     dance-single:
     :
     Easy:
     5:
     0.233062,0.268590,0.169112,0.069634,0.000000,164.000000,147.000000,17.000000,7.000000,0.000000,0.000000,0.233062,0.268590,0.169112,0.069634,0.000000,164.000000,147.000000,17.000000,7.000000,0.000000,0.000000:
0000
0000
0000
0000
,
0000
0000
0000
0000
,
0010
0000
1000
0000
,
0010
0000
1000
0000
,
0010
0000
0200
0000
,
0000
0000
0000
0300
,
0001
0000
0010
0000
,
0001
0000
0010
0000
,
0100
0000
2000
0000
,
0000
0000
0001
3001
,
0001
0100
0001
1000
,
0010
1000
0001
1000
,
0100
1000
0100
0010
,
0001
0100
0010
1000
,
1000
0010
1000
0001
,
0100
0010
0100
1000
,
0100
0010
0100
0010
,
0001
0000
1000
0000
0001
0000
0100
0001
,
0100
0000
0110
0000
,
0010
1000
1001
0000
,
0010
0000
0110
0000
,
0100
0010
0011
0000
,
0001
0000
1100
0000
,
1000
0100
1100
0000
,
0010
0000
1001
0000
,
1000
0100
0110
0000
,
0010
0001
1001
0000
,
0001
1000
1100
0100
,
1000
0000
1010
0000
,
0020
0000
0000
0000
,
1030
0001
0101
0000
,
0010
0001
0011
0010
,
0100
0000
1001
0000
,
0002
0000
0000
0000
,
0003
0000
1001
0001
,
1000
1000
0001
0001
,
0100
0100
0010
0010
,
0100
0100
0002
0000
,
1003
0000
0100
0100
,
1000
1000
0100
0100
,
0010
0010
0001
0001
,
0010
0010
0001
1001
,
1000
0000
0010
0010
,
0100
0100
0010
0010
,
1000
1000
0001
0001
,
1000
0000
1000
0000
0001
0000
1000
0001
,
1000
0000
0010
0100
,
0010
0010
1000
1000
,
0001
1000
0001
0001
,
1000
1000
0100
0010
,
2002
0000
0000
0000
,
0000
0000
0000
0000
,
0000
0000
0000
0000
,
0000
0000
0000
0000
,
3003
0000
0000
0000
;

//---------------dance-single - ----------------
#NOTES:
     dance-single:
     :
     Beginner:
     1:
     0.089530,0.124347,0.049739,0.000000,0.000000,63.000000,58.000000,5.000000,0.000000,0.000000,0.000000,0.089530,0.124347,0.049739,0.000000,0.000000,63.000000,58.000000,5.000000,0.000000,0.000000,0.000000:
// measure 0
0000
0000
0000
0000
,  // measure 1
0000
0000
0000
0000
,  // measure 2
0001
0000
0000
0000
,  // measure 3
1000
0000
0000
0000
,  // measure 4
0001
0000
0000
0000
,  // measure 5
0000
0000
0000
0000
,  // measure 6
1000
0000
0000
0000
,  // measure 7
0001
0000
0000
0000
,  // measure 8
1000
0000
0000
0000
,  // measure 9
0000
0000
0000
0000
,  // measure 10
0010
0000
0010
0000
,  // measure 11
0010
0000
0010
0000
,  // measure 12
1000
0000
1000
0000
,  // measure 13
0000
0000
0000
0000
,  // measure 14
0001
0000
0001
0000
,  // measure 15
0001
0000
0001
0000
,  // measure 16
1000
0000
1000
0000
,  // measure 17
0000
0000
0000
0000
,  // measure 18
1001
0000
0000
0000
,  // measure 19
0010
0000
0000
0000
,  // measure 20
1000
0000
0000
0000
,  // measure 21
0001
0000
0000
0000
,  // measure 22
0110
0000
0000
0000
,  // measure 23
0001
0000
0000
0000
,  // measure 24
0010
0000
0000
0000
,  // measure 25
0001
0000
0000
0000
,  // measure 26
1001
0000
0000
0000
,  // measure 27
0100
0000
0000
0000
,  // measure 28
1000
0000
0000
0000
,  // measure 29
0100
0000
0000
0000
,  // measure 30
0110
0000
0000
0000
,  // measure 31
0001
0000
0000
0000
,  // measure 32
0100
0000
0000
0000
,  // measure 33
0000
0000
0000
0000
,  // measure 34
1000
0000
0001
0000
,  // measure 35
1000
0000
0001
0000
,  // measure 36
1000
0000
0001
0000
,  // measure 37
0000
0000
0000
0000
,  // measure 38
0001
0000
1000
0000
,  // measure 39
0001
0000
1000
0000
,  // measure 40
0001
0000
1000
0000
,  // measure 41
0000
0000
0000
0000
,  // measure 42
0010
0000
0100
0000
,  // measure 43
0010
0000
0100
0000
,  // measure 44
0010
0000
0100
0000
,  // measure 45
0000
0000
0000
0000
,  // measure 46
0100
0000
0010
0000
,  // measure 47
0100
0000
0010
0000
,  // measure 48
0100
0000
0010
0000
,  // measure 49
0000
0000
0000
0000
,  // measure 50
1001
0000
0000
0000
;
