#VERSION:0.83;
#TITLE:weclippedthrueachother;
#SUBTITLE:(VIP);
#ARTIST:former hero;
#TITLETRANSLIT:;
#SUBTITLETRANSLIT:;
#ARTISTTRANSLIT:;
#GENRE:;
#ORIGIN:;
#CREDIT:;
#BANNER:weclippedthrueachother (VIP).png;
#BACKGROUND:weclippedthrueachother (VIP)-bg.png;
#PREVIEWVID:;
#JACKET:weclippedthrueachother (VIP)-jacket.png;
#CDIMAGE:;
#DISCIMAGE:;
#LYRICSPATH:;
#CDTITLE:;
#MUSIC:weclippedthrueachother (VIP).ogg;
#OFFSET:-0.134443;
#SAMPLESTART:33.153297;
#SAMPLELENGTH:12.000000;
#SELECTABLE:YES;
#DISPLAYBPM:160.000000:320.000000;
#BPMS:0.000=160.000,
75.000=213.333,
78.000=284.444,
82.000=379.259,
87.333=505.679,
89.688=674.239,
96.021=160.000,
101.000=320.000,
220.000=160.000,
223.500=320.000,
225.000=160.000;
#STOPS:223.500=0.469;
#DELAYS:;
#WARPS:;
#TIMESIGNATURES:0.000=4=4;
#TICKCOUNTS:0.000=4;
#COMBOS:0.000=1;
#SPEEDS:0.000=1.000=0.000=0;
#SCROLLS:0.000=1.000;
#FAKES:;
#LABELS:0.000=Song Start;
#BGCHANGES:;
#KEYSOUNDS:;
#ATTACKS:
;

//---------------dance-single - ----------------
#NOTEDATA:;
#CHARTNAME:;
#STEPSTYPE:dance-single;
#DESCRIPTION:;
#CHARTSTYLE:;
#DIFFICULTY:Challenge;
#METER:16;
#RADARVALUES:0.796397,1.100620,0.239347,0.349047,0.613326,559.000000,535.000000,24.000000,35.000000,0.000000,0.000000,0.000000,0.000000,0.000000,0.796397,1.100620,0.239347,0.349047,0.613326,559.000000,535.000000,24.000000,35.000000,0.000000,0.000000,0.000000,0.000000,0.000000;
#CREDIT:Daniel Van Eden;
#DISPLAYBPM:160.000000:320.000000;
#NOTES:
// measure 0
0000
0000
0000
0000
,  // measure 1
0000
0000
0000
0000
,  // measure 2
1010
0000
0000
1000
0000
0000
1000
0000
0100
1000
0000
0000
1100
0000
0100
1000
,  // measure 3
0010
0000
1000
0000
0010
1000
0010
0000
1200
0000
0000
1000
0300
0000
1000
0000
,  // measure 4
0120
0000
0000
0100
0030
0000
0100
0000
0002
0100
0000
0000
0100
0000
0003
0100
,  // measure 5
0002
0000
0103
0000
0002
0100
0003
0000
0100
0001
0000
0110
0000
0000
0100
0000
,  // measure 6
0011
0000
0000
0001
0000
0000
0001
0000
0100
0001
0000
0000
0101
0000
0100
0001
,  // measure 7
0010
0000
0001
0000
0010
0001
0010
0000
0201
0000
0000
0001
0300
0000
0001
0000
,  // measure 8
0120
0000
0000
0100
0030
0000
0100
0000
2000
0100
0000
0000
0100
0000
3000
0100
,  // measure 9
2000
0000
3100
0000
2000
0100
3000
0000
1100
0000
0000
0000
0101
0000
0000
0000
,  // measure 10
0010
1000
0010
1000
0001
0100
0010
1000
0100
0000
0010
0000
0100
0000
0010
0000
,  // measure 11
0001
1000
0100
1000
0010
0100
0002
0000
,  // measure 12
1003
0010
1000
0001
0100
0010
0100
0001
,  // measure 13
0010
0000
0100
0000
1000
0000
0100
0000
1000
0000
0010
0100
0000
0100
0000
0100
,  // measure 14
0001
1000
0010
1000
0001
0100
0010
0100
,  // measure 15
0001
0010
0100
1000
0010
1000
0001
0010
,  // measure 16
0100
0010
0001
1000
0100
1000
0001
0100
,  // measure 17
0001
0010
0100
1000
0010
0100
0010
1001
,  // measure 18
1100
0000
0000
0000
0000
0000
0010
0000
0000
0000
0000
0000
0001
0000
0000
0000
0000
0000
1000
0000
0000
0000
0000
0000
0002
0003
0000
0000
0000
0000
0000
0000
,  // measure 19
2000
0000
0000
0000
0000
0000
0000
0000
0000
0000
0000
0000
3000
0000
0000
0000
0000
0000
0000
0000
0000
0000
0000
0000
0000
0000
0000
0000
0000
0000
0000
0000
0000
0000
0000
0000
0000
0000
0000
0000
0000
0000
0000
0000
0000
0000
0000
0000
0002
0000
0000
0000
0000
0000
0000
0000
0000
0000
0000
0000
0000
0000
0000
0000
0000
0000
0003
0000
0000
0000
0000
0000
0000
0000
0000
0000
0000
0000
0000
0000
0000
0000
0000
0000
0000
0000
0000
0000
0000
0000
0000
0000
0000
0000
0000
0000
2000
0000
0000
0000
0000
0000
0000
0000
0000
0000
0000
0000
0000
0000
0000
0000
0000
0000
0000
0000
0000
0000
0000
0000
3000
0000
0000
0000
0000
0000
0000
0000
0000
0000
0000
0000
0000
0000
0000
0000
0000
0000
0000
0000
0000
0000
0000
0000
0000
0000
0000
0000
0000
0000
0000
0000
0000
0000
0000
0000
0000
0000
0000
0000
0002
0000
0000
0000
0000
0000
0000
0000
0000
0000
0000
0000
0000
0000
0000
0000
0000
0000
0000
0000
0000
0000
0000
0000
0000
0000
0003
0000
0000
0000
0000
0000
,  // measure 20
0000
0000
0000
0000
0000
0000
0000
0000
0000
0000
0000
0000
0000
0000
0000
0000
0000
0000
0000
0000
0000
0000
0000
0000
0000
0000
0000
0000
0000
0000
0000
0000
2000
0000
0000
0000
0000
0000
0000
0000
0000
0000
0000
0000
0000
0000
0000
0000
0000
0000
0000
0000
0000
0000
0000
0000
0000
0000
0000
0000
0000
0000
0000
0000
0000
0000
0000
0000
0000
0000
0000
0000
3000
0000
0000
0000
0000
0000
0000
0000
0000
0000
0000
0000
0000
0000
0000
0000
0000
0000
0000
0000
0000
0000
0000
0000
0002
0000
0000
0000
0000
0000
0000
0000
0000
0000
0000
0000
0000
0000
0000
0000
0000
0000
0000
0000
0000
0000
0000
0000
0000
0000
0000
0000
0000
0000
0000
0000
0000
0000
0000
0000
0000
0000
0000
0000
0000
0000
0000
0000
0000
0000
0000
0000
0003
0000
0000
0000
0000
0000
0000
0000
0000
0000
0000
0000
0000
0000
0000
0000
0000
0000
0000
0000
0000
0000
0000
0000
0000
0000
0000
0000
0000
0000
0000
0000
0000
0000
0000
0000
0000
2000
0000
0000
0000
0000
0000
0000
0000
0000
0000
0000
,  // measure 21
0000
0000
0000
0000
0000
0000
0000
0000
0000
0000
0000
0000
0000
0000
3000
0000
0000
0000
0000
0000
0000
0000
0000
0000
0000
0002
0000
0000
0000
0000
0000
0000
0000
0000
0000
0000
0000
0000
0000
0000
0000
0000
0000
0000
0000
0003
0000
0000
0000
0000
0000
0000
0000
2000
0000
0000
0000
0000
0000
0000
0000
0000
0000
0000
,  // measure 22
0000
0000
0000
0000
0000
0000
0000
0000
0000
0000
0000
0000
0000
0000
0000
0000
0000
0000
0000
0000
0000
0000
0000
0000
0000
0000
0000
0000
0000
0000
0000
0000
0000
0000
0000
0000
0000
0000
0000
0000
0000
0000
0000
0000
0000
0000
0000
0000
0000
0000
0000
0000
3000
0000
0000
0000
0000
0000
0000
0000
0000
0000
0000
0000
0000
0000
0000
0000
0000
0000
0000
0000
0000
0000
0000
0000
0000
0000
0000
0000
0000
0002
0000
0000
0000
0000
0000
0000
0000
0000
0000
0000
0000
0000
0000
0000
0000
0000
0000
0000
0000
0000
0000
0000
0000
0000
0000
0000
0000
0000
0000
0000
0000
0000
0000
0000
0000
0000
0000
0000
0000
0000
0000
0000
0000
0000
0000
0000
0000
0000
0000
0000
0000
0000
0000
0000
0000
0000
0000
0000
0000
0000
0000
0000
0000
0000
0000
0000
0000
0000
0000
0000
0000
0000
0000
0000
0000
0000
0000
0000
0000
0000
0000
0000
0000
0000
0000
0000
0000
0000
0000
0000
0000
0000
0000
0000
0000
0000
0000
0000
0000
0000
0000
0000
0000
0000
0000
0000
0000
0000
0000
0000
,  // measure 23
0000
0000
0000
0000
0003
0000
0000
2000
0000
0000
0000
0000
0000
0000
0000
0000
0000
0000
0000
0000
0000
0000
0000
0000
0000
0000
0000
0000
0000
0000
0000
0000
,  // measure 24
3001
0100
0010
1000
0001
0100
0010
1000
0100
0000
0010
0000
0001
0000
1000
0010
,  // measure 25
0100
0000
0001
0100
0010
0000
0000
0000
1000
0000
0000
0000
0100
0000
0010
0000
,  // measure 26
0100
0000
1000
0000
0010
0100
0010
0000
,  // measure 27
0100
0000
0001
1000
0010
0000
0100
0000
,  // measure 28
0001
0010
0100
0000
0010
0000
0001
0000
,  // measure 29
1000
0100
1000
0000
0001
0000
0010
0100
,  // measure 30
0010
0000
0001
0000
0100
0010
0100
0000
,  // measure 31
0001
0000
1000
0010
1000
0000
0001
0000
,  // measure 32
1000
0001
0100
0000
0010
0000
1000
0000
,  // measure 33
0001
0100
0001
0000
0010
0000
0100
1000
,  // measure 34
0001
0000
0010
0000
0001
1000
0100
0000
,  // measure 35
0010
0000
0100
0010
0001
0000
1000
0000
,  // measure 36
0001
1000
0001
0000
0010
0000
0100
0000
,  // measure 37
0010
0001
0010
0000
0001
0000
1000
0001
,  // measure 38
0100
0000
0001
0000
1000
0010
1000
0000
,  // measure 39
0001
0000
0010
0100
1000
0000
1000
0010
,  // measure 40
1000
0010
0100
0001
0100
0001
0010
0000
,  // measure 41
0100
0010
0001
0000
1000
0000
0001
1000
,  // measure 42
0100
0000
1000
0000
0001
1000
0010
0000
,  // measure 43
0100
0000
0001
0100
0010
0000
1000
0000
,  // measure 44
0010
0100
0001
0000
0010
0000
0100
0000
,  // measure 45
1000
0001
0010
0000
0100
0000
0010
0001
,  // measure 46
0100
0000
0010
0000
1000
0001
0100
0000
,  // measure 47
0001
0100
0010
1000
0010
0100
0001
0100
,  // measure 48
0010
1000
0001
0100
0010
1000
0100
0000
,  // measure 49
0000
0100
0010
0000
0001
0000
0010
0001
,  // measure 50
1000
0000
1001
0000
0001
1000
0100
0000
,  // measure 51
1000
0000
0010
1000
0010
0000
0100
0000
,  // measure 52
0001
1000
0010
1000
0001
0000
0010
0000
,  // measure 53
0100
0010
0001
0000
0010
0000
0100
0010
,  // measure 54
0100
0000
1100
0000
0100
1000
0001
0000
,  // measure 55
0020
0000
0030
0020
0000
0030
0020
0000
0030
0020
0000
0030
0020
0000
0030
0000
,  // measure 56
0000
0000
0000
0000
0001
0100
0001
0100
0001
0000
1000
0000
0010
1000
0010
1000
,  // measure 57
0010
0000
1000
0000
0001
0100
0001
0100
0010
1000
0010
1000
0100
0000
0000
1000
,  // measure 58
0100
0000
0010
0000
0100
0010
0000
0000
0011
0000
0000
0001
0100
0000
0010
0000
,  // measure 59
1000
0010
0000
0000
1010
0000
0000
1000
0001
0000
0010
0000
0100
1000
0100
1000
,  // measure 60
0100
0000
1000
0000
0001
0010
0001
0010
0001
0000
0010
0000
0100
1000
0100
1000
,  // measure 61
0100
0000
1000
0000
0001
0010
0001
0010
0100
1000
0100
1000
0010
0000
0000
0010
,  // measure 62
0100
0000
0010
0000
1000
0001
0000
0000
0101
0000
0000
0100
0001
0000
0010
0000
,  // measure 63
0100
1000
0000
0000
1001
0000
0000
0000
0220
0000
0330
0000
0010
1000
0010
1000
,  // measure 64
0001
0000
0100
0000
0001
1000
0001
1000
0100
0000
0010
0000
0001
0010
0001
0010
,  // measure 65
0100
0000
1000
0000
0100
1000
0100
1000
0001
0010
0001
0010
0100
0000
0000
0010
,  // measure 66
0100
0000
0010
0000
0001
0010
0000
0000
1100
0000
0000
0010
1000
0000
0001
0000
,  // measure 67
1000
0010
0000
0000
0001
0000
1000
1000
0200
0300
0020
0030
0001
1000
0001
1000
,  // measure 68
0010
0000
1000
0000
0001
0100
0001
0100
0010
0000
1000
0000
0010
0100
0010
0100
,  // measure 69
0001
0000
1000
0000
0001
0010
0001
0010
0100
1000
0100
1000
0001
0000
0000
0001
,  // measure 70
1000
0000
0010
0000
1000
0100
0000
0000
0110
0000
0000
0010
0100
0000
0010
0000
,  // measure 71
0001
0100
0000
0000
0101
0000
0000
0001
1000
0000
0010
0000
2000
0100
0000
0000
,  // measure 72
0100
0000
0000
0100
0000
0000
0100
0000
0000
0100
0000
0000
0010
0000
0000
0010
,  // measure 73
0000
0000
0010
0000
0000
0010
0000
0000
0010
0000
0000
0001
0000
0000
0001
0000
,  // measure 74
0000
0001
0000
0000
0010
0000
0000
0010
0000
0000
0010
0000
0000
0010
0000
0000
,  // measure 75
0100
0000
0000
0100
0000
0000
0100
0000
0000
3100
0000
0000
0012
0000
0000
0010
,  // measure 76
0000
0000
0010
0000
0000
0010
0000
0000
1000
0000
0000
1000
0000
0000
1000
0000
,  // measure 77
0000
0100
0000
0000
0100
0000
0000
0100
0000
0000
0100
0000
0000
0010
0000
0000
,  // measure 78
0010
0000
0000
0010
0000
0000
1000
0000
0000
1000
0000
0000
1000
0000
0000
0010
,  // measure 79
0000
0000
0010
0000
0000
0010
0000
0000
0010
0000
0000
0013
0200
0000
0000
0000
,  // measure 80
0000
0000
0000
0000
,  // measure 81
0000
0000
0000
0300
;
