#VERSION:0.83;
#TITLE:tonight;
#SUBTITLE:;
#ARTIST:Tomggg;
#TITLETRANSLIT:;
#SUBTITLETRANSLIT:;
#ARTISTTRANSLIT:;
#GENRE:;
#ORIGIN:;
#CREDIT:;
#BANNER:tonight.png;
#BACKGROUND:tonight-bg.png;
#PREVIEWVID:;
#JACKET:tonight-jacket.png;
#CDIMAGE:;
#DISCIMAGE:;
#LYRICSPATH:;
#CDTITLE:;
#MUSIC:tonight.ogg;
#OFFSET:0.846786;
#SAMPLESTART:38.751358;
#SAMPLELENGTH:19.200001;
#SELECTABLE:YES;
#BPMS:0.000=200.000;
#STOPS:199.500=0.450,
206.000=0.750;
#DELAYS:;
#WARPS:;
#TIMESIGNATURES:0.000=4=4;
#TICKCOUNTS:0.000=4;
#COMBOS:0.000=1;
#SPEEDS:0.000=1.000=0.000=0;
#SCROLLS:0.000=1.000;
#FAKES:;
#LABELS:0.000=Song Start;
#BGCHANGES:;
#KEYSOUNDS:;
#ATTACKS:
;

//---------------dance-single - ----------------
#NOTEDATA:;
#CHARTNAME:;
#STEPSTYPE:dance-single;
#DESCRIPTION:;
#CHARTSTYLE:;
#DIFFICULTY:Hard;
#METER:13;
#RADARVALUES:0.596959,0.684960,0.232612,0.299073,0.004154,503.000000,475.000000,28.000000,36.000000,0.000000,0.000000,0.000000,0.000000,0.000000,0.596959,0.684960,0.232612,0.299073,0.004154,503.000000,475.000000,28.000000,36.000000,0.000000,0.000000,0.000000,0.000000,0.000000;
#CREDIT:Daniel Van Eden;
#NOTES:
// measure 0
0000
0000
0000
0000
,  // measure 1
0000
0000
0000
0000
,  // measure 2
0000
0000
0000
0000
,  // measure 3
0000
0000
0000
0000
,  // measure 4
0000
0000
0000
0000
,  // measure 5
0000
0000
0000
0000
,  // measure 6
0000
0000
0000
0000
,  // measure 7
0000
0000
0000
0000
,  // measure 8
0000
0000
0010
1000
,  // measure 9
0200
0010
0000
0010
,  // measure 10
0000
0310
0001
0010
,  // measure 11
0200
0000
1300
0010
0200
0000
0301
0010
,  // measure 12
0100
1000
0100
0000
0010
0000
0001
0000
,  // measure 13
0200
0010
0000
0010
,  // measure 14
0000
0310
1000
0100
,  // measure 15
0020
0000
0031
1000
0200
0000
0310
0001
,  // measure 16
0100
0010
1000
0000
0000
0000
0101
0000
,  // measure 17
0001
0100
0010
1000
0000
0100
0000
0100
,  // measure 18
0000
0010
0000
0000
0000
0000
1100
0000
,  // measure 19
1000
0100
0010
0001
0000
0100
0000
0100
,  // measure 20
0000
0110
0000
0000
0000
0000
0011
0000
,  // measure 21
0010
0001
0010
0100
0000
1000
0000
1000
,  // measure 22
0000
0100
0000
0000
0000
0000
1010
0000
,  // measure 23
0010
1000
0100
0010
0000
0001
0000
0010
,  // measure 24
0000
0100
0000
1000
0100
0000
0010
0000
,  // measure 25
1002
0000
1000
0000
1003
0020
1000
0030
,  // measure 26
1200
1000
1300
0100
,  // measure 27
0011
0000
0010
0100
1000
0000
1000
0100
,  // measure 28
0010
0100
1000
0000
0010
0000
1000
0000
,  // measure 29
2001
0000
0001
0000
3001
0200
0001
0300
,  // measure 30
0021
0001
0031
0100
,  // measure 31
0110
0000
0010
0100
0001
0000
0001
1000
,  // measure 32
0100
0000
0000
0000
0010
0000
0000
0000
0001
0000
0000
0000
0000
0000
0000
0000
1001
0000
0000
0000
0000
0000
0000
0010
0000
0000
0000
0000
1000
0000
0000
0000
,  // measure 33
0001
0100
0010
1000
0001
0100
0010
0100
,  // measure 34
0001
1000
0001
1000
0010
0000
0101
0000
,  // measure 35
0020
0000
0130
0000
0100
1000
0000
0011
,  // measure 36
0000
1000
0010
1000
0010
0100
0001
1000
,  // measure 37
0100
0010
0001
1000
0100
0010
0001
0010
,  // measure 38
0100
1000
0010
0100
0001
0000
0011
0000
,  // measure 39
0020
0000
0130
0000
0100
1000
0010
0200
,  // measure 40
0300
0100
0001
0010
0001
0100
0001
0100
,  // measure 41
0010
1000
0010
0100
0001
1000
0100
1000
,  // measure 42
0010
0100
0001
1000
0010
0000
1010
0000
,  // measure 43
0020
0000
0130
0000
0100
0001
0000
0011
,  // measure 44
0000
0001
0010
0100
1000
0010
1000
0001
,  // measure 45
1000
0001
0100
0001
1000
0010
1000
0001
,  // measure 46
0100
0001
1000
0010
0100
0000
1001
0000
,  // measure 47
2000
0000
3100
0000
0100
0010
0000
0011
,  // measure 48
0000
0010
0001
1000
0100
0010
0100
0010
,  // measure 49
0001
1000
0100
0010
0001
1000
0010
0100
,  // measure 50
0000
0011
0000
1100
0000
0010
0001
0010
,  // measure 51
0001
1000
0100
1000
0010
0000
0220
0330
,  // measure 52
0000
1000
0100
0010
0001
0100
0010
1000
,  // measure 53
0001
0100
0010
1000
0001
0100
0010
1000
,  // measure 54
0100
0010
0100
1000
0001
0010
0001
0100
,  // measure 55
0000
0100
0001
1000
1010
0000
0101
0000
,  // measure 56
1000
0000
0010
1000
0010
0100
0000
0101
,  // measure 57
0000
0001
0100
0010
1000
0100
0000
0010
,  // measure 58
0100
1000
0100
0010
0000
0010
0100
1000
,  // measure 59
0010
0100
0001
1000
0010
1000
0100
0010
,  // measure 60
0001
0000
0100
0001
0100
0010
0000
0110
,  // measure 61
0000
0100
0010
1000
0001
0100
0000
0100
,  // measure 62
0001
0010
0100
1000
0000
0100
1000
0100
,  // measure 63
1000
0010
0100
0001
1000
0001
1000
0001
,  // measure 64
0100
0000
0001
0100
0010
1000
0000
1100
,  // measure 65
0000
0100
1000
0100
0010
0001
0000
0001
,  // measure 66
0100
0010
0100
0001
0000
0001
0100
0010
,  // measure 67
1000
0100
1000
0010
0100
0001
1000
0010
,  // measure 68
0100
0000
0001
0010
0001
1000
0000
1010
,  // measure 69
0000
0100
0010
1000
0001
0010
0000
0010
,  // measure 70
0100
1000
0100
0010
0000
0010
0001
0100
,  // measure 71
0010
1000
0001
0100
0020
0000
2030
0000
,  // measure 72
3100
0000
1000
0100
0000
0010
0000
0100
,  // measure 73
0010
0001
0000
0001
0010
0100
1000
0001
,  // measure 74
0010
0000
0001
0100
0000
0010
0000
0100
,  // measure 75
0010
1000
0000
1000
0010
0100
0001
1000
,  // measure 76
0100
0000
0010
0100
0000
1000
0000
0010
,  // measure 77
1000
0010
0000
0100
0010
0100
0001
1000
,  // measure 78
0100
0000
0010
0001
0000
0010
0000
0100
,  // measure 79
0010
0001
0000
0100
0001
0100
0010
0000
,  // measure 80
1000
0010
0100
0002
0000
0010
0000
0010
,  // measure 81
0000
1003
0000
0000
0000
0000
1000
0000
,  // measure 82
0001
0100
0010
2000
0000
0100
0000
0010
,  // measure 83
0000
3001
0000
0000
0000
0000
0100
0000
,  // measure 84
0010
0100
0001
0020
0000
0100
0000
0100
,  // measure 85
0000
0031
0000
0000
0000
0000
0001
0000
,  // measure 86
1000
0100
0010
0001
0000
0100
0000
0100
,  // measure 87
0010
1000
0001
0100
0010
1000
0001
1000
,  // measure 88
0200
0000
0000
0000
0000
0320
0000
0000
,  // measure 89
0032
0000
0100
0010
,  // measure 90
2003
0000
0000
0000
0000
3020
0000
0000
,  // measure 91
0230
0000
1000
0001
,  // measure 92
0302
0000
0000
0000
0000
0023
0000
0000
,  // measure 93
0230
0000
1000
0310
,  // measure 94
0020
0000
0000
0000
0000
0032
0000
0003
,  // measure 95
1000
0100
0010
0001
0200
0000
0000
0000
,  // measure 96
0000
0000
0000
0000
,  // measure 97
0300
0000
0000
0000
;

//---------------dance-single - ----------------
#NOTEDATA:;
#CHARTNAME:;
#STEPSTYPE:dance-single;
#DESCRIPTION:;
#CHARTSTYLE:;
#DIFFICULTY:Medium;
#METER:11;
#RADARVALUES:0.443862,0.595030,0.083076,0.215997,0.000000,374.000000,364.000000,10.000000,26.000000,0.000000,0.000000,0.000000,0.000000,0.000000,0.443862,0.595030,0.083076,0.215997,0.000000,374.000000,364.000000,10.000000,26.000000,0.000000,0.000000,0.000000,0.000000,0.000000;
#CREDIT:Daniel Van Eden;
#NOTES:
0000
0000
0000
0000
,
0000
0000
0000
0000
,
0000
0000
0000
0000
,
0000
0000
0000
0000
,
0000
0000
0000
0000
,
0000
0000
0000
0000
,
0000
0000
0000
0000
,
0000
0000
0000
0000
,
0000
0000
0010
1000
,
0100
0000
1000
0100
0000
0010
0000
0100
,
0000
0010
0000
0000
0010
0000
0001
0000
,
0010
0000
0000
0010
0100
0000
0000
0010
,
0100
1000
0001
0000
0100
0000
0001
0000
,
1000
0000
0010
1000
0000
0001
0000
1000
,
0000
0100
0000
0000
1000
0000
0100
0000
,
0010
0000
0000
0100
0010
0000
0000
0100
,
0010
0001
0100
0000
0000
0000
0010
0000
,
2000
0000
0000
0100
0000
0010
0000
0010
,
0000
3001
0000
0000
0010
0000
0001
0000
,
0002
0000
0000
0100
0000
0010
0000
0010
,
0000
1000
0003
0000
1000
0000
0010
0000
,
0200
0000
0000
0010
0000
0001
0000
0001
,
0000
0010
0300
0000
0010
0000
1000
0000
,
0200
0000
0000
1000
0000
0010
0000
0010
,
0000
1300
0000
0000
1000
0000
0010
0000
,
1000
0000
1000
0000
1000
0010
1000
0000
,
0100
0100
0100
0010
,
0001
0000
0001
0000
0001
0100
0001
0000
,
0010
0100
0010
0000
0001
0000
0010
0000
,
0100
0000
0100
0000
0100
1000
0100
0000
,
0010
0010
0001
0100
,
0010
0000
0010
1000
0010
0000
1000
0000
,
0100
1000
0100
0000
0110
0000
0000
0000
,
0001
1000
0001
1000
0001
1000
0001
1000
,
0001
1000
0001
1000
0020
0000
0030
0000
,
2000
0000
3001
0000
0000
0001
0010
0000
,
0002
0000
1003
0000
1000
0010
0000
0000
,
1000
0001
1000
0001
1000
0001
1000
0001
,
1000
0001
1000
0001
0020
0000
0030
0000
,
0002
0000
1003
0000
0000
1000
0100
0000
,
2000
0000
3001
0000
0001
0100
0000
0000
,
0001
0010
0001
0010
0100
1000
0100
1000
,
0001
0010
0001
0010
0200
0000
0300
0000
,
0020
0000
0031
0000
0001
0100
0000
0000
,
0020
0000
1030
1000
0200
0000
0300
0000
,
0010
0100
0010
0100
1000
0100
1000
0100
,
0010
0001
0010
0001
0200
0000
0300
0000
,
0020
0000
1030
0000
1000
0100
0000
0000
,
0020
0000
0031
0001
2000
0000
3000
0000
,
0000
0001
1000
0000
0010
0000
1000
0100
,
0000
1001
0000
1001
0000
0000
0100
1000
,
0000
0100
0000
0010
0001
0000
2002
3003
,
0000
0100
1000
0000
0100
0000
0010
0001
,
0010
0001
0100
0010
,
1000
0000
0001
0000
0100
0000
0010
0100
,
0000
0100
0010
0000
1010
0000
0101
0000
,
1000
0000
0100
0000
1000
0010
0000
0010
,
0100
0000
0001
0000
0100
0010
0000
0010
,
0100
0001
0010
0100
,
1000
1000
1001
0000
,
0010
0000
0001
0000
0100
0010
0000
0010
,
0100
0000
0001
0000
1000
0010
0000
0010
,
1000
0100
0010
0001
,
1000
0010
0110
0000
,
0010
0000
1000
0000
0001
1000
0000
1000
,
0100
0000
0010
0000
0001
0100
0000
0100
,
0001
0010
0100
1000
,
0001
0001
0011
0000
,
0010
0000
0100
0000
1000
0001
0000
0001
,
1000
0000
0010
0000
0100
0001
0000
0001
,
0100
0001
0010
0100
,
1000
0010
1000
0100
,
0020
0000
0000
0000
,
0000
0030
0100
0010
,
0002
0000
0003
0100
0020
0000
0030
1000
,
0010
0100
0001
0000
1000
0000
0001
0000
,
0200
0000
0000
0000
,
0000
0300
0010
1000
,
0200
0000
0300
1000
0020
0000
0030
0100
,
0001
1000
0010
0000
0000
0000
0010
0000
,
1000
0000
0001
1000
0000
0100
0000
0100
,
0000
0010
0000
0000
0000
0000
0010
0000
,
0100
0000
1000
0100
0000
0010
0000
0010
,
0000
0001
0000
0000
0000
0000
0100
0000
,
0001
0000
0100
0010
0000
1000
0000
1000
,
0000
0001
0000
0000
0000
0000
0001
0000
,
0100
0000
0001
0010
0000
0100
0000
1000
,
0000
0010
0000
0000
0010
0000
1000
0000
,
1001
0000
0000
0000
0000
0100
0000
0000
,
0010
0000
0010
1000
,
0100
0000
0000
0100
0010
0000
0000
0100
,
0010
0001
1000
0000
0100
0000
0010
0000
,
0100
0000
0000
0000
0000
1000
0000
0000
,
0010
0000
1000
0001
,
0010
0000
0000
0010
0100
0000
0000
1000
,
0001
1000
0100
0010
0001
0000
0000
0000
;

//---------------dance-single - ----------------
#NOTEDATA:;
#CHARTNAME:;
#STEPSTYPE:dance-single;
#DESCRIPTION:;
#CHARTSTYLE:;
#DIFFICULTY:Easy;
#METER:8;
#RADARVALUES:0.305007,0.436356,0.033230,0.340611,0.000000,257.000000,253.000000,4.000000,41.000000,0.000000,0.000000,0.000000,0.000000,0.000000,0.305007,0.436356,0.033230,0.340611,0.000000,257.000000,253.000000,4.000000,41.000000,0.000000,0.000000,0.000000,0.000000,0.000000;
#CREDIT:Daniel Van Eden;
#NOTES:
0000
0000
0000
0000
,
0000
0000
0000
0000
,
0000
0000
0000
0000
,
0000
0000
0000
0000
,
0000
0000
0000
0000
,
0000
0000
0000
0000
,
0000
0000
0000
0000
,
0000
0000
0000
0000
,
0000
0000
1000
0001
,
0020
0000
0000
0000
,
0030
0000
0100
0010
,
0200
0000
2300
0000
,
3010
0100
0010
0000
1000
0000
0001
0000
,
0200
0000
0000
0000
,
0300
0000
0010
1000
,
0020
0000
0230
0000
,
0301
1000
0001
0000
0000
0000
0001
0000
,
1000
0000
0000
0100
0000
0100
0000
0010
,
0000
0010
0000
0000
0000
0000
0010
0000
,
0001
0000
0000
1000
0000
0001
0000
0001
,
0000
0100
0000
0000
0000
0000
0001
0000
,
1000
0000
0010
0000
0000
1000
0000
1000
,
0000
0100
0000
0100
0000
0000
1000
0000
,
0010
0000
0000
0100
0000
0001
0000
0001
,
0000
0010
0000
0000
0010
0000
0100
0000
,
0020
0000
0000
0000
0000
0032
0000
0000
,
2003
3000
0010
1000
,
0002
0000
0000
0000
0000
0203
0000
0000
,
0310
1000
0010
0000
1000
0000
0100
0000
,
0020
0000
0000
0000
0000
0230
0000
0000
,
2300
0000
3010
0100
,
0020
0000
2030
0000
,
3001
1000
1001
0000
,
0010
1000
0010
1000
,
0010
0100
0001
0000
,
0002
0000
0013
0000
0000
0010
0000
0000
,
0200
1300
1000
0000
,
0010
1000
0001
1000
,
0001
0100
0001
0000
,
2000
0000
3010
0000
0000
0010
0000
0000
,
0200
0301
0001
0000
,
0100
0001
0100
0010
,
1000
0100
0010
0000
,
0020
0130
0100
0000
,
2000
0000
3010
0010
0000
0000
0000
0000
,
0100
0001
0100
0010
,
0100
0001
1000
0000
,
0002
0013
0010
0000
,
0200
0000
1300
1000
0000
0000
0000
0000
,
0100
0000
1000
0000
0100
0000
0000
0011
,
0000
0100
0000
0100
0000
0010
0000
1000
,
0000
0001
0000
0000
1100
0000
0110
0000
,
0000
0010
0001
0100
,
0001
0001
1000
1000
,
0010
1000
0100
0010
,
0100
0010
0001
0001
,
1000
0010
1000
0000
,
0001
0100
0001
0000
,
0010
0100
0000
0100
,
0010
0001
1000
0000
,
0100
1000
0100
0000
,
1000
0010
1000
0000
,
0001
0100
0000
0100
,
0001
0010
0100
0000
,
1000
0100
0010
0000
,
0001
0010
0100
0000
,
1000
0010
0000
0010
,
0100
0001
1000
0000
,
0001
0010
0100
0000
,
0100
1000
0100
0000
,
1000
0010
0000
0010
,
0100
0001
1000
0010
,
0200
0000
0000
0000
,
0300
0000
0001
0010
,
0002
0000
0023
0000
,
0130
1000
0100
0000
1000
0000
0010
0000
,
2000
0000
0000
0000
,
3000
0000
0001
0010
,
0002
0000
0023
0000
,
0130
1000
0100
0000
0000
0000
0000
0000
,
1000
0000
0000
0010
0000
0100
0000
0100
,
0000
0001
0000
0000
0000
0000
0001
0000
,
0010
0000
0000
0001
0000
1000
0000
1000
,
0000
0100
0000
0000
0000
0000
0100
0000
,
1000
0000
0000
0010
0000
0100
0000
0100
,
0000
0010
0000
0000
0000
0000
0100
0000
,
0001
0000
0000
0010
0000
0100
0000
0100
,
0000
1000
0000
0000
1000
0000
0001
0000
,
0200
0000
0000
0000
0000
0320
0000
0000
,
2030
0000
3000
0000
,
2000
0000
0000
0000
0000
3200
0000
0000
,
0320
0000
0030
0000
,
0002
0000
0000
0000
0000
0203
0000
0000
,
0320
0000
0030
0000
,
2000
0000
0000
0000
0000
3002
0000
0000
,
1003
0100
0010
0000
;

//---------------dance-single - ----------------
#NOTEDATA:;
#CHARTNAME:;
#STEPSTYPE:dance-single;
#DESCRIPTION:;
#CHARTSTYLE:;
#DIFFICULTY:Beginner;
#METER:4;
#RADARVALUES:0.211250,0.277681,0.058153,0.000000,0.000000,178.000000,171.000000,7.000000,0.000000,0.000000,0.000000,0.000000,0.000000,0.000000,0.211250,0.277681,0.058153,0.000000,0.000000,178.000000,171.000000,7.000000,0.000000,0.000000,0.000000,0.000000,0.000000,0.000000;
#CREDIT:Daniel Van Eden;
#NOTES:
0000
0000
0000
0000
,
0000
0000
0000
0000
,
0000
0000
0000
0000
,
0000
0000
0000
0000
,
0000
0000
0000
0000
,
0000
0000
0000
0000
,
0000
0000
0000
0000
,
0000
0000
0000
0000
,
0000
0000
0010
0010
,
0010
0000
0000
0000
,
0000
0000
1000
0000
,
0001
0000
0010
0000
,
0100
0000
0100
0100
,
0100
0000
0000
0000
,
0000
0000
1000
0000
,
0010
0000
1000
0000
,
0001
0000
0000
0000
,
1000
0000
0010
0000
,
1000
1000
0000
0000
,
0001
0000
0010
0000
,
0001
0001
0000
0000
,
0100
0000
0010
0000
,
0100
0100
0000
0000
,
0001
0000
1000
0000
,
0001
0001
0000
0000
,
1001
0000
0000
0000
0000
0001
0000
0000
,
0001
0000
0000
0000
,
1001
0000
0000
0000
0000
1000
0000
0000
,
1000
0000
0000
0000
,
0110
0000
0000
0000
0000
0010
0000
0000
,
0010
0000
0000
0000
,
0110
0000
0000
0000
0000
0100
0000
0000
,
0100
0000
1001
0000
,
1000
0000
0010
0000
,
1000
1000
1000
0000
,
0100
0000
0000
0000
0000
0010
0000
0000
,
0001
0000
0010
0000
,
0001
0000
0100
0000
,
0010
0010
0010
0000
,
1000
0000
0000
0000
0000
0001
0000
0000
,
0001
0000
1000
0000
,
0010
0000
1000
0000
,
0010
0010
0010
0000
,
1000
0000
0001
0000
,
0001
0000
0000
1000
0000
0000
0000
0000
,
1000
0000
0100
0000
,
1000
1000
1000
0000
,
0001
0000
0100
0000
,
0010
0000
0000
1000
0000
0000
0000
0000
,
1000
0000
0000
0000
0100
0000
0000
0100
,
0000
0000
0000
0000
0000
0100
0000
0000
,
0000
0010
0000
0000
0010
0000
0000
0000
,
0001
0000
1000
0000
,
0100
0000
0010
0000
,
0001
0000
1000
0000
,
0010
0000
0100
0100
,
0100
0000
0010
0000
,
1000
0000
0001
0000
,
1000
0000
0100
0000
,
0010
0010
0010
0000
,
0001
0000
1000
0000
,
0100
0000
1000
0000
,
0010
0000
1000
0000
,
0001
0001
0001
0000
,
0100
0000
0010
0000
,
1000
0000
0001
0000
,
1000
0000
0100
0000
,
0010
0010
0010
0000
,
0001
0000
0100
0000
,
0010
0000
1000
0000
,
0001
0000
0100
0000
,
0010
0010
0010
0000
,
1001
0000
0000
0000
,
1000
0000
0100
0000
,
1000
0000
0010
0000
,
0100
0100
0100
0000
,
1001
0000
0000
0000
,
0000
0000
0001
0000
,
0010
0000
0001
0000
,
1000
1000
0000
0000
,
0001
0000
1000
0000
,
0100
0000
0000
0000
,
1000
0000
0001
0000
,
0100
0000
0000
0000
,
0001
0000
1000
0000
,
0010
0000
0000
0000
,
1000
0000
0001
0000
,
0010
0000
0010
0000
,
0100
0000
0000
0000
0000
0100
0000
0000
,
0100
0000
0000
0000
,
1000
0000
0000
0000
0000
1000
0000
0000
,
1000
0000
0000
0000
,
0001
0000
0000
0000
0000
0001
0000
0000
,
0001
0000
0000
0000
,
0010
0000
0000
0000
0000
0010
0000
0000
,
0010
0010
0010
0000
;
