#TITLE:the new moe groove;
#SUBTITLE:;
#ARTIST:Moe Shop;
#TITLETRANSLIT:;
#SUBTITLETRANSLIT:;
#ARTISTTRANSLIT:;
#GENRE:Anime Groove;
#CREDIT:;
#BANNER:the new moe groove.png;
#BACKGROUND:the new moe groove-bg.png;
#LYRICSPATH:;
#CDTITLE:;
#MUSIC:the new moe groove.ogg;
#OFFSET:1.547658;
#SAMPLESTART:42.229836;
#SAMPLELENGTH:14.014599;
#LASTBEATHINT:1.179024;
#SELECTABLE:YES;
#BPMS:0.000000=137.000000
,187.000000=68.500000
,187.125000=34.250000
,187.250000=137.000000
,195.500000=68.500000
,212.000000=137.000000
;
#STOPS:
;
#BGCHANGES:;
#KEYSOUNDS:;
#ATTACKS:;

//---------------dance-single - ----------------
#NOTES:
     dance-single:
     :
     Hard:
     12:
     0.500855,0.971362,0.343068,0.242658,0.230106,419.000000,378.000000,41.000000,29.000000,0.000000,0.000000,0.500855,0.971362,0.343068,0.242658,0.230106,419.000000,378.000000,41.000000,29.000000,0.000000,0.000000:
0000
0000
0000
0000
,
0000
0000
0000
0000
,
0000
0000
0000
0000
,
0000
0000
0000
0000
,
0000
0000
0000
0000
,
0000
0000
0000
0000
,
0000
0000
0000
0000
,
0000
0000
0000
0000
,
0000
0000
0000
0000
,
1000
0010
0100
0001
0000
1000
0001
0010
,
0000
0100
1000
0001
0000
1000
0001
0010
,
0000
0100
1000
0010
0000
0100
0001
1000
,
0000
0010
0100
0001
0101
0000
1001
0000
,
0010
0100
0001
1000
0000
0100
1000
0001
,
0000
0100
0001
0010
0000
0001
0010
1000
,
0000
0010
0001
1000
0000
0010
0100
0202
,
0000
0303
1010
0000
1100
0000
0110
0000
,
1001
0001
1000
0100
0000
0010
0001
0010
,
0000
0100
1000
0010
0000
0100
0001
1000
,
0000
0010
1000
0100
0000
0010
0001
1000
,
0000
0100
1000
0001
1001
0000
1010
0000
,
0100
1000
0010
0100
0000
0001
1000
0001
,
0000
0010
0100
0001
0000
0100
1000
0010
,
2000
0000
3200
0000
0320
0000
0031
0001
,
1000
0000
0000
1000
0000
0000
0100
0000
0000
0100
0000
0000
0010
0000
0000
0010
0000
0000
0001
0000
1000
0000
0001
0000
,
0100
0000
1010
0000
0100
0001
1000
0010
,
0100
0000
0001
0000
0100
0000
0001
1000
0000
0000
0100
0000
1100
0000
1000
0000
,
0010
0000
0000
0000
1001
0000
1000
0001
0010
0000
0100
0000
1000
0000
0001
0000
,
0100
0000
0000
0001
0000
0000
0100
0000
0010
0000
1000
0000
0001
0000
0000
0000
0000
0000
0011
0000
0000
0100
0000
0000
,
1000
0000
1001
0001
0010
0001
0100
0000
,
0010
1000
0010
0000
0100
0000
0001
0000
0101
0000
0000
0000
1100
0000
0000
0000
,
1000
0100
1000
0100
0010
0001
0010
0001
,
1000
0000
0000
0100
0000
0000
0010
0000
0000
0001
0000
0000
1000
0000
0000
0001
0000
0000
0010
0000
0100
0000
0010
0000
,
0002
0000
0000
0000
0003
0000
1010
0000
0000
0000
0000
0000
0010
0000
0000
1000
0000
0000
0100
0000
0000
0010
0000
0000
,
0001
0000
0100
0000
0001
0000
0010
0100
0000
0000
1000
0000
0100
0000
0100
0000
,
0110
0000
0000
0000
0011
0000
0100
0010
0100
0000
0010
0000
1000
0000
0010
0000
,
0100
0000
0000
0001
0000
0000
1000
0000
0001
0000
1000
0000
0010
0000
0000
1000
0000
0000
0001
0000
0000
0010
0000
0000
,
0100
0000
1100
1000
0010
1000
0100
0000
,
0010
0001
0010
0000
0100
0000
1000
0000
1001
0000
0000
0000
1001
0000
0000
0000
,
0001
0100
0001
0100
0010
1000
0010
1000
,
0001
0000
0000
0100
0000
0000
0010
0000
0000
1000
0000
0000
0100
0000
0000
1000
0000
0000
0100
0000
0010
0000
0001
0000
,
2000
0000
0000
0000
0000
0000
3000
0200
,
0000
0000
0300
0020
0030
0002
0003
2000
,
0000
0000
0000
3000
0000
0020
0030
0220
,
0330
0100
0001
0020
0030
0100
1000
0002
,
0003
0020
0230
2300
3002
0023
0230
2300
,
3020
0000
0000
0000
0000
0000
0000
0000
0000
0000
0000
0000
0000
0000
0000
0000
0000
0000
0000
0000
0000
0000
0000
0000
0200
0000
0000
0000
0000
0000
0000
0000
0000
0000
0000
0000
0000
0000
0000
0000
0000
0000
0000
0000
0000
0000
0000
0000
0000
0000
0000
0330
0000
0000
0000
0000
0101
0000
0000
0000
0000
0000
0000
0000
,
0000
0110
0000
1010
0000
1001
1000
0001
,
0001
0000
0000
0000
0010
0000
0000
0000
0010
0000
0000
0000
0100
0000
0000
0000
0100
0000
0000
0000
1000
0000
0000
0100
0000
0000
0010
0000
0001
0000
0000
0000
,
0001
0000
0100
0000
1001
0000
0010
0000
1000
0000
0001
0000
0001
0000
1000
0000
0001
0000
0001
0010
0100
0000
1000
0000
0100
0000
0100
0000
0011
0000
0000
0000
,
1000
0000
0000
0000
0000
0000
0000
0000
0000
0000
0000
0000
0010
0000
0000
0000
0000
0000
1000
0000
0000
0000
0000
0000
0010
0000
0000
0000
0000
0000
0000
0000
0000
0000
0000
0000
0100
0000
0000
0000
0000
0000
0000
0000
0000
0000
0000
0000
0001
0000
0000
0000
0000
0000
0000
0000
0000
0000
0000
0000
0100
0000
0000
0000
0000
0000
0000
0000
0000
0000
0000
0000
1000
0000
0000
0000
0000
0000
0000
0000
0000
0000
0000
0000
0100
0000
0000
0000
0000
0000
0000
0000
0000
0000
0000
0000
0001
0000
0000
0000
0000
0000
0000
0000
0010
0000
0000
0000
0000
0000
0000
0000
0100
0000
0000
0000
0000
0000
0000
0000
0001
0000
0000
0000
0000
0000
0000
0000
0000
0000
0000
0000
0100
0000
0000
0000
0000
0000
0000
0000
0000
0000
0000
0000
1000
0000
0000
0000
0000
0000
0000
0000
0000
0000
0000
0000
0010
0000
0000
0000
0000
0000
0000
0000
0000
0000
0000
0000
1002
0000
0000
0000
0000
0000
0000
0000
0000
0000
0000
0000
0000
0000
0000
0000
0000
0000
0000
0000
0000
0000
0000
0000
,
0013
0000
0010
0000
0001
0000
0001
0000
1000
0000
0001
0000
1000
0100
0010
0000
0001
0000
0010
0000
0110
0000
0000
0000
1010
0000
0000
0000
1000
0000
0010
0000
,
1000
0000
0000
0010
0000
0000
0100
0000
0000
0001
0000
0000
0100
0000
0000
0001
0000
0000
1000
0000
0000
0010
0000
0000
0100
0000
0001
0000
0100
0000
0010
0000
0000
0000
0000
0000
1100
0000
0000
0000
0000
0000
2002
0000
0000
3003
0000
0000
,
1001
0000
0010
0001
0100
0001
1000
0100
,
1000
0000
0001
1000
0000
0000
0010
0000
0100
0000
0100
0000
1010
0000
0000
0000
,
1100
0000
0001
0010
0001
0000
1000
0000
0100
0000
0010
0000
0010
0000
0001
0000
,
0001
0000
0100
0000
0010
0000
1000
0000
0000
0000
0000
0000
0110
0000
0000
1000
0000
0000
0100
0000
0000
0000
0000
0000
,
0110
0000
0010
0000
0100
0000
0001
0000
0100
0000
1000
0000
0010
1000
0010
0000
,
0100
0010
0101
0000
0011
0000
1000
0001
,
1000
0001
0100
0010
0100
0010
1000
0001
,
0100
0000
0000
0010
0000
0000
1000
0000
0000
0100
0000
0000
0010
0000
0001
0000
0010
0000
0200
0000
0000
0000
0000
0000
,
0000
0000
0000
0000
,
0000
0000
0000
0300
;

//---------------dance-single - ----------------
#NOTES:
     dance-single:
     :
     Medium:
     9:
     0.322746,0.640114,0.158983,0.242658,0.037654,270.000000,251.000000,19.000000,29.000000,0.000000,0.000000,0.322746,0.640114,0.158983,0.242658,0.037654,270.000000,251.000000,19.000000,29.000000,0.000000,0.000000:
0000
0000
0000
0000
,
0000
0000
0000
0000
,
0000
0000
0000
0000
,
0000
0000
0000
0000
,
0000
0000
0000
0000
,
0000
0000
0000
0000
,
0000
0000
0000
0000
,
0000
0000
0000
0000
,
0000
0000
0000
0000
,
0001
1100
0010
0011
,
0100
0000
1001
0000
0010
0000
1000
0010
,
1000
0000
0001
0100
0001
0000
0010
0001
,
0010
0000
0100
1000
0200
0000
0310
0000
,
0001
1100
1000
1001
,
0010
0000
0101
0000
0100
0000
0010
1000
,
0010
0000
1000
0100
1000
0000
0100
0020
,
0000
0001
1000
1030
,
0100
0011
1000
0110
,
0010
0000
0101
0000
0010
0000
1000
0001
,
1000
0000
0100
0010
0100
0000
0010
0001
,
0010
0000
0001
1000
0001
0000
1000
0000
,
0100
0101
0001
0110
,
1000
0001
0010
1000
,
1000
0100
0010
0001
,
1000
0100
0010
0001
1000
0000
0001
0000
,
0010
0000
0010
0000
0100
0010
0100
0000
,
0001
0000
1001
0000
1000
0000
0010
0010
,
2000
3001
0002
0013
,
0001
0100
0010
1000
,
1001
0000
1001
0000
0010
0001
0010
0000
,
0100
0100
0010
0000
0002
0000
2003
0000
,
3010
0010
0100
0100
,
0010
1000
0010
0100
0010
0000
0020
0000
,
1000
1030
0100
1000
,
0001
0000
0010
0000
0001
0000
1000
1000
,
0020
1030
0100
0010
,
0100
0001
1000
0010
,
2000
3200
0310
0001
,
0100
0001
0100
0000
0020
0000
2030
0000
,
3001
0001
1000
1000
,
0001
1000
0001
0100
0001
0000
0010
0000
,
0200
0000
0000
0000
0000
0000
0000
2300
,
0000
0000
3000
0010
0000
0100
0000
2002
,
0000
0000
0000
3003
0000
0010
0000
2000
,
0000
0000
3000
0200
0000
0000
0000
0320
,
0000
0000
0000
0030
0000
0001
0000
1000
,
0020
0000
0000
0000
0000
0000
2030
0000
0000
0000
0000
0000
0000
3000
0010
0000
,
0000
1000
0000
0001
0000
0100
0000
0010
,
1000
0001
0100
0010
0000
1000
0000
0100
,
0100
0000
0010
0000
0010
0001
0000
0001
0100
0000
0010
0000
1000
0010
1000
0000
,
1000
0000
0001
0100
0001
0200
0000
0000
0010
0000
0010
0000
0310
0000
1000
0000
,
1000
0000
1000
0001
0100
0000
0100
0000
0010
1000
0001
0000
0001
0000
0010
0000
,
0010
0000
0001
0000
0001
0000
0010
0001
0010
0001
0100
0000
1100
0000
1010
0000
,
1001
1000
0010
0100
,
0001
0000
0010
0000
0001
0001
0020
0000
,
0031
0000
0100
0000
0010
1000
0010
0000
,
0200
0320
2030
3001
,
0001
0000
0010
0001
0010
0000
0100
0100
,
0010
0002
0000
0000
1003
0000
0000
0000
,
1000
1000
0010
0010
,
0100
0010
1000
0010
0100
0000
0001
0000
,
2002
0000
0000
0000
,
0000
0000
0000
0000
,
0000
0000
0000
3003
;

//---------------dance-single - ----------------
#NOTES:
     dance-single:
     :
     Easy:
     5:
     0.200820,0.400071,0.041838,0.058573,0.000000,168.000000,163.000000,5.000000,7.000000,0.000000,0.000000,0.200820,0.400071,0.041838,0.058573,0.000000,168.000000,163.000000,5.000000,7.000000,0.000000,0.000000:
0000
0000
0000
0000
,
0000
0000
0000
0000
,
0000
0000
0000
0000
,
0000
0000
0000
0000
,
0000
0000
0000
0000
,
0000
0000
0000
0000
,
0000
0000
0000
0000
,
0000
0000
0000
0000
,
0000
0000
0000
0000
,
0100
0010
1000
0001
,
1000
0000
0001
0010
,
0100
0000
0100
0010
,
0100
0000
1000
0000
,
0001
1000
0010
1000
,
0001
0000
0010
0000
,
0001
0000
0100
0000
,
0000
0010
0010
0010
,
1000
0100
1000
0010
,
1000
0000
0001
0100
,
0010
0000
0100
0001
,
1000
0000
0010
0010
,
0100
0000
0001
0000
,
0010
0000
0001
0000
,
1000
0100
0010
0001
,
1000
0100
0010
0001
,
1000
0000
0001
0100
,
0010
0000
0010
1000
,
1000
0000
0001
0010
,
0100
0000
0100
1000
,
0100
0000
0010
0000
,
0100
0010
0001
0000
,
1000
1000
0001
0001
,
1000
0001
0010
0010
,
0110
0000
0001
1000
,
1000
0000
0100
0010
,
0001
0000
1010
0000
,
0100
0010
0100
0000
,
0101
0000
0001
0000
,
1000
0100
1000
0000
,
0010
0010
0100
0100
,
0010
0100
0010
1000
,
2000
0000
0000
0000
0000
0000
0000
3000
,
0002
0000
0000
0000
0000
0000
0000
0003
,
0020
0000
0000
0030
,
0200
0000
0000
0000
0000
0000
0000
0300
,
2000
0000
0000
0000
0000
0000
0000
3000
,
0002
0000
0000
0000
0000
0000
0003
0100
,
0000
0010
0000
1000
0000
0001
0000
0100
,
0000
0010
0000
1000
0000
0010
0000
0100
,
0000
0010
1000
0001
0000
0010
0000
0001
,
0000
0010
0100
1000
1000
0010
0000
0010
,
0000
0100
1000
0100
0001
0010
0000
1000
,
1000
0001
0001
1000
0001
0010
0010
0000
,
0110
0001
1000
0001
,
0000
0100
0100
0010
,
0000
1100
0000
0010
,
0001
0010
0100
0010
,
0010
0010
0000
1000
,
0001
0100
0000
0100
,
0100
0010
0010
0100
,
0010
0001
0010
2000
,
0000
0000
0000
0000
,
0000
0000
0000
0000
,
0000
0000
0000
3000
;

//---------------dance-single - ----------------
#NOTES:
     dance-single:
     :
     Beginner:
     3:
     0.147029,0.254163,0.025103,0.000000,0.000000,123.000000,120.000000,3.000000,0.000000,0.000000,0.000000,0.147029,0.254163,0.025103,0.000000,0.000000,123.000000,120.000000,3.000000,0.000000,0.000000,0.000000:
// measure 0
0000
0000
0000
0000
,  // measure 1
0000
0000
0000
0000
,  // measure 2
0000
0000
0000
0000
,  // measure 3
0000
0000
0000
0000
,  // measure 4
0000
0000
0000
0000
,  // measure 5
0000
0000
0000
0000
,  // measure 6
0000
0000
0000
0000
,  // measure 7
0000
0000
0000
0000
,  // measure 8
0000
0000
0000
0000
,  // measure 9
0010
0000
0100
0000
,  // measure 10
0100
0000
0010
0000
,  // measure 11
1000
0000
0001
0000
,  // measure 12
0010
0000
0001
0001
,  // measure 13
0001
0000
1000
0000
,  // measure 14
0010
0000
1000
0000
,  // measure 15
0100
0000
0010
0000
,  // measure 16
0100
0000
1000
1000
,  // measure 17
1000
0000
0010
0000
,  // measure 18
0100
0000
0010
0000
,  // measure 19
1000
0000
0001
0000
,  // measure 20
0100
0000
0001
0001
,  // measure 21
0001
0000
0010
0000
,  // measure 22
0100
0000
1000
0000
,  // measure 23
0010
0000
0100
0000
,  // measure 24
0010
0010
0100
0100
,  // measure 25
0010
0000
1000
0000
,  // measure 26
0001
0000
0010
0010
,  // measure 27
0010
0000
0001
0000
,  // measure 28
1000
0000
0100
0000
,  // measure 29
0010
0000
0001
0000
,  // measure 30
1000
1000
1000
0000
,  // measure 31
0001
0000
1000
0000
,  // measure 32
0001
1000
0001
0000
,  // measure 33
0010
0000
0100
0000
,  // measure 34
0010
0000
1000
0000
,  // measure 35
0001
0000
0010
0000
,  // measure 36
0100
0100
0100
0000
,  // measure 37
1000
0000
0010
0000
,  // measure 38
1000
0000
0001
0000
,  // measure 39
1000
0000
0001
0000
,  // measure 40
1000
0001
1000
0000
,  // measure 41
1001
0000
0000
0000
,  // measure 42
0000
0000
0000
0000
,  // measure 43
0000
0000
0000
0000
,  // measure 44
0000
0000
0000
0000
,  // measure 45
0000
0010
0000
0100
,  // measure 46
0000
0010
0000
1000
,  // measure 47
0000
0001
0000
0001
0000
0001
0000
0000
,  // measure 48
0000
0100
0000
0100
0000
0100
0000
0000
,  // measure 49
0000
1000
0000
0000
0000
1000
0000
0100
,  // measure 50
0000
0010
0000
0001
0001
0001
0000
0100
,  // measure 51
0000
0010
0000
0000
1000
1000
0000
0001
,  // measure 52
0000
1000
0000
0001
1000
0001
0000
0000
,  // measure 53
0110
0000
0010
0000
,  // measure 54
1000
0000
0001
0001
,  // measure 55
0000
0010
0000
0100
,  // measure 56
0100
0100
0000
1000
,  // measure 57
0000
0010
0000
0001
,  // measure 58
0000
1000
0000
0001
,  // measure 59
0000
1000
0000
0001
,  // measure 60
1000
0001
0000
0110
;
