#VERSION:0.83;
#TITLE:next to you;
#SUBTITLE:;
#ARTIST:uma feat. Kanon Tachibana;
#TITLETRANSLIT:;
#SUBTITLETRANSLIT:;
#ARTISTTRANSLIT:;
#GENRE:;
#ORIGIN:;
#CREDIT:;
#BANNER:next to you.png;
#BACKGROUND:next to you-bg.png;
#PREVIEWVID:;
#JACKET:next to you-jacket.png;
#CDIMAGE:;
#DISCIMAGE:;
#LYRICSPATH:;
#CDTITLE:;
#MUSIC:next to you.ogg;
#OFFSET:-0.122528;
#SAMPLESTART:52.477459;
#SAMPLELENGTH:11.636364;
#SELECTABLE:YES;
#BPMS:0.000=165.000;
#STOPS:;
#DELAYS:;
#WARPS:;
#TIMESIGNATURES:0.000=4=4;
#TICKCOUNTS:0.000=4;
#COMBOS:0.000=1;
#SPEEDS:0.000=1.000=0.000=0;
#SCROLLS:0.000=1.000;
#FAKES:;
#LABELS:0.000=Song Start;
#BGCHANGES:;
#KEYSOUNDS:;
#ATTACKS:
;

//---------------dance-single - ----------------
#NOTEDATA:;
#CHARTNAME:;
#STEPSTYPE:dance-single;
#DESCRIPTION:;
#CHARTSTYLE:;
#DIFFICULTY:Challenge;
#METER:16;
#RADARVALUES:0.782168,0.961237,0.358538,0.119513,0.672259,733.000000,685.000000,48.000000,16.000000,0.000000,0.000000,0.000000,0.000000,0.000000,0.782168,0.961237,0.358538,0.119513,0.672259,733.000000,685.000000,48.000000,16.000000,0.000000,0.000000,0.000000,0.000000,0.000000;
#CREDIT:Daniel Van Eden;
#NOTES:
0000
0000
0000
0000
,
0000
0000
0000
0000
,
0000
0000
0000
0000
,
0000
0000
0000
0000
,
0000
0000
0000
0000
,
0000
0000
0000
0000
,
0000
0000
0000
0000
,
0000
0000
0000
0000
,
0000
0000
0000
0000
0000
0000
0000
0010
,
0011
0001
0000
1000
1010
0010
0000
0100
,
0101
0000
0000
0001
0000
0000
1000
0000
0100
0000
0000
0000
1000
0100
0010
0001
,
0100
0000
0010
0000
0100
0001
0000
0001
1000
0010
1000
0001
0000
0000
1000
0000
,
0100
0000
0010
0000
0100
1000
0000
1000
0001
0010
0001
1000
0000
0100
0010
0100
,
1000
0010
1000
0001
0100
0000
0001
0010
0001
1000
0100
0000
0010
0000
0001
0000
,
1000
0010
1000
0000
0010
0100
0010
0000
0100
0001
0100
0000
0001
0010
0001
0000
,
1000
0000
0010
0000
1000
0001
0000
0001
1000
0100
1000
0001
0000
0000
0010
0000
,
0001
0000
0100
0000
0001
1000
0000
1000
0001
0010
0001
1000
0000
0100
1000
0100
,
0010
0001
0100
0010
1000
0000
0010
1000
0100
0010
0001
0000
0100
0000
0010
0000
,
1000
0010
1000
0001
0010
0001
1000
0100
1000
0001
0100
0001
1000
0000
0000
0000
,
0010
0000
1000
0000
0010
0000
0100
0000
0001
0000
0000
0010
0000
0000
0001
0000
,
1000
0000
0000
0000
0100
0000
0010
0001
0010
0000
0100
0000
1000
0000
0010
0000
,
0100
0000
0000
0000
0100
0000
0001
0000
1000
0000
0000
0100
0000
0000
0010
0000
,
0001
0000
0000
0000
0010
0000
0100
0010
0001
0000
0000
0000
0110
0000
0000
0000
,
1100
0000
1000
0000
0010
0000
0100
0000
0101
0000
0000
0001
0000
0000
0010
0000
,
0110
0000
0000
0000
0100
0000
1000
0001
0010
0000
0001
0000
0100
0000
0010
0000
,
2000
0000
3020
0000
0230
0000
0301
1000
,
0001
0000
0000
0011
0000
0000
1000
0000
0000
0000
1001
0000
0000
0000
0000
0000
,
0001
0000
0100
0000
1000
0000
0100
0000
0001
0000
1000
0001
1000
0000
0010
0000
,
0000
0010
0100
0001
1000
0001
0010
0100
,
1000
0000
0100
0000
0001
0000
0100
0000
1000
0000
0001
1000
0001
0000
0100
0000
,
0000
0100
0010
1000
1010
0000
0101
0000
,
0010
0000
0001
0000
0100
0000
0001
0000
0010
0000
0100
0010
0100
0000
1000
0000
,
0010
1000
0100
1000
0010
0100
0001
0010
,
0001
0000
0010
0001
1000
0000
0100
0000
1000
0010
0100
0001
1000
0000
1001
0000
,
0000
0010
0100
0010
1001
0000
0000
0000
,
2020
0000
0000
3030
0202
0000
0000
0303
,
0001
0000
1000
0010
0100
0000
0001
0000
0010
0000
0001
1000
0100
0000
1000
0000
,
0010
0000
0100
0001
1000
0000
0010
0000
1000
0000
0100
0000
0010
0000
0001
0100
,
0010
0000
1000
0000
0100
0000
1000
0100
0010
0000
0001
0000
1000
0000
0010
0000
,
0110
0101
0011
1100
,
0010
0000
0100
0001
0100
0000
0010
0000
1000
0000
0100
0010
0001
0000
1000
0000
,
0100
0000
0010
0001
0010
0000
0100
0000
1000
0000
0010
0000
0100
0000
0001
0000
,
1001
1000
0000
1000
1001
0001
0000
0010
,
0011
0000
0000
0001
0000
0000
1000
0000
0100
0000
0000
0000
0010
0000
0001
0000
,
0101
0100
0000
0010
1010
1000
0000
1000
,
1010
0000
0000
0010
0000
0000
0100
0000
0001
0000
0000
0000
0001
0100
0010
1000
,
0001
0000
1000
0000
0010
0100
0000
0100
0001
0100
0010
1000
0000
0000
0001
0000
,
1000
0000
0001
0000
0010
0100
0000
0100
1000
0100
0010
0001
0000
1000
0001
0100
,
0010
1000
0010
0100
0001
0000
0010
0001
0010
0100
1000
0000
0010
0000
0100
0000
,
0001
0100
0001
0000
0100
0010
0100
0000
0010
1000
0010
0000
1000
0001
1000
0000
,
0100
0000
0010
0000
0001
1000
0000
1000
0001
0100
0001
1000
0000
0000
0001
0000
,
0100
0000
0010
0000
1000
0001
0000
0001
1000
0100
1000
0001
0000
0010
0001
1000
,
0100
1000
0001
0010
0001
0000
0100
0001
1000
0010
1000
0000
0001
0000
0100
0000
,
0010
0100
0010
1000
0010
1000
0001
1000
0001
0010
0001
0010
0100
0010
0001
1000
,
0100
0000
0010
0000
0001
0000
0010
0000
0100
0000
1000
0010
0000
0000
1000
0000
,
0100
0000
0010
0000
0001
1000
0000
0100
0000
0000
0010
0000
0100
0000
1000
0000
,
0010
0000
1000
0000
0001
0000
0100
0000
0010
0000
0100
0000
0001
1000
0000
0010
,
0000
0000
1000
0000
0010
0100
0000
0001
0000
0000
0010
0000
0001
0000
1000
0000
,
0001
0100
0000
1000
0000
0100
0001
0000
0010
0000
0001
0000
1000
0001
0000
0000
,
1000
0100
0000
0001
0000
0100
1000
0000
0010
0000
0100
0000
0001
0000
0100
0000
,
0010
1000
0100
0001
0000
0100
1000
0001
0010
0000
0001
0000
1000
0000
0010
0000
,
0000
1010
0110
0101
0000
0000
0000
0000
,
0022
0000
0000
0033
2200
0000
0000
3300
,
1001
0000
0001
0100
0000
0010
0000
1000
,
0000
0000
0010
0000
0100
0000
0001
0000
1000
0000
0000
0000
0000
0000
1000
0100
,
0020
0000
0032
0000
0203
0000
0310
1000
,
1010
0011
0101
1100
,
1000
0000
0001
1000
0100
0000
0010
0000
0001
0000
1000
0001
0100
0000
0010
0000
,
1000
0000
0010
0100
0001
0000
1000
0000
0100
0000
0010
0100
0010
0000
0001
0000
,
1001
1000
0000
1000
1001
0001
0000
0010
,
0011
0000
0000
0001
0000
0000
1000
0000
0020
0000
0000
0000
0130
0000
0000
0000
,
0001
0000
0100
0010
1000
0000
0001
0000
1000
0000
0100
0010
0001
0000
1000
0000
,
0010
0000
1000
0001
1000
0000
0100
0000
0010
0000
0001
0000
0100
0000
0010
0100
,
0001
0000
1000
0000
0010
0000
0100
0010
1000
0000
0100
0000
0010
0000
0001
0000
,
0011
1010
1100
0101
,
0100
0000
0010
1000
0010
0000
1000
0000
0001
0000
0010
0100
1000
0000
0010
0000
,
0100
0000
0001
0010
0001
0000
1000
0000
0100
0000
0010
0000
0100
0000
1000
0000
,
1010
0010
0000
0100
0101
0001
0000
1000
,
1001
0000
0000
0100
0000
0000
0010
0000
0001
0000
0000
0000
1000
0000
0001
0000
,
0011
0010
0000
0100
1100
1000
0000
0010
,
1010
0000
0000
1000
0000
0000
0001
0000
0200
0000
0000
0000
0310
1000
0100
0010
,
0001
0000
1000
0000
0100
1000
0000
1000
0100
0010
0001
1000
0000
0000
0010
0000
,
1000
0000
0001
0000
0100
0001
0000
0001
0100
0010
1000
0001
0000
1000
0100
0010
,
0001
1000
0001
0100
0010
0000
1000
0001
1000
0100
0010
0000
0001
0000
0100
0000
,
0010
1000
0001
0000
0100
0001
1000
0000
0100
1000
0001
0000
0010
0001
1000
0000
,
0100
0000
1000
0000
0001
0010
0000
0010
0001
0100
0010
1000
0000
0000
0010
0000
,
0100
0000
0001
0000
1000
0010
0000
0010
1000
0100
0010
0001
0000
0010
0100
1000
,
0010
1000
0100
0010
0001
0000
0010
0001
0100
0010
1000
0000
0001
0000
0100
0000
,
0010
1000
0100
0010
0001
0100
0010
1000
0001
0010
0100
1000
0010
0000
0000
0000
;

//---------------dance-single - ----------------
#NOTEDATA:;
#CHARTNAME:;
#STEPSTYPE:dance-single;
#DESCRIPTION:;
#CHARTSTYLE:;
#DIFFICULTY:Beginner;
#METER:5;
#RADARVALUES:0.216617,0.265169,0.052287,0.000000,0.000000,203.000000,196.000000,7.000000,0.000000,0.000000,0.000000,0.000000,0.000000,0.000000,0.216617,0.265169,0.052287,0.000000,0.000000,203.000000,196.000000,7.000000,0.000000,0.000000,0.000000,0.000000,0.000000,0.000000;
#CREDIT:Daniel Van Eden;
#NOTES:
0000
0000
0000
0000
,
0000
0000
0000
0000
,
0000
0000
0000
0000
,
0000
0000
0000
0000
,
0000
0000
0000
0000
,
0000
0000
0000
0000
,
0000
0000
0000
0000
,
0000
0000
0000
0000
,
0000
0000
0000
0000
,
1000
0000
0001
0000
,
0010
0000
0000
0000
,
1000
1000
0100
0000
,
0001
0001
0100
0000
,
0010
0000
1000
0000
,
0001
1000
0001
1000
,
0001
0001
0010
0000
,
1000
1000
0010
0000
,
1000
0000
0100
0000
,
0010
0000
0000
0100
0000
0000
0100
0000
,
0010
0000
0001
0000
,
1000
0000
0100
0100
,
0100
0000
0010
0000
,
0001
0000
1000
0000
,
0010
0000
0100
0000
,
0001
0000
1000
1000
,
1000
0000
0001
0000
,
0010
0000
0000
0100
0000
0000
0000
0000
,
0100
0010
0100
0000
,
1000
0000
0010
0000
,
1000
0001
1000
0000
,
0001
0000
0100
0000
,
0001
0010
0001
0000
,
1000
0000
0100
0000
,
0010
0000
0001
0000
,
1000
0000
0010
0000
,
0110
0000
1001
0000
,
0001
0000
0100
0000
,
0010
0010
0010
0000
,
1000
0000
0010
0000
,
1000
0001
1000
0001
,
1000
0000
0001
0000
,
0100
0100
0100
0000
,
0010
0000
0010
0000
,
0110
0000
0000
0000
,
0100
0000
0100
0000
,
0110
0000
0000
0000
,
1000
1000
0010
0000
,
0001
0001
0010
0000
,
0100
0000
0010
0000
,
0001
1000
0001
1000
,
0001
0001
0100
0000
,
1000
1000
0100
0000
,
0010
0000
0001
0000
,
1000
0000
0000
1000
0000
0000
0001
0000
,
0001
0000
0010
0000
,
0001
1000
0001
0000
,
1000
0000
0010
0000
,
0100
0100
0100
0000
,
0010
0000
1000
0000
,
0001
0000
0010
0000
,
0100
0000
0000
0000
0010
0000
0000
0001
,
0000
0001
1000
0000
,
1000
0000
0010
0000
,
0100
0000
0001
0000
,
1000
0000
0100
0000
,
0010
0000
0001
0000
,
0010
0010
0100
0100
,
1000
0000
0010
0000
,
1000
0000
0001
0000
,
0100
0000
0001
0000
,
1000
0000
0001
0000
,
1000
0000
0001
0000
,
1000
0100
1000
0000
,
0001
0000
0010
0000
,
0001
1000
0001
1000
,
0001
0000
0100
0000
,
0001
0010
0001
0000
,
0100
0000
0010
0000
,
1000
0000
1001
0000
,
0001
0000
0010
0000
,
0001
0000
1001
0000
,
1000
1000
1000
0000
,
0001
0001
0001
0000
,
0010
0000
0100
0000
,
1000
0100
0010
0001
,
1000
1000
1000
0000
,
0001
0001
0001
0000
,
0100
0000
0010
0000
,
0100
0000
0000
0010
0000
0000
1001
0000
;

//---------------dance-single - ----------------
#NOTEDATA:;
#CHARTNAME:;
#STEPSTYPE:dance-single;
#DESCRIPTION:;
#CHARTSTYLE:;
#DIFFICULTY:Hard;
#METER:13;
#RADARVALUES:0.593295,0.696068,0.171799,0.082165,0.295047,556.000000,533.000000,23.000000,11.000000,0.000000,0.000000,0.000000,0.000000,0.000000,0.593295,0.696068,0.171799,0.082165,0.295047,556.000000,533.000000,23.000000,11.000000,0.000000,0.000000,0.000000,0.000000,0.000000;
#CREDIT:Daniel Van Eden;
#NOTES:
// measure 0
0000
0000
0000
0000
,  // measure 1
0000
0000
0000
0000
,  // measure 2
0000
0000
0000
0000
,  // measure 3
0000
0000
0000
0000
,  // measure 4
0000
0000
0000
0000
,  // measure 5
0000
0000
0000
0000
,  // measure 6
0000
0000
0000
0000
,  // measure 7
0000
0000
0000
0000
,  // measure 8
0000
0000
0000
0000
0000
0000
0000
1000
,  // measure 9
0100
0001
0000
0001
0100
1000
0000
1000
,  // measure 10
0001
0000
0000
0010
0000
0000
0100
0000
1000
0000
0000
0000
0020
0000
0000
0000
,  // measure 11
0130
0000
0001
0000
1000
0001
0000
0001
1000
0000
0000
0010
0000
0000
1000
0000
,  // measure 12
0010
0000
1000
0000
0001
1000
0000
1000
0001
0000
0000
0010
0000
0000
0001
0000
,  // measure 13
1000
0100
0010
0001
0100
0010
1000
0100
,  // measure 14
0010
0100
0001
0100
1000
0010
0001
0010
,  // measure 15
1000
0000
0010
0000
0100
0001
0000
0001
0100
0000
0000
0010
0000
0000
1000
0000
,  // measure 16
0001
0000
0010
0000
0100
1000
0000
1000
0100
0000
0000
0010
0000
0000
0001
0000
,  // measure 17
1000
0100
0010
0001
0100
0010
1000
0100
,  // measure 18
0010
0100
0000
0010
0001
0000
1000
0100
0000
0010
0100
0000
1000
0000
0000
0000
,  // measure 19
0001
0000
0100
0000
0010
0000
0010
0000
1000
0000
0000
1000
0010
0000
0100
0000
,  // measure 20
0001
0000
1000
0100
0010
0001
1000
0001
,  // measure 21
0100
0000
0000
0000
0001
0000
0010
0000
0100
0000
0000
1000
0100
0000
0010
0000
,  // measure 22
0001
0000
1000
0010
0100
0000
0101
0000
,  // measure 23
0010
0000
0001
0000
0010
0000
0100
0000
1000
0000
0000
0010
1000
0000
0100
0000
,  // measure 24
0010
0000
0010
0001
1000
0001
0010
0100
,  // measure 25
1000
0000
0010
0000
0100
0000
0001
1000
,  // measure 26
0001
0000
0000
1000
0000
0000
1000
0000
0000
0000
0001
0000
0000
0000
0000
0000
,  // measure 27
1001
0000
0101
0000
1001
0000
0001
0100
,  // measure 28
0000
0010
1000
0010
0100
0001
0010
0000
,  // measure 29
1001
0000
1100
0000
1001
0000
1000
0100
,  // measure 30
0000
0010
0001
0010
0100
1000
0010
0000
,  // measure 31
0110
0000
1010
0000
0101
0000
0001
0010
,  // measure 32
0000
0100
1000
0010
0100
0001
0000
0001
,  // measure 33
1000
0000
0010
1000
0000
0100
0000
0010
,  // measure 34
0000
0100
0010
0100
0010
0000
0000
0000
,  // measure 35
0002
0000
2003
0000
,  // measure 36
3010
0000
0100
0010
0000
1000
0000
0100
,  // measure 37
0000
0000
0010
0000
0001
0000
0010
0000
0100
0000
0000
0000
1000
0000
0001
1000
,  // measure 38
0002
0000
0023
0000
0230
0000
1300
0010
,  // measure 39
1010
0110
0101
1001
,  // measure 40
1000
0000
0010
1000
0000
0001
0000
0010
,  // measure 41
0000
0001
0100
0001
0010
0000
0000
0100
,  // measure 42
0010
0001
0000
0100
0010
1000
0000
1000
,  // measure 43
0001
0000
0000
0100
0000
0000
0010
0000
1000
0000
0000
0000
0000
0000
1000
0000
,  // measure 44
0010
0001
0000
0001
0010
1000
0000
1000
,  // measure 45
0010
0000
0000
0100
0000
0000
0001
0000
1000
0000
0000
0000
0200
0000
0000
0000
,  // measure 46
0310
0000
0001
0000
0010
0100
0000
0100
0010
0000
0000
0001
0000
0000
0100
0000
,  // measure 47
0010
0000
1000
0000
0010
0100
0000
0100
0001
0000
0000
1000
0000
0000
0100
0000
,  // measure 48
0010
0001
1000
0010
1000
0001
0100
0010
,  // measure 49
1000
0100
0001
0100
1000
0010
0001
0010
,  // measure 50
1000
0000
0001
0000
0100
0010
0000
0010
0100
0000
0000
0001
0000
0000
0010
0000
,  // measure 51
0001
0000
1000
0000
0100
0010
0000
0010
0100
0000
0000
1000
0000
0000
0010
0000
,  // measure 52
1000
0001
0100
0001
1000
0100
0010
0001
,  // measure 53
0010
0100
0000
1000
0100
0000
0010
0001
0000
0100
0001
0000
0100
0000
0010
0000
,  // measure 54
1000
0000
0001
0000
0100
0000
0001
0000
0010
0000
0000
0100
0000
0000
0010
0000
,  // measure 55
0001
0000
1000
0000
0100
0010
0000
0100
0000
0000
1000
0000
0001
0000
0100
0000
,  // measure 56
0000
0000
0001
0000
1000
0000
0010
0000
0100
0000
0001
0000
1000
0100
0000
0010
,  // measure 57
0000
0000
0001
0000
0100
0010
0000
1000
0000
0000
0001
0000
0010
0000
0100
0000
,  // measure 58
1000
0010
0000
0100
0000
0001
0100
0000
0010
0000
1000
0000
0001
1000
0000
0000
,  // measure 59
0001
0010
0000
0100
0000
1000
0100
0000
0010
0000
0001
0000
1000
0000
0001
0000
,  // measure 60
0100
0001
0100
0001
0000
1000
0010
1000
0010
0000
1000
0000
0001
0000
1000
0000
,  // measure 61
0000
0100
0100
0100
0000
0000
0020
0000
,  // measure 62
0032
0000
2003
0000
,  // measure 63
3001
0000
1000
0001
0000
0010
0000
0001
,  // measure 64
0000
0000
0010
0000
0100
0000
0010
0000
0001
0000
0000
0000
0000
0000
1000
0010
,  // measure 65
1000
0000
0001
0000
0100
0000
0010
0100
,  // measure 66
0101
0011
1100
1010
,  // measure 67
1000
0001
0010
0001
1000
0100
0010
0001
,  // measure 68
0100
0010
1000
0001
0100
0000
0010
0100
,  // measure 69
0001
1000
0000
1000
0001
0010
0000
0010
,  // measure 70
0100
0000
0000
1000
0000
0000
0001
0000
1000
0000
0000
0000
0110
0000
0000
0000
,  // measure 71
0010
0001
1000
0001
0100
0010
1000
0001
,  // measure 72
0010
0000
0100
0000
1000
0000
0010
0000
1000
0000
0100
0000
0010
0000
0001
1000
,  // measure 73
0001
0100
0010
0100
0001
1000
0100
0010
,  // measure 74
0011
0110
1100
1010
,  // measure 75
0100
0001
1000
0001
0010
0100
1000
0010
,  // measure 76
0100
0010
1000
0100
0010
0001
1000
0001
,  // measure 77
1000
0010
0000
0010
1000
0100
0000
0100
,  // measure 78
0010
0000
0000
0001
0000
0000
1000
0000
0100
0000
0000
0000
0000
0000
1000
0000
,  // measure 79
0100
0001
0000
0001
0100
1000
0000
0010
,  // measure 80
0100
0000
0000
0001
0000
0000
1000
0000
0020
0000
0000
0000
0000
0000
0000
0000
,  // measure 81
1030
0000
0001
0000
1000
0100
0000
0100
1000
0000
0000
0010
0000
0000
0100
0000
,  // measure 82
0001
0000
1000
0000
0001
0010
0000
0010
0001
0000
0000
0010
0000
0000
0100
0000
,  // measure 83
1000
0010
0100
0010
0100
0001
0010
0001
,  // measure 84
0100
0010
0100
1000
0100
0001
0010
1000
,  // measure 85
0010
0000
0001
0000
1000
0100
0000
0100
1000
0000
0000
0010
0000
0000
0100
0000
,  // measure 86
0010
0000
1000
0000
0001
0100
0000
0100
0001
0000
0000
0010
0000
0000
0100
0000
,  // measure 87
1000
0010
0100
0001
1000
0010
1000
0100
,  // measure 88
0010
0001
0000
1000
0001
0000
0100
0010
0000
1000
0010
0000
0100
0000
0000
0000
;

//---------------dance-single - ----------------
#NOTEDATA:;
#CHARTNAME:;
#STEPSTYPE:dance-single;
#DESCRIPTION:;
#CHARTSTYLE:;
#DIFFICULTY:Easy;
#METER:7;
#RADARVALUES:0.307318,0.331461,0.171799,0.209147,0.000000,288.000000,265.000000,23.000000,28.000000,0.000000,0.000000,0.000000,0.000000,0.000000,0.307318,0.331461,0.171799,0.209147,0.000000,288.000000,265.000000,23.000000,28.000000,0.000000,0.000000,0.000000,0.000000,0.000000;
#CREDIT:Daniel Van Eden;
#NOTES:
0000
0000
0000
0000
,
0000
0000
0000
0000
,
0000
0000
0000
0000
,
0000
0000
0000
0000
,
0000
0000
0000
0000
,
0000
0000
0000
0000
,
0000
0000
0000
0000
,
0000
0000
0000
0000
,
0000
0000
0000
0000
,
1100
0000
0101
0000
,
1001
0000
1000
0010
,
0100
0100
0001
0010
,
0001
0001
1000
0010
,
1000
0000
0000
0100
0000
0000
0010
0000
,
0002
0023
0230
2300
,
3010
0010
1000
0001
,
1000
1000
0100
0010
,
0001
0000
0000
0010
0000
0000
0100
0000
,
1000
0000
0000
0001
0000
0000
1001
0000
,
0100
0100
0001
0010
,
0001
0000
0001
0010
,
0100
1000
0010
0100
,
0001
0000
0000
1000
1000
0000
0000
0000
,
0010
1000
0100
0010
,
0001
0000
1000
0001
,
0100
0010
1000
0100
,
0010
0000
0000
0010
0000
0010
0000
0000
,
0001
0000
1000
0000
1001
0000
0000
1000
,
0000
0010
1000
0100
,
0010
0000
0100
0000
0110
0000
0000
0010
,
0000
0001
0100
0010
,
1000
0000
0001
0000
1001
0000
0000
1000
,
0000
0100
1000
0010
,
0100
0000
0000
0010
0000
0010
0000
1000
,
0000
1000
0001
0000
,
0020
0000
0230
0000
,
1300
0001
1000
0010
,
0100
0001
1000
0000
,
0100
0010
0001
1000
,
0200
2300
3002
0023
,
0031
0100
0010
1000
,
0001
0010
0100
0000
,
1100
0000
0011
0000
,
0001
0100
0101
0000
,
1010
0000
0101
0000
,
1000
0001
1001
0000
,
0010
0010
0100
0010
,
0001
1000
0010
1000
,
0100
0000
0000
0010
0000
0000
0100
0000
,
2000
3200
0320
0032
,
0103
0100
0001
1000
,
0010
1000
0100
0010
,
0001
0000
0000
0100
0000
0000
0010
0000
,
1000
0000
0000
0001
0000
0000
1000
0000
,
0001
0010
0001
0100
,
0001
1000
0010
0000
,
1000
0100
1000
0010
,
0100
0001
1000
0000
,
0010
0000
0000
0010
0000
0000
0010
0000
,
0100
0000
0000
0100
0000
0000
0100
0000
,
0001
0000
0000
0001
0000
0000
0001
0000
,
1000
0010
0010
0000
,
2000
0000
3200
0000
,
0310
0000
0001
0000
,
0010
0100
1000
0000
,
0010
0100
0010
0000
,
2000
3020
0230
0302
,
1003
0100
0010
0001
,
0010
0100
1000
0000
,
1010
0000
0101
0000
,
1000
0001
1001
0000
,
0010
0100
1000
0001
,
1000
0010
0100
0000
,
0010
0100
0001
0010
,
0200
2300
3002
0023
,
0031
0100
0010
1000
,
0001
0100
0010
0000
,
0110
0000
1001
0000
,
0001
0010
0011
0000
,
1100
0000
1010
0000
,
0100
0010
1001
0000
,
1000
1000
0010
1000
,
0100
0100
0010
0001
,
0100
0000
0000
0010
0000
0000
0100
0000
,
0002
0023
0230
2300
,
3010
0010
0100
0010
,
1000
1000
0001
0100
,
0010
0000
0000
1000
0000
0000
0001
0000
,
0010
0000
0000
0100
0000
0000
1001
0000
;

//---------------dance-single - ----------------
#NOTEDATA:;
#CHARTNAME:;
#STEPSTYPE:dance-single;
#DESCRIPTION:;
#CHARTSTYLE:;
#DIFFICULTY:Medium;
#METER:11;
#RADARVALUES:0.441770,0.497191,0.141921,0.231556,0.093369,414.000000,395.000000,19.000000,31.000000,0.000000,0.000000,0.000000,0.000000,0.000000,0.441770,0.497191,0.141921,0.231556,0.093369,414.000000,395.000000,19.000000,31.000000,0.000000,0.000000,0.000000,0.000000,0.000000;
#CREDIT:Daniel Van Eden;
#NOTES:
0000
0000
0000
0000
,
0000
0000
0000
0000
,
0000
0000
0000
0000
,
0000
0000
0000
0000
,
0000
0000
0000
0000
,
0000
0000
0000
0000
,
0000
0000
0000
0000
,
0000
0000
0000
0000
,
0000
0000
0000
0000
0000
0000
0000
0010
,
1000
0001
0000
0010
0001
1000
0000
0100
,
1000
0000
0000
0010
0000
0000
1000
0000
0001
0000
0000
0000
2000
0000
0000
0000
,
3010
0000
0100
0000
0010
0000
0000
0000
1000
0000
0000
0001
0000
0000
0000
0000
,
0010
0000
0100
0000
0010
0000
0000
0000
0001
0000
0000
1000
0000
0000
0000
0000
,
0010
1000
0010
0000
0100
0001
0100
0000
,
0002
2003
3200
0320
,
0031
0000
0100
0000
0001
0000
0000
0000
1000
0000
0000
0010
0000
0000
0000
0000
,
1000
0000
0100
0000
1000
0000
0000
0000
0001
0000
0000
0010
0000
0000
0000
0000
,
0001
0100
0010
0000
1000
0100
0010
0000
,
0001
0000
0000
0001
0000
0000
1000
0000
0000
1000
0000
0000
1001
0000
0000
0000
,
0010
0000
1000
0100
1000
0000
0010
0000
,
0100
0000
0001
0000
0010
0100
1000
0000
,
0001
0100
0010
1000
,
0001
0000
0000
0001
1000
0000
0010
0000
,
1000
0000
0100
0010
0100
0000
0010
0000
,
0001
0000
0100
0000
0010
1000
0001
0000
,
0100
0001
0010
0100
,
1000
0000
0000
1000
0000
0000
0001
0000
0000
0000
0001
0000
0000
0000
0000
0000
,
1001
0000
1001
0000
1001
0000
0000
0001
,
0000
1000
0001
0010
0100
1000
0000
0000
,
1010
0000
1010
0000
1010
0000
0000
0010
,
0000
0100
0010
1000
0100
0010
0000
0000
,
0011
0000
0011
0000
0011
0000
0000
0010
,
0000
0001
0100
0001
1000
0001
0000
0001
,
1000
0000
0010
1000
0000
0001
0000
1000
,
0000
0100
0010
0100
0010
0000
0000
0000
,
0220
0330
2002
3003
,
0010
0000
0001
0100
0000
0001
0000
1000
,
0000
0010
1000
0001
1000
0000
0100
0010
,
0100
0000
0010
0000
0001
0000
0100
0001
,
0200
0320
2030
3002
,
0103
0000
0010
0100
0000
0001
0000
1000
,
0000
0001
1000
0100
0010
0000
0000
0100
,
0010
0001
0000
0100
0010
1000
0000
1000
,
0001
0000
0000
1000
0000
0000
0001
0000
0100
0000
0000
0000
0000
0000
0100
0000
,
0001
1000
0000
0100
1000
0001
0000
1000
,
0010
0000
0000
1000
0000
0000
0001
0000
0100
0000
0000
0000
0000
0000
0000
0000
,
0001
0000
0010
0000
0001
0000
0000
0000
0100
0000
0000
0010
0000
0000
0000
0000
,
1000
0000
0010
0000
1000
0000
0000
0000
0100
0000
0000
0010
0000
0000
0000
0000
,
0001
0100
0001
0000
1000
0100
1000
0000
,
0020
2030
3002
0203
,
0301
0000
1000
0000
0001
0000
0000
0000
0010
0000
0000
0100
0000
0000
0000
0000
,
1000
0000
0001
0000
1000
0000
0000
0000
0010
0000
0000
0100
0000
0000
0000
0000
,
0001
0100
0010
0000
1000
0100
0010
0000
,
0001
0000
0000
0001
0000
0000
1000
0000
0000
1000
0000
0000
0002
0000
0000
0000
,
0013
0100
0010
0001
,
0100
0001
0100
0001
0010
0000
0100
0000
,
1000
0000
0010
0000
1000
0001
1000
0000
,
0100
0000
0010
0000
0001
1000
0001
0000
,
0100
0000
0010
0000
1000
0001
1000
0000
,
0100
0000
0010
0000
0001
0100
0001
0000
,
1000
0010
1000
0010
0100
0001
0100
0001
,
0000
0001
0010
0100
0000
0000
0000
0000
,
0220
0330
0022
0033
,
1000
0000
0001
0000
,
0100
0000
0010
0000
1000
0000
0000
1000
,
0001
0000
0010
0000
0001
0000
0100
0010
,
2000
3200
0320
0032
,
1003
0000
0010
1000
0000
0001
0000
1000
,
0000
0100
0010
0001
1000
0000
0000
0010
,
1000
0100
0000
0010
0001
0100
0000
0100
,
0001
0000
0000
1000
0000
0000
0001
0000
0010
0000
0000
0000
0000
0000
0000
0000
,
0010
0000
0001
0100
0000
0001
0000
0010
,
0000
0100
1000
0100
1000
0000
0010
0100
,
0010
0000
1000
0000
0001
0000
0100
0010
,
0200
0302
2003
3020
,
0130
0000
0001
1000
0000
0010
0000
1000
,
0000
0100
0010
0100
0010
0000
0001
1000
,
0010
0100
0000
0001
0010
0100
0000
0100
,
0010
0000
0000
0100
0000
0000
0010
0000
0001
0000
0000
0000
0000
0000
0100
0000
,
0010
1000
0000
0100
0010
0001
0000
1000
,
0010
0000
0000
0100
0000
0000
0010
0000
2000
0000
0000
0000
0000
0000
0000
0000
,
3001
0000
0100
0000
0001
0000
0000
0000
1000
0000
0000
0010
0000
0000
1000
0000
,
0100
0000
1000
0000
0100
0000
0000
0000
0010
0000
0000
0001
0000
0000
0010
0000
,
0001
0100
0001
0000
1000
0100
1000
0000
,
1010
1010
0011
0011
,
0010
0000
0100
0000
0010
0000
0000
0000
0001
0000
0000
1000
0000
0000
0001
0000
,
0100
0000
0010
0000
0100
0000
0000
0000
0001
0000
0000
1000
0000
0000
0001
0000
,
0100
0010
1000
0000
0100
0010
0001
0000
,
1000
0000
0000
1000
0000
0000
0001
0000
0000
0001
0000
0000
1001
0000
0000
0000
;
