#VERSION:0.83;
#TITLE:my time;
#SUBTITLE:;
#ARTIST:bo en;
#TITLETRANSLIT:;
#SUBTITLETRANSLIT:;
#ARTISTTRANSLIT:;
#GENRE:;
#ORIGIN:;
#CREDIT:;
#BANNER:my time.png;
#BACKGROUND:my time-bg.png;
#PREVIEWVID:;
#JACKET:my time-jacket.png;
#CDIMAGE:;
#DISCIMAGE:;
#LYRICSPATH:;
#CDTITLE:;
#MUSIC:my time.ogg;
#OFFSET:0.961237;
#SAMPLESTART:30.059225;
#SAMPLELENGTH:16.000000;
#SELECTABLE:YES;
#BPMS:0.000=180.000,
3.000=90.000,
10.000=180.000,
58.000=60.000,
59.000=180.000,
206.000=90.000,
213.500=180.000,
262.000=240.000,
318.000=60.000;
#STOPS:3.000=0.667,
3.500=0.667,
4.000=0.667,
4.500=0.667,
5.000=0.667,
5.500=0.667,
6.000=0.667,
6.500=0.667,
7.000=0.667,
7.500=0.667,
8.000=0.667,
8.500=0.667,
9.000=0.667,
9.500=0.667,
206.000=0.667,
206.500=0.667,
207.000=0.667,
207.500=0.667,
208.000=0.667,
208.500=0.667,
209.000=0.667,
209.500=0.667,
210.000=0.667,
210.500=0.667,
211.000=0.667,
211.500=0.667,
212.000=0.667,
212.500=0.667,
213.000=0.667,
261.250=0.333,
261.750=0.500;
#DELAYS:;
#WARPS:;
#TIMESIGNATURES:0.000=4=4;
#TICKCOUNTS:0.000=4;
#COMBOS:0.000=1;
#SPEEDS:0.000=1.000=0.000=0;
#SCROLLS:0.000=1.000;
#FAKES:;
#LABELS:0.000=Song Start;
#BGCHANGES:;
#KEYSOUNDS:;
#ATTACKS:
;

//---------------dance-single - ----------------
#NOTEDATA:;
#CHARTNAME:;
#STEPSTYPE:dance-single;
#DESCRIPTION:;
#CHARTSTYLE:;
#DIFFICULTY:Challenge;
#METER:14;
#RADARVALUES:0.447443,0.715275,0.244349,0.407248,0.018511,423.000000,390.000000,33.000000,55.000000,0.000000,0.000000,0.000000,0.000000,0.000000,0.447443,0.715275,0.244349,0.407248,0.018511,423.000000,390.000000,33.000000,55.000000,0.000000,0.000000,0.000000,0.000000,0.000000;
#CREDIT:Daniel Van Eden;
#NOTES:
// measure 0
0000
0000
0000
0000
,  // measure 1
0000
0000
0000
0000
,  // measure 2
0000
0000
0000
0000
1000
0100
0010
0001
,  // measure 3
2000
3020
1000
1030
,  // measure 4
0100
2002
3003
0001
,  // measure 5
0010
0200
0000
0000
2300
0000
0000
3020
,  // measure 6
0000
0230
0010
0310
,  // measure 7
0002
0000
0000
2003
0000
0000
3100
0010
,  // measure 8
0100
0010
0100
0010
0001
0000
0000
0000
,  // measure 9
0000
0002
0100
0103
,  // measure 10
0100
0020
0000
1030
,  // measure 11
0100
0001
0100
0000
1010
0000
0000
1001
,  // measure 12
0000
0200
0001
0301
,  // measure 13
0010
0000
0002
0100
0000
0000
1003
0001
,  // measure 14
0100
0010
1000
0100
0010
0000
0010
0001
,  // measure 15
0100
0010
1000
0000
0100
1000
0100
0010
,  // measure 16
0001
0000
0010
0001
1000
0100
0010
0000
,  // measure 17
0001
1000
0010
0100
0001
0000
1000
0100
,  // measure 18
1000
0010
0100
0000
0001
0100
0001
0010
,  // measure 19
0100
0000
0010
0001
1000
0010
0100
0000
,  // measure 20
0001
0010
0100
1000
0010
0000
1000
0001
,  // measure 21
0010
0001
1000
0000
0100
0010
0100
1000
,  // measure 22
0010
0000
0100
0001
0100
0010
1000
0000
,  // measure 23
0010
0100
0001
1000
0010
0000
1000
0010
,  // measure 24
0100
0001
0010
0000
0010
0001
0010
0001
,  // measure 25
0000
0000
0010
0100
0010
0100
0000
0000
,  // measure 26
1000
0010
1000
0010
0000
0000
1000
0001
,  // measure 27
1000
0001
0000
0000
0200
0000
0000
0000
,  // measure 28
0300
1001
0000
0000
,  // measure 29
0011
0110
1100
1010
,  // measure 30
1100
0000
0000
0020
0031
0000
0000
0000
0102
0000
0000
0000
0010
0000
0000
0000
,  // measure 31
0013
2000
0100
3100
,  // measure 32
0002
0010
0013
2000
,  // measure 33
0001
0000
0000
0001
0000
0000
3010
0000
0000
0010
1000
0010
,  // measure 34
1000
0001
0100
0001
0000
0000
0100
0000
0000
0010
0000
0000
,  // measure 35
2000
0000
3000
0000
,  // measure 36
0100
0010
0100
0010
0002
0000
1000
0000
,  // measure 37
1003
0200
0010
0310
,  // measure 38
0020
0001
0031
2000
,  // measure 39
0100
0000
0100
0000
3010
0000
0001
0010
,  // measure 40
0002
0000
0003
0000
1000
0100
2000
0000
,  // measure 41
3000
0000
0001
0010
0002
0000
0013
0000
,  // measure 42
1000
0010
0002
0100
,  // measure 43
0103
2000
0010
3010
,  // measure 44
0200
0001
0301
0020
,  // measure 45
1000
1030
0100
1100
,  // measure 46
0110
0011
1001
0101
,  // measure 47
1010
0110
1100
0011
,  // measure 48
0100
0010
2000
0010
,  // measure 49
3010
0020
0100
0130
,  // measure 50
0002
0010
0013
0200
,  // measure 51
1000
0000
1300
0000
1001
0010
1000
0100
,  // measure 52
0010
0001
1000
0100
0001
0110
1010
0101
,  // measure 53
0110
1010
1001
0220
0000
0000
0300
0000
,  // measure 54
0000
2030
0000
0100
0000
3100
0000
0010
,  // measure 55
0000
0202
0000
0303
0000
0010
0000
1000
,  // measure 56
0001
0000
0000
2200
3300
0000
0022
0033
,  // measure 57
0000
0001
0000
1000
0000
0010
0000
0200
,  // measure 58
0000
0000
0002
0000
0303
0010
1000
0010
,  // measure 59
1000
0010
1000
0100
0000
0000
0000
0000
,  // measure 60
0000
0020
0000
0100
0000
0130
0000
1000
,  // measure 61
0000
0022
0000
0033
0000
0001
0000
1000
,  // measure 62
0010
1000
0000
0101
0000
1000
0020
0100
,  // measure 63
0000
1030
0000
0001
0000
0010
0000
0200
,  // measure 64
0000
0000
2300
0000
0000
3001
0010
0001
,  // measure 65
1000
0100
0010
0000
0010
1000
0100
1000
,  // measure 66
0100
0010
0001
0000
0100
0001
0100
0010
,  // measure 67
1000
0001
1000
0000
0100
1000
0100
0010
,  // measure 68
0001
0100
0010
0000
1000
0001
1000
0010
,  // measure 69
0100
0001
0010
0000
0100
0010
0001
0100
,  // measure 70
0010
1000
0001
0000
0100
0001
0100
0010
,  // measure 71
1000
0010
0100
0000
0001
0010
0001
1000
,  // measure 72
0100
1000
0010
0000
1000
0010
1000
0001
,  // measure 73
0100
0001
1000
0000
0001
0010
0001
1000
,  // measure 74
0100
1000
0010
0000
0100
0010
0100
0001
,  // measure 75
0100
0010
1000
0000
0001
0010
0001
0100
,  // measure 76
0001
0010
0100
0000
0010
0001
1000
0100
,  // measure 77
1000
0001
0010
0000
0100
1000
0010
1000
,  // measure 78
0100
0010
0100
0000
1000
0001
0100
0001
,  // measure 79
0100
0010
1000
0000
2002
0000
0000
0000
,  // measure 80
0000
0000
3003
0000
;
