#TITLE:glitch boy;
#SUBTITLE:;
#ARTIST:k?d;
#TITLETRANSLIT:;
#SUBTITLETRANSLIT:;
#ARTISTTRANSLIT:;
#GENRE:;
#CREDIT:;
#BANNER:glitch boy.png;
#BACKGROUND:glitch boy-bg.png;
#LYRICSPATH:;
#CDTITLE:;
#MUSIC:glitch boy.ogg;
#OFFSET:2.238114;
#SAMPLESTART:69.780029;
#SAMPLELENGTH:19.200005;
#LASTBEATHINT:2.011362;
#SELECTABLE:YES;
#BPMS:0.000000=100.000000
;
#STOPS:115.750000=2.400000,
148.000000=0.300000,
163.500000=0.300000
;
#BGCHANGES:;
#KEYSOUNDS:;
#ATTACKS:;

//---------------dance-single - ----------------
#NOTES:
     dance-single:
     :
     Hard:
     13:
     0.591450,0.662574,0.188969,0.068716,0.816004,482.000000,460.000000,22.000000,8.000000,0.000000,0.000000,0.591450,0.662574,0.188969,0.068716,0.816004,482.000000,460.000000,22.000000,8.000000,0.000000,0.000000:
0000
0000
0000
0000
,
0000
0000
0000
0000
,
0000
0000
0000
0000
,
0000
0000
0000
0000
,
0000
0000
0000
0000
,
0000
0000
0010
0000
0010
0000
1000
0010
0000
0010
0000
0010
1000
0000
1000
0000
,
0000
0000
0100
0000
0100
0000
0010
0100
0000
0100
0000
0000
0010
0001
0010
0001
,
0000
0000
0001
0000
0001
0000
0100
0001
0000
0001
0000
0001
0100
0000
0100
0000
,
0000
0000
0010
0000
0010
0000
1000
0010
0000
0010
0000
0000
1000
0001
1000
0001
,
0000
0000
0010
0000
0010
0000
0001
0010
0000
0010
0000
0010
0001
0000
0001
0000
,
0000
0000
0100
0000
0100
0000
0010
0100
0000
0100
0000
0000
0010
0100
0010
0100
,
0000
0000
0001
0000
0001
0000
1000
0001
0000
0001
0000
0001
1000
0000
1000
0000
,
0000
0000
0100
0000
0100
0000
1000
0100
0000
0100
0010
0100
0010
0100
1000
0001
,
0010
0000
0001
0010
0001
0000
0100
0001
0000
0001
0010
0100
1000
0000
0001
1000
,
0001
0000
0010
0001
0010
0000
0001
0100
0000
0100
0001
0010
0100
0010
0100
0010
,
0001
0000
1000
0010
1000
0000
0100
1000
0000
1000
0100
0010
0001
0000
1000
0001
,
1000
0000
0010
1000
0010
0000
1000
0100
0000
0100
1000
0010
0100
0010
0100
0010
,
1000
0000
0001
0100
0001
0000
1000
0010
0000
0010
1000
0001
0100
0000
0010
0100
,
0010
0000
0100
0001
0100
0000
0010
1000
0000
1000
0010
0100
0001
1000
0001
1000
,
0001
0000
1000
0100
1000
0000
0010
1000
0000
1000
0010
0100
0001
0000
0010
0100
,
0010
0000
0100
1000
0100
0000
1000
0010
0000
0010
1000
0001
0100
0010
0100
0010
,
1000
0000
0001
1000
0001
0000
1000
0010
1000
0001
0000
0001
1000
0000
0100
1000
,
0100
0000
0010
0100
0010
0000
0001
0010
0001
0100
0000
0100
0010
0100
0010
0100
,
0001
0000
1000
0010
1000
0000
0001
1000
0001
0010
0000
0010
0100
0000
1000
0100
,
1000
0000
0100
0010
0100
0000
0010
0001
0010
0001
0000
0001
0100
0001
0100
0010
,
1000
0000
0101
0000
1001
0000
1000
0010
1000
0001
1000
0000
0100
0000
0010
0100
,
0010
0000
0011
0000
0101
0000
1000
0010
1000
0001
0100
0000
0010
1000
0010
1000
,
0001
0000
0110
0000
1100
0000
0100
0010
0100
0010
0001
0000
1000
0000
0010
1000
,
0010
1000
0100
0010
0001
1000
0100
0010
0001
0100
0010
1000
0001
0100
0010
1000
,
2002
0000
3003
0000
0110
0000
1000
0000
0001
0100
0000
0000
0110
0000
1000
0000
,
1001
0000
0000
0010
0001
0000
0010
0000
0100
0010
0000
0000
0001
1000
0100
1000
,
0010
0000
0000
0100
0001
0000
1000
0000
0010
1000
0000
0000
0101
0000
0001
0000
,
1010
0000
0000
1000
0100
0000
1000
0000
0010
0100
0000
0000
0100
0010
0100
0010
,
2000
0000
3000
0000
0011
0000
0010
0000
0100
0010
0000
0000
0011
0000
1000
0000
,
1100
0000
0000
1000
0010
0000
0100
0000
0010
1000
0000
0000
1001
0000
0001
0000
,
0101
0000
0000
0100
0010
0000
1000
0000
1100
0000
0000
0010
0100
0000
0001
0000
,
1000
0000
0000
0001
1000
0000
0010
0000
0100
0001
0000
0002
0013
0000
0110
0000
,
1001
0000
0001
0100
0010
0100
0001
0100
0010
0100
0001
0100
0010
1000
0100
0010
,
0001
0010
0100
0010
0001
0010
0100
0010
0001
0010
0100
0100
0100
0100
1000
0010
,
1000
0001
1000
0010
1000
0001
1000
0010
1000
0001
1000
0010
0100
0001
0010
0100
,
1000
0100
0010
0100
1000
0100
0010
0001
1000
0100
0010
0100
0010
0100
0010
0000
,
0010
0001
1000
0100
0010
0001
1000
0100
0010
0001
0100
0010
0100
0001
1000
0010
,
0100
0001
1000
0010
0100
0001
1000
0010
1000
0001
1000
0001
1000
0100
0010
0001
,
1000
0100
0010
0001
0100
0010
1000
0001
0100
0010
1000
0001
0100
0001
1000
0010
,
1000
0100
0010
0001
0010
0100
1000
0020
0130
0000
1010
0000
1002
0000
0000
0000
,
0000
2003
3020
0000
,
0000
0000
0000
0030
;

//---------------dance-single - ----------------
#NOTES:
     dance-single:
     :
     Medium:
     8:
     0.288362,0.321248,0.068716,0.008590,0.000000,235.000000,227.000000,8.000000,1.000000,0.000000,0.000000,0.288362,0.321248,0.068716,0.008590,0.000000,235.000000,227.000000,8.000000,1.000000,0.000000,0.000000:
0000
0000
0000
0000
,
0000
0000
0000
0000
,
0000
0000
0000
0000
,
0000
0000
0000
0000
,
0000
0000
0000
0000
,
1000
0000
0001
0000
0010
0100
0010
0000
,
0001
0000
1000
0000
0010
0000
1000
0001
,
1000
0000
0100
0000
0010
0000
0001
0100
,
0001
0000
1000
0000
0010
0000
1000
0001
,
1000
0000
0100
0000
0010
0000
0001
0010
,
0001
0000
0100
0000
0010
0000
1000
0001
,
1000
0000
0100
0000
0010
0000
0100
0010
,
0100
0000
0010
0000
0001
1000
0001
1000
,
0001
0000
0100
0000
0010
0000
1000
0001
,
0100
0000
0010
0000
1000
0000
0100
0010
,
0001
0000
1000
0000
0010
0000
0100
0001
,
0010
0000
1000
0000
0100
0000
0010
0001
,
1000
0000
0010
0000
1000
0000
0100
0010
,
0001
0000
0100
0000
0001
0000
0010
0100
,
1000
0000
0001
0000
0100
0000
0010
1000
,
0001
0000
1000
0000
0100
0000
0010
0001
,
1000
0000
0001
0000
1000
0001
1000
0010
,
1000
0000
0001
0000
0100
0001
0100
0010
,
0100
0000
0001
0000
0010
0001
0010
0100
,
0010
0000
0001
0000
1000
0000
0010
1000
,
0001
0000
1000
0000
0001
1000
0001
0010
,
0001
0000
0100
0000
0010
0100
0001
0100
,
0010
0000
1000
0000
0001
1000
0001
0000
,
1000
0100
1000
0100
0010
0001
0010
0001
,
1000
0000
0101
0000
0100
0001
1000
0001
,
0100
0000
1010
0000
1000
0001
1000
0000
,
0100
0000
0011
0000
0010
0001
0100
0001
,
0100
0000
1001
0000
1000
0010
1000
0000
,
0100
0000
1010
0000
1000
0001
1000
0100
,
1000
0000
0110
0000
0010
0001
0010
0000
,
0100
0000
1001
0000
0100
0001
0100
0000
,
0010
0000
1001
0000
1000
0010
1000
0000
,
0000
1000
0100
1000
0100
1000
0000
0010
,
1000
0010
1000
0010
1000
0010
0010
0010
,
0100
0010
0100
0010
0100
0010
0000
0100
,
0001
0100
0001
0100
0001
0100
0000
0000
,
0001
0010
0001
0010
0001
0000
0010
0100
,
0010
0100
0010
0100
0010
0000
0001
1000
,
0001
1000
0001
1000
0001
0000
1000
0010
,
0100
0001
1000
0010
0100
0001
0020
0000
,
0000
0000
0000
0000
,
0000
0000
0000
0030
;

//---------------dance-single - ----------------
#NOTES:
     dance-single:
     :
     Easy:
     4:
     0.186515,0.192190,0.060127,0.000000,0.000000,152.000000,145.000000,7.000000,0.000000,0.000000,0.000000,0.186515,0.192190,0.060127,0.000000,0.000000,152.000000,145.000000,7.000000,0.000000,0.000000,0.000000:
0000
0000
0000
0000
,
0000
0000
0000
0000
,
0000
0000
0000
0000
,
0000
0000
0000
0000
,
0000
0000
0000
0000
,
0010
1000
0010
0010
,
1000
0100
1000
1000
,
0001
0010
0001
0001
,
0100
0001
0100
0100
,
0010
0100
0010
0100
,
0001
1000
0001
1000
,
0100
1000
0100
1000
,
0001
0010
0001
0010
,
0001
0000
1000
0010
,
1000
0000
0001
0100
,
0001
0000
0010
0100
,
0010
0000
0001
0010
,
0100
0000
1000
0010
,
0100
0000
0001
1000
,
0010
0000
1000
0001
,
0100
0000
0001
0010
,
0110
0100
0100
0000
,
1001
0001
0001
0000
,
0110
0100
0100
0000
,
1010
1000
1000
0000
,
0011
0010
0010
0000
,
0100
0010
0100
0010
,
0001
0010
0001
0010
,
0100
1000
0100
0010
,
0000
1000
0001
1000
,
0001
1000
0001
0001
,
0100
0010
0100
0010
,
0100
0010
1000
0100
,
0010
0001
0010
0001
,
1000
0100
1000
0100
,
0100
0010
0100
0010
,
0001
1000
0001
1000
,
0000
1001
0000
1000
0000
0001
0000
0100
,
0000
0010
0000
1000
0000
0100
0000
1000
,
0000
0001
0000
0010
0000
0001
0000
0010
,
0000
0100
0000
1000
0000
1000
0000
0000
,
0100
0010
0001
1000
,
0010
1000
0001
0100
,
0010
1000
0100
0010
,
0001
0010
0100
1001
;

//---------------dance-single - ----------------
#NOTES:
     dance-single:
     :
     Beginner:
     1:
     0.126389,0.249848,0.111664,0.000000,0.000000,103.000000,90.000000,13.000000,0.000000,0.000000,0.000000,0.126389,0.249848,0.111664,0.000000,0.000000,103.000000,90.000000,13.000000,0.000000,0.000000,0.000000:
// measure 0
0000
0000
0000
0000
,  // measure 1
0000
0000
0000
0000
,  // measure 2
0000
0000
0000
0000
,  // measure 3
0000
0000
0000
0000
,  // measure 4
0000
0000
0000
0000
,  // measure 5
0010
0000
0000
0000
,  // measure 6
1000
0000
0000
0000
,  // measure 7
0001
0000
0000
0000
,  // measure 8
1000
0000
0000
0000
,  // measure 9
0100
0000
0000
0000
,  // measure 10
0010
0000
0000
0000
,  // measure 11
0001
0000
0000
0000
,  // measure 12
0010
0000
0000
0000
,  // measure 13
0010
0010
0010
0000
,  // measure 14
0001
0001
0001
0000
,  // measure 15
1000
1000
1000
0000
,  // measure 16
0001
0001
0001
0000
,  // measure 17
0100
0100
0100
0000
,  // measure 18
0010
0010
0010
0000
,  // measure 19
1000
1000
1000
0000
,  // measure 20
0001
0001
0001
0000
,  // measure 21
1000
0000
0100
0000
,  // measure 22
0010
0000
0100
0000
,  // measure 23
0010
0000
0001
0000
,  // measure 24
0010
0000
0001
0000
,  // measure 25
1000
0000
0001
0000
,  // measure 26
1000
0000
0001
0000
,  // measure 27
0100
0000
0010
0000
,  // measure 28
1000
0000
0001
0000
,  // measure 29
0000
1001
0000
1000
,  // measure 30
0000
0001
0000
0100
,  // measure 31
0000
0010
0000
1000
,  // measure 32
0000
0100
0100
0100
,  // measure 33
0000
0010
0000
0001
,  // measure 34
0000
1000
0000
0001
,  // measure 35
0000
0100
0000
0010
,  // measure 36
0000
1000
0000
0001
,  // measure 37
0000
1001
0000
1001
0000
1001
0000
0000
,  // measure 38
0000
0110
0000
0110
0000
0110
0000
0000
,  // measure 39
0000
1000
0000
1000
0000
1000
0000
0000
,  // measure 40
0000
0001
0000
0001
0000
0001
0000
0000
,  // measure 41
0110
0110
0110
0000
,  // measure 42
1001
1001
1001
0000
,  // measure 43
0100
0100
0100
0000
,  // measure 44
0010
0010
0010
0010
;
