#TITLE:Your voice so...;
#SUBTITLE:;
#ARTIST:PSYQUI feat. Such;
#TITLETRANSLIT:;
#SUBTITLETRANSLIT:;
#ARTISTTRANSLIT:;
#GENRE:;
#CREDIT:;
#BANNER:Your voice so.png;
#BACKGROUND:Your voice so-bg.png;
#LYRICSPATH:;
#CDTITLE:;
#MUSIC:Your voice so.ogg;
#OFFSET:-0.102335;
#SAMPLESTART:23.321888;
#SAMPLELENGTH:10.909088;
#SELECTABLE:YES;
#DISPLAYBPM:176.000000;
#BPMS:0.000000=176.000000
,130.250000=88.000000
,132.500000=176.000000
,132.750000=352.000000
,136.750000=176.000000
,256.500000=88.000000
,257.000000=176.000000
,480.000000=88.000000
,484.000000=176.000000
,612.000000=44.000000
,614.000000=176.000000
,627.500000=88.000000
,628.000000=176.000000
,655.500000=352.000000
,656.500000=176.000000
;
#STOPS:69.000000=0.170000,
101.500000=0.170000,
101.750000=0.170000,
102.000000=0.085000,
136.750000=0.341000,
161.000000=0.170000,
623.000000=0.170000,
655.500000=0.043000,
655.750000=0.043000,
656.000000=0.043000,
656.250000=0.043000
;
#BGCHANGES:;
#KEYSOUNDS:;
#ATTACKS:;

//---------------dance-single - ----------------
#NOTES:
     dance-single:
     :
     Challenge:
     18:
     0.864046,1.049866,0.394371,0.363134,0.794599,1549.000000,1448.000000,101.000000,93.000000,0.000000,0.000000,0.864046,1.049866,0.394371,0.363134,0.794599,1549.000000,1448.000000,101.000000,93.000000,0.000000,0.000000:
// measure 0
0000
0000
0000
0000
,  // measure 1
0000
0000
0000
0000
,  // measure 2
0000
0000
0000
0000
,  // measure 3
0000
0000
0000
0000
,  // measure 4
0000
0000
0000
0000
,  // measure 5
0000
0000
0000
0000
,  // measure 6
0000
0000
0000
0000
,  // measure 7
0000
0000
0000
0000
,  // measure 8
0000
0000
0000
0000
,  // measure 9
0100
0000
0100
0001
0100
0000
0010
0000
,  // measure 10
1000
0001
0010
0100
,  // measure 11
0010
0000
0001
0010
0100
0000
1000
0000
,  // measure 12
0010
0100
0001
1000
,  // measure 13
0010
1000
0010
0100
0001
1000
0001
0010
,  // measure 14
0001
1000
0100
0010
0001
1000
0010
1000
,  // measure 15
0001
0010
0001
0010
0100
0010
0001
1000
0100
1000
0100
0010
0100
1000
0010
0100
,  // measure 16
0001
0000
1000
0001
0000
0100
0001
0000
1000
0000
0010
1000
0100
0000
0010
0000
,  // measure 17
0002
0000
0000
0000
0003
0000
1010
0000
0000
1001
0000
0000
1010
0000
0010
0000
,  // measure 18
0100
0001
1000
0000
0100
0000
0010
0000
0000
0000
0100
0010
0001
1000
0100
0000
,  // measure 19
1000
0000
0010
0000
1000
0000
0001
0000
0100
0010
0000
1000
0001
1000
0001
0010
,  // measure 20
0100
0000
0100
0000
0010
0001
1000
0000
0100
1000
0010
0000
0100
0001
1000
0000
,  // measure 21
0010
0000
1000
0001
1000
0000
0100
0000
0010
0001
0000
0010
0001
0000
0100
0000
,  // measure 22
0010
0000
1000
0000
0001
0010
0001
0000
1000
0001
1000
0000
0100
0000
1000
0000
,  // measure 23
0010
0000
0001
0000
0010
0100
0010
0000
1000
0001
0000
1000
0100
0000
0011
0000
,  // measure 24
0001
0000
0101
0000
0100
0000
0110
0000
0010
0000
1010
0000
1000
0010
0100
0001
,  // measure 25
0010
0100
2000
0000
0000
0000
3100
0100
0100
0011
0000
0001
1000
0100
0000
1000
,  // measure 26
0000
0010
0100
0000
0010
0100
0000
0001
0100
0010
0000
1000
0000
0001
0100
0001
,  // measure 27
0000
1000
0000
0100
0010
0000
0001
0010
0100
1000
0000
0010
0000
0100
0000
0001
,  // measure 28
0010
0001
1000
0100
0010
0100
0000
1000
0000
0010
0000
1000
0100
0000
1000
0100
,  // measure 29
0010
0001
0000
1000
0001
0000
1000
0001
0100
0010
0100
0010
1000
0001
1000
0100
,  // measure 30
0000
0010
0000
0001
1000
0010
0000
0010
0000
0100
0000
0001
0010
0000
0001
0010
,  // measure 31
0000
0100
0000
1000
0001
0000
1000
0010
0100
0001
0000
1000
0000
1100
0000
0100
,  // measure 32
0000
0110
0000
0010
0000
0011
0000
0001
0000
0000
0000
0000
0000
0000
0000
0000
,  // measure 33
0000
0000
0000
0000
,  // measure 34
0000
0000
0000
0000
0001
0000
0010
0001
0000
0010
0001
0100
0010
0000
0100
0010
,  // measure 35
0000
0100
0010
1000
0001
0000
0100
0000
1000
0000
0100
0000
0010
0000
0100
0000
,  // measure 36
0001
0000
0010
0000
0100
0000
1000
0100
0000
1000
0100
0010
0001
0000
0100
0001
,  // measure 37
0000
0100
0001
1000
0010
0000
0100
0010
0000
0100
0010
1000
0001
0000
0010
0001
,  // measure 38
0000
0010
0001
0010
0100
0000
0010
0001
0000
0010
0100
1000
0010
0000
0100
0010
,  // measure 39
0000
1000
0010
0100
0001
0000
0020
0030
1000
0000
0020
0030
0100
0000
0020
0030
,  // measure 40
0001
0000
2000
3000
0000
1010
0000
0010
1000
0001
1000
0000
0001
0100
0000
0010
,  // measure 41
0100
0001
1000
0000
0010
1000
0000
0001
1000
0100
0010
0000
0001
1000
0000
0001
,  // measure 42
0010
0100
1000
0000
0010
0100
0000
0010
1000
0001
0100
0000
0001
0010
0000
0001
,  // measure 43
1000
0100
0010
0000
0001
0010
0100
0000
1000
0010
0100
0000
0010
1000
0001
0000
,  // measure 44
0100
0001
1000
0100
1000
0100
0020
0000
0030
0000
0001
0100
0001
0100
0020
0000
,  // measure 45
0030
0000
1000
0000
0000
0202
0303
0000
2002
3003
0000
0000
1000
0000
0010
1000
,  // measure 46
0001
0100
0010
0000
1000
0100
0000
1000
0010
0100
0001
0000
0010
0100
0000
0010
,  // measure 47
0001
1000
0100
0000
0010
0001
1000
0000
0010
1000
0001
0000
0100
0001
1000
0000
,  // measure 48
0100
0010
0002
0000
0000
0000
2003
0000
0000
0000
3020
0000
0000
0000
0230
0000
,  // measure 49
0000
0302
0000
0023
0000
2030
0000
3020
,  // measure 50
0000
0032
0000
0203
0000
0320
0000
2030
,  // measure 51
0000
3002
0000
0203
0000
2300
0000
3200
,  // measure 52
0000
0302
0000
0023
0000
0230
0000
2300
,  // measure 53
0000
3002
0000
0023
0000
2030
0000
3020
,  // measure 54
0000
0032
0000
2003
0000
3020
0000
0230
,  // measure 55
0000
0302
0000
2003
0000
3200
0000
0320
,  // measure 56
0000
0000
0031
0000
0000
0000
1000
0000
0100
0000
1000
0000
0010
0100
0000
0010
,  // measure 57
1000
0000
0001
0000
0010
0000
0100
0000
1000
0001
2000
0000
0000
0000
3020
0000
,  // measure 58
0000
0000
1030
0000
0000
0000
0011
0000
0000
0000
0001
0000
0000
0100
0000
0100
,  // measure 59
0010
0100
0001
0000
1000
0000
0010
0000
0100
0001
0020
0000
0000
0000
0230
0000
,  // measure 60
0000
0000
1300
0000
0000
0000
0001
0000
0100
0000
0001
0000
0010
0100
0000
0010
,  // measure 61
0001
0000
1000
0000
0010
0000
0100
0000
0001
1000
0001
0000
0010
0100
0020
0000
,  // measure 62
0000
0000
0130
0000
1000
0100
1000
0000
0010
1000
0010
0000
0100
0001
0000
1000
,  // measure 63
0001
0000
0010
0000
0100
0000
0010
0001
0000
0001
0010
0000
0100
0000
1000
0000
,  // measure 64
1000
0000
0110
0000
0010
0001
1000
0001
,  // measure 65
0010
0000
0100
0010
0100
0000
1000
0000
0010
1000
0001
1000
0010
1000
0001
1000
,  // measure 66
0200
0300
0010
0100
1000
0010
0001
0010
,  // measure 67
1000
0001
0100
0010
1000
0100
0010
0001
,  // measure 68
1001
0000
0000
0011
0000
0000
1010
0000
1000
0001
0100
0001
1000
0000
0010
0000
,  // measure 69
1000
0001
0100
0000
0001
1000
0010
1000
0001
1000
0100
0000
1000
0001
0010
0000
,  // measure 70
0011
0000
0000
0010
0001
1000
0100
0000
0000
1000
0010
0100
0001
0000
0100
0000
,  // measure 71
0101
0001
0011
0010
0110
0100
1100
1000
,  // measure 72
0000
0010
1020
0000
2000
3000
0200
0300
,  // measure 73
0002
0003
0200
0300
2000
3000
0130
0000
,  // measure 74
0101
0000
0100
0001
0010
0000
0100
0000
0010
0000
0001
1000
0010
0000
1000
0000
,  // measure 75
0001
0000
1000
0010
0100
0000
0010
0000
1000
0000
0001
1000
0100
0000
1000
0000
,  // measure 76
1010
0000
0000
0000
0010
0000
1000
0010
0100
0000
0010
1000
0001
0000
1000
0000
,  // measure 77
0100
0000
0010
0100
0000
1000
0100
0000
0010
0001
0000
0100
0010
0000
1000
0000
,  // measure 78
0010
0000
0100
0010
0000
1000
0010
0000
0100
0001
0000
0010
0100
0000
1000
0000
,  // measure 79
2100
3001
0012
0103
,  // measure 80
0120
0000
1030
0000
2200
3300
0022
0033
,  // measure 81
1002
0103
2010
3100
,  // measure 82
0210
0301
0012
1003
,  // measure 83
1000
0100
0010
0100
1000
0100
0001
0100
,  // measure 84
1000
0010
0100
0010
1000
0010
0001
0010
,  // measure 85
1000
0010
1000
0001
0100
0001
0010
0001
1000
0100
1000
0001
0010
0001
0010
0100
,  // measure 86
1000
0000
1000
0001
0000
1000
0001
0000
0020
0000
0000
0000
0031
0100
0010
1000
,  // measure 87
0100
0000
0000
0000
1010
0000
0000
0010
1000
0000
1000
0000
0001
0000
0000
0000
,  // measure 88
1000
0001
1000
0000
1010
0000
0101
0000
,  // measure 89
0011
0000
0000
0000
1100
0000
0000
1000
0001
0000
0001
0000
0100
0000
0000
0000
,  // measure 90
1000
0100
0001
0010
1000
0001
0100
1000
,  // measure 91
0010
0000
0000
0000
1000
0000
0000
1000
0001
0000
0001
0000
1000
0000
0000
0000
,  // measure 92
0001
1000
0001
0000
0011
0000
1100
0000
,  // measure 93
1010
0000
0000
0000
0101
0000
0000
0001
1000
0000
1000
0000
0100
0000
0000
0000
,  // measure 94
0020
0032
0203
2300
,  // measure 95
3010
0000
0000
0000
0101
0000
0000
0100
0001
0000
0001
0000
1000
0000
0000
0000
,  // measure 96
0001
1000
0001
0000
0101
0000
1010
0000
,  // measure 97
1100
0000
0000
0000
0011
0000
0000
0001
1000
0000
1000
0000
0010
0000
0000
0000
,  // measure 98
0001
0010
1000
0100
0001
1000
0010
0001
,  // measure 99
0100
0000
0000
0000
0001
0000
0000
0001
1000
0000
1000
0000
0001
0000
0000
0000
,  // measure 100
1000
0001
1000
0000
1100
0000
0011
0000
,  // measure 101
0101
0000
0000
0000
1010
0000
0000
1000
0001
0000
0001
0000
0010
0000
0000
0000
,  // measure 102
0200
0000
2300
0000
3020
0000
0032
1000
,  // measure 103
1003
0000
0000
0000
0001
0000
1000
0100
0001
0000
0100
0000
0010
0000
0001
0000
,  // measure 104
0100
0010
0100
0001
1000
0010
1000
0001
,  // measure 105
0010
0000
0001
0000
1000
0000
0001
0100
1000
0000
0100
0000
0010
0000
0100
0000
,  // measure 106
0001
0100
1000
0001
0010
1000
0100
0001
,  // measure 107
0100
0000
0010
0000
0001
0000
1000
0010
0001
0000
0010
0000
1000
0000
0001
0000
,  // measure 108
0010
0100
0010
0001
0100
0010
1000
0001
,  // measure 109
1000
0000
0010
0000
0100
0000
0001
0010
1000
0000
0010
0000
0001
0000
0100
0000
,  // measure 110
0010
0001
0010
1000
0100
0010
1000
0010
,  // measure 111
0001
0000
1000
0000
0100
0000
0010
0001
0100
0000
0010
0000
1000
0000
0001
0000
,  // measure 112
0010
0100
0010
0001
1000
0010
0001
0010
,  // measure 113
1000
0000
0001
0000
0100
0000
0010
1000
0100
0000
0010
0000
0001
0000
1000
0000
,  // measure 114
0010
0001
1000
0100
0001
0010
1000
0010
,  // measure 115
0001
0000
1000
0000
0010
0000
0100
0001
0010
0000
0001
0000
1000
0000
0100
0000
,  // measure 116
0010
0001
0010
1000
0010
0001
0100
0010
,  // measure 117
1000
0000
0001
0000
0010
0000
0100
1000
0010
0000
0100
0000
0001
0000
1000
0000
,  // measure 118
0001
0000
0001
0100
0000
0100
0010
0000
0100
0010
0000
0010
1000
0000
0001
0000
,  // measure 119
1000
0000
1000
0100
0000
0100
0010
0000
0100
0010
0000
0010
0001
0000
1000
0000
,  // measure 120
0020
0000
0000
0000
0130
0000
0100
0000
0001
0000
1000
0001
0000
1000
0001
0000
0001
0000
1000
0001
0000
1000
0001
0000
0002
0000
0000
0000
0013
0000
0001
1000
,  // measure 121
0100
0000
0000
0000
0000
0000
0100
0000
0000
0000
0000
0000
0010
0000
0000
0000
0000
0000
0001
0000
0000
1000
0000
0000
0010
0000
0000
0000
1000
0000
0000
0000
0010
0000
0000
0000
1000
0000
0000
0000
0010
0000
0000
0000
0100
0000
0000
0000
,  // measure 122
0001
0000
0000
0000
1000
0000
0001
0000
0100
0000
0000
0000
0010
0000
0000
0000
1000
0000
0010
0000
0100
0000
0000
0000
0001
0000
0000
0000
0000
0000
0001
0000
0000
0000
0000
0000
1000
0000
0000
0000
0000
0000
0100
0000
0000
1000
0000
0000
,  // measure 123
0001
0000
0010
0000
1000
0000
0010
0000
0001
0000
1000
0010
0000
1000
0001
1000
,  // measure 124
0100
0000
0010
0000
0001
0000
1000
0001
1000
0000
0100
0000
0001
0000
0100
0000
,  // measure 125
1100
0000
0000
0110
0000
0000
0011
0000
0001
0000
1000
0010
0000
1000
0010
0000
,  // measure 126
0100
0001
0010
0000
0001
1000
0001
1000
0100
1000
0010
0000
1000
0001
1000
0001
,  // measure 127
0100
0000
0000
0100
0001
0100
0010
0000
0000
0010
1000
0010
0100
0000
0001
0000
,  // measure 128
0011
0000
0010
0000
0110
0000
0100
0000
1100
0000
1000
0000
1001
0000
0001
1000
,  // measure 129
0001
0000
0010
0000
0011
0000
0000
0000
1010
0000
1000
0010
0001
0000
0001
0010
,  // measure 130
1000
0100
0001
0100
1000
0000
0001
0100
1000
0000
1000
0100
0001
0000
1000
0000
,  // measure 131
1001
0000
0000
0000
1100
0000
1000
0000
0010
0000
1000
0001
0000
1000
0100
1000
,  // measure 132
0010
0000
0100
0010
0100
0001
0010
0000
0100
1000
0100
0010
0001
0000
1000
0000
,  // measure 133
1010
0000
0000
0010
1000
0000
0001
0100
0001
0000
0010
0100
1000
0010
0100
0000
,  // measure 134
0001
0000
1000
0001
0100
0000
0010
1000
0001
0000
1000
0100
0010
0000
0001
0000
,  // measure 135
0010
0000
0000
0010
0100
0000
0010
0001
1000
0000
0010
0100
0000
0100
0001
0000
,  // measure 136
0101
0000
0100
0001
1000
0000
1010
0000
0010
1000
0001
0000
1001
0000
1000
0000
,  // measure 137
1100
0000
0000
0000
0110
0000
0000
0000
0011
0000
0000
0001
1000
0000
0001
0000
,  // measure 138
0100
0000
0010
0000
0110
0000
0000
0000
0110
0000
0000
0100
0010
0000
0100
0000
,  // measure 139
0101
0000
0000
0000
0110
0000
0000
0000
1010
0000
0000
1000
0001
0000
1000
0000
,  // measure 140
0100
0000
0010
0000
0110
0000
0000
0000
0011
0000
0000
0001
0010
0000
0100
0000
,  // measure 141
1100
0000
0000
0000
1010
0000
0000
0000
0101
0000
0000
0100
0010
0000
1000
0000
,  // measure 142
0001
0000
1000
0000
1001
0000
0000
0000
1001
0000
0000
0001
1000
0000
0001
0000
,  // measure 143
0101
0000
0000
0000
0011
0000
0000
0000
1100
0000
0000
0100
0010
0000
0001
0000
,  // measure 144
1000
0000
0001
0000
1001
0000
0000
0000
1001
0000
0000
1000
0001
0000
0100
0000
,  // measure 145
0010
0000
1000
0000
0001
0000
1000
0100
1000
0000
0001
0100
0001
0000
1000
0000
,  // measure 146
0010
0100
0010
1000
0001
1000
0001
0100
,  // measure 147
0001
0000
0010
0000
0001
0000
1000
0100
1000
0000
0001
0100
0001
0000
1000
0001
,  // measure 148
0010
0100
1000
0010
0001
0010
1000
0100
,  // measure 149
0010
0000
0001
0000
0100
0000
0010
1000
0010
0000
1000
0001
1000
0000
0100
0000
,  // measure 150
0010
0000
0001
0000
0010
0000
0001
0000
1000
0000
0001
0100
0001
0000
0100
0000
,  // measure 151
0010
1000
0010
1000
0001
1000
0001
0100
0001
0010
0100
1000
0100
0010
0001
1000
,  // measure 152
0100
0000
0010
0100
0010
0000
0100
0010
0100
0000
0010
0000
0001
0000
1000
0001
,  // measure 153
0100
0000
0000
0000
0000
0000
0000
0000
1000
0000
1000
0000
1001
0000
0001
0100
,  // measure 154
0001
0100
0010
0000
1010
0000
1000
0010
0100
0000
0101
0000
0001
0100
0010
0000
,  // measure 155
1010
0000
1000
0001
0100
0000
0001
0000
2002
0000
0000
0000
3003
0000
0110
0000
,  // measure 156
0000
0110
0000
0000
0110
0000
1000
0000
0010
0100
0001
0000
1000
0000
0002
0003
,  // measure 157
0010
0001
1000
0100
0010
0001
1000
0000
0010
1000
0001
1000
0001
0100
0010
1000
,  // measure 158
0001
0000
1000
0100
1000
0010
1000
0000
0001
0100
0010
0100
0001
1000
0001
0100
,  // measure 159
0010
1000
0100
0010
0001
0000
1000
0100
1000
0100
0010
0001
1000
0001
1000
0010
,  // measure 160
1000
0000
0001
0100
0010
0000
1000
0000
0001
0000
1000
0001
0100
0001
0010
0100
,  // measure 161
1000
0010
1000
0001
0100
0010
1000
0000
0001
0010
0001
0100
0010
0100
0001
1000
,  // measure 162
0100
0010
0001
0010
0100
0000
0010
0001
1000
0000
0010
0000
0100
0000
0100
0000
,  // measure 163
0001
0000
1000
0001
0100
0000
0001
0010
0000
0010
0001
1000
0001
0100
0010
0010
,  // measure 164
1000
1000
0001
0000
1000
0000
0001
0100
0001
0010
0100
0010
0001
1000
0000
0001
,  // measure 165
1000
0000
0010
1000
0001
0000
0100
0000
0010
0100
0010
0000
1000
0001
0000
1000
,  // measure 166
0100
0000
0010
0001
1000
0100
1000
0000
0010
1000
0010
0100
0001
0000
1000
0001
,  // measure 167
0010
0001
1000
0100
1000
0000
0010
1000
0100
0010
0001
1000
0001
0100
0010
1000
,  // measure 168
0000
0001
1000
0100
0010
0001
1000
0010
1000
0001
0100
0010
1000
0000
0001
1000
,  // measure 169
0100
0000
1000
0000
0010
1000
0001
1000
0100
0010
0001
1000
0010
1000
0001
0100
,  // measure 170
0010
1000
0100
0010
0001
0000
1000
0000
0101
0000
0010
0000
1100
0000
0001
0000
,  // measure 171
1010
0100
1002
0000
0000
0000
0000
0000
,  // measure 172
0000
0023
0000
0000
,  // measure 173
0000
0230
0000
0000
,  // measure 174
0000
2300
0000
3020
,  // measure 175
0000
0000
0230
0000
0000
0002
0000
0300
,  // measure 176
0000
0023
0000
0000
,  // measure 177
0000
0230
0000
2300
,  // measure 178
0000
3020
0000
0230
,  // measure 179
0000
0300
0000
0000
;
