#TITLE:Wings Clipped;
#SUBTITLE:;
#ARTIST:Grey feat. Avril Lavigne & Anthony Green;
#TITLETRANSLIT:;
#SUBTITLETRANSLIT:;
#ARTISTTRANSLIT:;
#GENRE:;
#CREDIT:;
#BANNER:Wings Clipped.png;
#BACKGROUND:Wings Clipped-bg.png;
#LYRICSPATH:;
#CDTITLE:;
#MUSIC:Wings Clipped.ogg;
#OFFSET:-0.104791;
#SAMPLESTART:85.841347;
#SAMPLELENGTH:17.142853;
#SELECTABLE:YES;
#DISPLAYBPM:112.000000;
#BPMS:0.000000=112.000000
,156.000000=28.000000
,156.500000=56.000000
,156.750000=112.000000
,157.000000=224.000000
,157.500000=112.000000
,186.000000=14.000000
,186.250000=112.000000
,221.750000=5.000000
,221.770828=7.000000
,221.791672=9.000000
,221.812500=13.000000
,221.833328=15.000000
,221.854172=17.000000
;
#STOPS:157.500000=0.268000,
205.250000=1.205000,
221.750000=0.134000
;
#BGCHANGES:;
#KEYSOUNDS:;
#ATTACKS:;

//---------------dance-single - ----------------
#NOTES:
     dance-single:
     :
     Hard:
     13:
     0.539991,0.641308,0.214247,0.053562,0.711608,494.000000,466.000000,28.000000,7.000000,0.000000,0.000000,0.539991,0.641308,0.214247,0.053562,0.711608,494.000000,466.000000,28.000000,7.000000,0.000000,0.000000:
0000
0000
0000
0000
,
0000
0000
0000
0000
,
0000
0000
0000
0000
,
0000
0000
0000
0000
,
0000
0000
0000
0000
,
0000
0000
0000
0000
,
0000
0000
0000
0000
,
0000
0000
0000
0000
0000
0000
0000
0000
0000
1000
0000
0001
0000
0010
0100
0000
,
1000
0000
0000
0100
1000
0000
0100
0010
0100
0000
0000
0001
0010
0000
0000
0010
,
0100
0000
0000
1000
0100
0000
1000
0010
0100
0000
0000
0001
0100
0000
0000
0000
,
0010
0000
1000
0000
0010
0000
0100
0000
0001
0000
0010
0001
0010
0000
0100
0000
,
1000
0000
0100
0000
0001
0000
0100
0000
1000
0001
1000
0000
0010
0100
0000
0000
,
0001
0100
1000
0100
0001
1000
1010
0000
,
0110
0000
0000
0000
1001
0000
0000
0001
0010
0000
0001
0000
1100
0000
0000
0010
,
1000
0000
0000
0010
0000
0000
0100
0000
0001
0000
0000
0010
0000
0000
0100
0000
,
1000
0000
0000
0010
0000
0000
0100
0010
0100
0010
1000
0000
0001
1000
0000
0000
,
0100
0000
0000
0000
1001
0000
0000
0010
0001
0000
0000
0100
0010
0000
0000
0000
,
1000
0000
0000
0010
0000
0000
1000
0000
0100
0000
0001
0000
0001
0000
0000
0000
,
0100
0000
0000
1000
0010
0000
0000
0010
0100
0000
0001
1000
0001
0000
0010
0000
,
0100
0000
0010
0000
0001
0000
1000
0010
1000
0010
0100
0000
0001
0100
0000
0000
,
1010
0000
0000
0000
0001
0000
0000
1000
0010
0000
1000
0100
0010
0000
0000
0000
,
0100
0000
0000
0010
0000
0000
0001
0000
0010
0000
1000
0000
0010
0000
0001
0000
,
0100
0010
1000
0001
1000
0100
0001
0100
,
1000
0000
0000
0010
0000
0000
0100
0000
0010
0000
1000
0000
1000
0000
0100
0000
,
0010
0000
0000
0001
0000
0000
0000
0010
0000
0010
0001
0010
0100
1000
0100
1000
,
0100
0000
0001
0000
0100
0000
1000
0100
0010
0000
0100
0010
0100
0000
0001
0100
,
1000
0000
0000
0010
1000
0000
0000
0000
0001
0100
0010
1000
0010
1000
0100
1000
,
0100
0000
0010
0000
0001
0100
0001
0010
0100
0000
1000
0100
0010
0000
0001
0010
,
0100
0000
0000
0000
0010
0000
0000
0010
0001
1000
0001
1000
0010
1000
0100
0010
,
0100
0000
0010
0100
1000
0010
1000
0001
1000
0000
0010
0100
0010
0000
1000
0001
,
1000
0000
0000
0100
1000
0100
0010
0001
0100
0000
0000
0010
1000
0000
1000
0100
,
0001
0000
0100
1000
0010
0000
0100
0000
0010
1000
0100
0010
0001
0010
0100
1000
,
0010
0000
1000
0100
0010
0000
0100
0010
0100
0010
0001
1000
0001
0010
0100
1000
,
0001
0000
0101
0000
0110
0000
0010
0100
0001
0000
0101
0000
0010
1000
0000
0010
,
0100
0000
0001
1000
0010
0000
0010
0100
0010
0100
0001
0000
1000
0001
0000
0001
,
0100
0010
0100
0000
1010
0000
0010
0100
0000
0010
1000
0001
0000
0010
0001
0100
,
0010
0000
1000
0100
1000
0100
0010
0100
1000
0001
0010
0000
0100
0010
0000
0100
,
1000
0000
0011
0000
1100
0000
0100
0010
0001
0100
0010
0000
1000
0100
0010
0000
,
0100
0000
0000
0010
0001
0000
0010
0100
1000
0000
1001
0000
0001
0100
0000
0010
,
0000
0000
0000
0000
0000
0000
1001
0000
0101
0000
0000
0010
1000
0100
0000
0010
,
0000
0100
0010
0100
0000
0010
0001
0010
0100
0000
1100
0000
0001
1000
0000
0010
,
0100
0000
0010
0000
1000
0100
0000
0000
0011
0000
0000
0001
0010
0100
0000
1000
,
0000
0100
1000
0100
0000
0010
0001
0010
0100
0000
0110
0000
1000
0100
0000
0010
,
0001
0000
0100
0000
0001
1000
0000
0000
1001
0000
0000
0010
1000
0001
0100
0010
,
0000
0100
0010
1000
0000
0100
0010
0001
0010
0000
1100
0000
1000
0010
0000
1000
,
0000
0100
0010
0000
0001
0010
0000
0100
1000
0000
0000
0010
0100
0001
0000
1000
,
0000
0100
1000
0010
0000
0010
1000
0001
0200
0300
0001
0100
0010
1000
0001
0010
,
0100
1000
0000
0010
1000
0100
0010
0000
1001
0000
0001
0100
0001
0000
1000
0010
,
1000
0100
0000
0110
0000
0010
0001
0000
1100
0000
0100
1000
0000
1000
0100
0000
,
0100
0010
0000
0010
0001
0100
0010
0000
1010
0000
1000
0001
1000
0000
0010
0100
,
0010
1000
0000
1100
0000
1000
0001
0000
0011
0000
0100
0001
0100
0000
0010
1000
,
0001
0100
0000
0010
0100
0010
0000
1000
0001
0000
0101
0000
0001
0100
0000
0010
,
1000
0010
0100
0001
0010
0100
0010
0100
1000
0000
0010
1000
0001
0010
0000
0010
,
0100
0010
0100
1000
0100
1000
0010
0100
0002
0000
0000
2000
0003
0000
0200
3000
,
0020
0300
0000
0000
,
0000
0000
0000
0000
0000
0000
0030
2002
0000
0000
0000
0000
0000
0000
3003
0000
;

//---------------dance-single - ----------------
#NOTES:
     dance-single:
     :
     Beginner:
     3:
     0.120241,0.165277,0.045910,0.000000,0.038258,110.000000,104.000000,6.000000,0.000000,0.000000,0.000000,0.120241,0.165277,0.045910,0.000000,0.038258,110.000000,104.000000,6.000000,0.000000,0.000000,0.000000:
// measure 0
0000
0000
0000
0000
,  // measure 1
0000
0000
0000
0000
,  // measure 2
0000
0000
0000
0000
,  // measure 3
0000
0000
0000
0000
,  // measure 4
0000
0000
0000
0000
,  // measure 5
0000
0000
0000
0000
,  // measure 6
0000
0000
0000
0000
,  // measure 7
0000
0000
0000
0000
,  // measure 8
0010
0000
1000
0000
,  // measure 9
0001
0000
0010
0100
,  // measure 10
0010
0000
0001
0000
,  // measure 11
1000
0000
0010
0100
,  // measure 12
0100
0000
0010
0000
,  // measure 13
1000
0000
0100
0100
,  // measure 14
0010
0000
0001
0000
,  // measure 15
1000
0000
0001
0000
,  // measure 16
1001
0000
0010
0000
,  // measure 17
0100
0000
0010
0010
,  // measure 18
0010
0000
1000
0000
,  // measure 19
0001
0000
0010
0001
,  // measure 20
0001
0000
1000
0000
,  // measure 21
0100
0000
1000
0010
,  // measure 22
0010
0000
1000
0000
,  // measure 23
0001
0000
1000
0000
,  // measure 24
0001
0001
0000
0000
,  // measure 25
0100
0000
0010
0000
,  // measure 26
1000
1000
0000
0000
,  // measure 27
1000
0000
0100
0000
,  // measure 28
0010
0010
0000
0000
,  // measure 29
1000
0000
0001
0000
,  // measure 30
1000
0000
0010
0000
,  // measure 31
0100
0000
0000
0000
,  // measure 32
0010
0010
0000
0000
,  // measure 33
0100
0000
0110
0000
,  // measure 34
0001
0001
0000
0000
,  // measure 35
0010
0000
1001
0000
,  // measure 36
1000
1000
0000
0000
,  // measure 37
0001
0000
1000
0000
,  // measure 38
0010
0000
0100
0000
,  // measure 39
0000
0000
0100
0100
,  // measure 40
0000
0010
0000
1000
,  // measure 41
1000
1000
0000
0001
,  // measure 42
0000
0010
0000
0100
,  // measure 43
0000
0010
0000
1001
,  // measure 44
0000
0001
0001
0001
,  // measure 45
0000
1000
0000
0100
,  // measure 46
0000
0010
0010
0000
,  // measure 47
0000
0000
0000
0000
0000
0110
0000
0000
0000
0000
0000
0000
0000
0100
0000
0000
,  // measure 48
0000
0000
0000
0000
0000
0010
0000
0000
0000
0000
0000
0000
0000
0001
0000
0000
,  // measure 49
0000
0000
0000
0000
0000
1001
0000
0000
0000
0000
0000
0000
0000
1000
0000
0000
,  // measure 50
0000
0000
0000
0000
0000
0010
0000
0000
0000
0010
0000
0000
0000
0010
0000
0000
,  // measure 51
0000
0000
0000
0000
0000
0100
0000
0000
0000
0000
0000
0000
0010
0000
0000
0000
,  // measure 52
0001
0010
0000
1000
,  // measure 53
1000
0100
0100
0010
,  // measure 54
0001
0000
0000
0000
;

//---------------dance-single - ----------------
#NOTES:
     dance-single:
     :
     Easy:
     5:
     0.192385,0.254801,0.183641,0.053562,0.068865,176.000000,152.000000,24.000000,7.000000,0.000000,0.000000,0.192385,0.254801,0.183641,0.053562,0.068865,176.000000,152.000000,24.000000,7.000000,0.000000,0.000000:
0000
0000
0000
0000
,
0000
0000
0000
0000
,
0000
0000
0000
0000
,
0000
0000
0000
0000
,
0000
0000
0000
0000
,
0000
0000
0000
0000
,
0000
0000
0000
0000
,
0000
0000
0000
0000
,
0010
0100
0000
0100
,
0010
1000
0001
0001
,
1000
0100
0000
0100
,
0010
0001
1000
0010
,
1000
0001
0000
0001
,
0010
0100
0010
0001
,
1000
0000
0001
0000
,
1000
0000
0010
0110
,
0000
0100
0010
0100
,
0000
0100
0001
0001
,
0000
0001
1000
0010
,
0000
0010
1000
0100
,
0010
0001
0000
1000
,
0001
0100
0010
1000
,
0010
1000
0000
0010
,
0100
0000
0100
0010
,
1000
0002
0000
0003
,
1000
0001
0010
0100
,
0010
2000
0000
3000
,
0010
0100
0010
0100
,
0001
2000
0000
3000
,
0001
0010
0200
0300
,
0010
0001
0002
0000
,
1000
0003
1000
0010
,
0100
0110
0000
1001
,
0001
1000
0001
0010
,
0100
0110
0000
0110
,
0100
1000
0010
0100
,
0001
1001
0000
1000
,
0010
1000
0100
0110
,
0010
0001
1000
0001
,
0100
0000
0000
1001
0010
0000
0110
0000
,
0000
1001
1000
1001
,
0000
0011
0001
0011
,
0000
0110
0100
0110
,
0000
1100
1000
0001
,
0000
0001
0100
0010
,
1000
1000
1000
1001
,
0000
0110
0000
0000
,
0000
0010
0000
0000
0000
0001
0000
0000
0000
0010
0000
0000
0000
0110
0000
0000
,
0000
0100
0000
0000
0000
1000
0000
0000
0000
0010
0000
0000
0000
1010
0000
0000
,
0000
1000
0000
0000
0000
0001
0000
0000
0000
0100
0000
0000
0000
0101
0000
0000
,
0000
0010
0000
0000
0000
1000
0000
0000
0000
0100
0000
0000
0000
0011
0000
0000
,
0000
0100
0000
0000
0000
0110
0000
0000
0001
0000
0000
0000
1000
0000
0000
0000
,
0001
0100
0010
1000
,
0100
0010
0001
1000
,
2002
0000
0000
0000
,
0000
0000
3003
0000
;

//---------------dance-single - ----------------
#NOTES:
     dance-single:
     :
     Medium:
     7:
     0.260158,0.319936,0.260158,0.022955,0.107124,238.000000,204.000000,34.000000,3.000000,0.000000,0.000000,0.260158,0.319936,0.260158,0.022955,0.107124,238.000000,204.000000,34.000000,3.000000,0.000000,0.000000:
0000
0000
0000
0000
,
0000
0000
0000
0000
,
0000
0000
0000
0000
,
0000
0000
0000
0000
,
0000
0000
0000
0000
,
0000
0000
0000
0000
,
0000
0000
0000
0000
,
0000
0000
0000
0000
,
0010
0000
0010
0000
1000
0001
1000
0000
,
0100
0000
0010
0000
0001
0010
0100
0000
,
1000
0000
1000
0100
1000
0000
0010
0000
,
0100
0101
0000
1001
,
1000
0000
0010
1000
0100
0000
0010
0000
,
0001
1000
0001
0100
,
0010
0000
1000
0000
0100
0000
1000
0100
,
0100
0010
0100
1001
,
0001
0100
0010
1000
,
0000
0000
1000
0000
0001
1000
0001
0000
,
0010
0001
0100
0010
,
0000
0000
0010
0000
1000
0010
0100
0000
,
0001
0000
0010
0000
0001
1000
0001
0000
,
1000
0000
0000
0000
1000
0100
0010
0000
,
1000
0100
0020
0000
0000
0001
0001
0031
,
0000
0000
0000
0001
0000
0001
0100
0000
,
0010
0000
1000
0000
0000
1000
0001
0000
,
1000
0001
1000
0000
0100
0000
0100
0000
,
0010
0000
0001
0000
0000
0001
0010
0000
,
0001
0010
0100
0000
0010
0000
0010
0000
,
0001
0000
0100
0000
0000
0010
1000
0000
,
1000
0001
1000
0100
,
0001
1000
0001
0100
,
1000
0000
0001
0000
0010
0001
0010
0000
,
0100
0000
1001
0000
0000
0010
1000
0000
,
1000
1001
0011
0101
,
0010
0000
0110
0000
0000
0100
0010
0000
,
1001
1100
0110
0001
,
1000
0000
1001
0000
0000
0010
0001
0000
,
0101
0000
0010
1000
0010
0000
1000
0000
,
1001
0000
0001
1000
0001
0000
1000
0000
,
0001
0000
0000
1000
0101
0000
1010
0000
,
0000
1000
0001
0000
0101
0101
0000
0000
,
1010
1000
1001
0100
,
0000
0100
0010
0000
0110
0110
0000
0000
,
1010
0001
1000
1001
,
0000
0000
1000
0000
1001
1001
0000
0000
,
0001
0010
0100
1001
,
0000
0000
0000
0000
1100
0000
0000
0000
0000
0000
0000
1000
0000
0100
0000
0010
,
0000
0001
0000
0000
0000
0101
0000
0000
0000
1000
0000
0001
0000
1000
0000
0000
,
0000
0010
0000
0010
0000
0010
0000
0000
0000
1000
0000
0100
0000
1000
0000
0000
,
0000
0100
0000
0000
0000
0011
0000
0000
0000
0001
0000
1000
0000
0001
0000
0000
,
0000
0100
0000
0100
0000
0100
0000
0000
0000
0010
0000
1000
0000
0010
0000
0000
,
0000
1000
0000
0000
0000
1001
0000
0000
0110
0000
0110
0000
0000
0000
0000
0000
,
0010
1000
0010
0000
1000
0000
1100
0000
,
0010
0000
0001
0000
1000
0000
0001
0100
,
0020
0000
0000
0000
,
0000
0000
0000
0000
0000
0000
0030
0200
0000
0000
0000
0000
0300
0000
0000
0000
;
