#TITLE:Who's Inside;
#SUBTITLE:;
#ARTIST:Adam Tell;
#TITLETRANSLIT:;
#SUBTITLETRANSLIT:;
#ARTISTTRANSLIT:;
#GENRE:Synth Pop;
#CREDIT:;
#BANNER:Whos Inside.png;
#BACKGROUND:Whos Inside-bg.png;
#LYRICSPATH:;
#CDTITLE:;
#MUSIC:Whos Inside.ogg;
#OFFSET:-0.235817;
#SAMPLESTART:53.214611;
#SAMPLELENGTH:13.241375;
#SELECTABLE:YES;
#BPMS:0.000000=145.000000
,256.000000=290.000000
,320.000000=145.000000
;
#STOPS:
;
#BGCHANGES:;
#KEYSOUNDS:;
#ATTACKS:;

//---------------dance-single - ----------------
#NOTES:
     dance-single:
     :
     Hard:
     15:
     0.649144,0.786191,0.395746,0.176672,0.346278,643.000000,587.000000,56.000000,25.000000,0.000000,0.000000,0.649144,0.786191,0.395746,0.176672,0.346278,643.000000,587.000000,56.000000,25.000000,0.000000,0.000000:
0000
0000
0000
0000
,
0000
0000
0000
0000
,
0000
0000
0000
0000
,
0000
0000
0000
0000
,
0000
0000
0000
0000
,
0000
0000
0000
0000
,
0000
0000
0000
0000
,
0000
0000
0000
0000
,
0100
0000
0100
1000
0010
0000
0010
0100
,
0001
0100
0010
1000
0100
0010
0001
0100
,
0010
0000
0010
1000
0001
0000
0001
0100
,
1000
0100
0001
0010
0010
0100
1000
0001
,
0010
0000
0010
0100
1000
0000
1000
0010
,
0001
0010
1000
0100
1000
0010
0100
0001
,
0100
0002
0100
0003
0110
0000
0010
2000
,
0010
0000
3000
0000
1010
0000
0000
0000
0010
0000
0000
0000
0100
0000
0001
0100
,
0010
0000
1000
0000
0010
0000
0100
0010
0100
0000
0001
0000
0100
0000
0001
0000
,
1000
0000
0100
0000
0010
0000
0001
0000
0010
0001
0010
0000
0100
0000
1000
0000
,
0010
0000
0100
0001
0100
0000
0010
1000
0010
0000
0100
0000
0010
0000
0100
0000
,
0001
0010
0001
0000
0100
0000
0010
0000
1000
0000
0010
1000
0100
0010
0001
0100
,
0010
1000
0010
0100
0001
0010
0100
0000
1000
0000
0001
0000
1000
0000
0001
0000
,
0100
0010
1000
0100
0010
0100
0010
0001
,
0100
0000
0010
1000
0010
0100
0001
0000
0100
0000
1000
0000
0100
0000
0001
0000
,
0010
0000
0100
1000
0100
0000
0010
0000
0001
0000
0100
0000
0010
0000
1000
0000
,
2002
0000
0000
0000
3003
0000
0000
0000
0010
0000
0100
1000
0000
1000
0100
0000
,
0010
0000
0100
0010
0000
0010
0001
0000
0101
0000
0000
0000
0010
0000
0000
0000
,
0210
0000
0000
0000
0310
0000
0000
0000
1000
0000
0001
0100
0000
0100
0010
0000
,
1000
0000
0010
0100
0000
0100
0001
0000
0011
0000
0000
0000
0100
0000
0000
0000
,
2200
0000
0000
0000
3300
0000
0000
0000
0100
0000
0010
0001
0000
0001
1000
0000
,
0001
0000
0100
0010
0000
0010
1000
0000
1100
0000
0000
0000
0010
0000
0000
0000
,
0101
0000
0000
0000
0011
0000
0000
0000
0110
0000
0100
1000
0000
1000
0010
0000
,
0100
0000
0010
0100
0000
0010
0100
0000
0101
0000
0010
0000
1010
0000
0000
0000
,
1100
0000
0000
1100
0000
0000
1000
0000
0100
0000
0010
0001
0000
0100
0001
0100
,
0010
1000
0100
0001
0100
1000
0010
0100
0002
0000
0003
0000
0020
0000
0030
0000
,
2200
0000
0000
0000
0000
0000
3300
0000
0110
0000
0100
0001
0100
0010
1000
0000
,
0000
1010
0000
0000
0101
0000
0000
0010
0001
0000
0100
0000
0001
0000
0010
0000
,
2200
0000
0000
0000
0000
0000
3300
0000
0001
0100
0010
1000
0100
0010
0001
0000
,
0000
0001
0100
0000
0100
0010
0000
0010
1000
0000
0000
0000
0010
0000
1000
0000
,
1100
0010
0001
1000
0100
0001
0100
1000
,
0001
1000
0010
0100
2002
0000
0000
3003
,
0200
0000
0000
0001
0301
0000
0000
0000
,
0001
0100
0001
0010
0100
0010
0011
0001
,
0200
0000
0000
0010
0310
0000
0000
0000
,
0010
1000
0100
0010
0100
1000
1010
0100
,
0002
0000
0000
1000
1003
0000
0000
0000
,
0100
1000
0100
0010
0001
0100
0101
0001
,
0200
0000
0010
0000
0000
0001
0000
0000
0301
0000
0000
0000
0020
0000
0100
0000
,
0000
1000
0000
0000
1030
0000
0100
0000
0010
0000
0100
0000
0010
0000
0001
0000
,
0100
0001
0100
0000
0010
0000
1000
0000
1000
0100
1000
0000
0001
0000
0010
0000
,
0001
0010
0100
0000
1000
0000
0100
0000
0010
0100
0010
0000
0001
0000
0010
0000
,
0100
1000
0100
0000
0010
0000
0001
0000
0001
1000
0001
0000
0100
0000
0010
0000
,
1000
0010
1000
0000
0001
0000
0100
0000
0010
0100
0010
0000
1000
0000
0010
0000
,
1000
0100
1000
0000
0010
0000
0100
0000
0010
1000
0010
0000
0100
0000
0001
0000
,
0010
0001
0010
0000
0100
0000
0100
0000
1000
0100
1000
0000
0010
0000
0100
0000
,
0001
1000
0010
0000
0100
0000
0010
0000
1000
0100
0010
0000
0001
0000
0100
0000
,
0010
1000
0010
0000
0100
0010
0100
0000
0001
0100
0001
0000
1000
0000
0001
0100
,
0010
1000
0010
0100
0010
1000
0100
0001
,
0100
0000
0000
1000
0000
0010
1000
0000
1000
0010
0000
0000
0100
0000
0000
0000
,
0010
0000
1000
0000
0001
1000
0000
0001
0000
0100
0010
0000
1000
0010
0000
0000
,
0100
0000
0010
1000
0000
0100
1000
0000
0010
0100
0000
0001
0010
0001
0100
0010
,
1000
0000
0100
0000
1000
0000
0000
0001
0100
0000
0010
0000
1000
0010
0000
0000
,
0010
0000
0100
0001
0000
0010
0100
0000
1000
0001
0000
0001
1000
0000
0000
0000
,
0100
1000
0100
1000
0100
0010
0100
0010
,
0001
0010
0001
0010
0100
1000
0100
0010
0001
0000
1001
0000
1001
0000
0110
0000
,
0110
0100
0101
0001
,
0010
0100
1000
0100
0010
0001
0000
0001
,
0100
0000
0010
1000
0010
0100
0010
1000
,
0100
0010
1001
1000
,
1010
0100
0110
0010
,
0100
0001
0100
0010
0000
0010
1000
0010
,
1000
0000
0100
0010
0000
0010
0001
0000
,
0011
0100
1010
0001
,
0101
0000
0100
0000
0110
0000
0010
1000
,
0100
0010
0001
0000
1000
0100
0000
1000
,
0010
0000
1000
0001
0000
0100
0010
1000
,
0200
1300
1100
0000
,
1010
0010
0110
0001
,
1000
0010
0000
0100
0001
0000
0010
0001
,
0010
0000
0100
1000
0000
0001
0010
0100
,
2000
3000
0020
0030
0101
0000
1010
0000
,
1001
0000
0010
0000
1010
0010
0100
0001
,
0110
0000
0100
1000
1001
0000
0001
0100
,
0110
0000
1000
0000
1001
0001
0010
0100
,
1000
0000
0010
1000
0010
0000
0100
0000
1001
0000
0000
1000
0001
0000
0000
0000
,
0011
0000
0000
0000
0010
0000
0000
0000
0110
0000
0100
0000
1000
0100
0010
0000
,
0001
0010
0100
1000
0000
0000
0010
0000
0000
1000
0000
0000
0101
0000
0000
0000
0000
0000
1000
0000
0000
0010
0000
0000
,
0110
0000
0100
0000
0001
0000
0010
0000
0011
0000
0100
0010
0001
0000
1000
0000
,
0101
0000
0010
0100
2020
0000
0000
0000
,
0000
0000
0000
0000
,
3030
0000
0000
0000
;

//---------------dance-single - ----------------
#NOTES:
     dance-single:
     :
     Medium:
     13:
     0.521940,0.684075,0.353344,0.282676,0.123671,517.000000,467.000000,50.000000,40.000000,0.000000,0.000000,0.521940,0.684075,0.353344,0.282676,0.123671,517.000000,467.000000,50.000000,40.000000,0.000000,0.000000:
0000
0000
0000
0000
,
0000
0000
0000
0000
,
0000
0000
0000
0000
,
0000
0000
0000
0000
,
0000
0000
0000
0000
,
0000
0000
0000
0000
,
0000
0000
0000
0000
,
0000
0000
0000
0000
,
1000
0000
0100
1000
0100
0000
0010
1000
,
0010
0100
0010
1000
0001
0010
0100
1000
,
0010
0000
0010
0100
0010
0000
1000
0100
,
1000
0010
0100
0001
0001
0010
1000
0010
,
0001
0000
0100
0010
0100
0000
0010
1000
,
0010
0100
0010
1010
0000
0100
1000
0100
,
1000
0002
1000
0000
0013
0000
0010
0200
,
1000
0000
0000
0000
0310
0000
0000
0000
0001
0000
0000
0000
0010
0000
1000
0010
,
1000
0001
1000
0100
0010
0000
0110
0000
,
0100
0010
0100
1000
0001
1000
0100
0010
,
0001
0000
0100
0010
0100
0000
1010
0000
,
0010
0000
1000
0000
0010
0000
0100
0000
0010
0000
1000
0000
0100
1000
0100
1000
,
0100
0010
0100
1000
1000
0000
0011
0000
,
0100
0001
0100
0010
1000
0100
0001
0100
,
1000
0010
2000
0001
3001
0000
0001
0100
,
0002
1000
1003
0000
0010
0100
0010
0100
,
1010
0000
0010
0000
1000
0000
0100
0000
1100
0000
0010
0100
0000
0010
0100
0000
,
0001
0000
0100
0010
0000
0100
0010
0000
1001
0000
0000
0000
2000
0000
0000
0000
,
3020
0000
0000
0000
1030
0000
0001
0000
1000
0000
0010
1000
0000
0010
1000
0000
,
0100
0000
1000
0010
0000
1000
0010
0000
0110
0000
0000
0000
2000
0000
0000
0000
,
3200
0010
0310
0000
0011
0000
0110
0000
,
0020
0000
0000
2030
0000
0000
0002
0000
,
0000
0000
0000
0000
0000
0000
0000
0000
3003
0000
1000
0001
0000
1000
0001
0000
,
0010
0000
0100
1000
0000
0010
0001
0000
0100
0000
0010
0000
1010
0000
0000
0000
,
0110
0000
0000
0101
0000
0000
1000
0000
0001
0000
0000
0010
0000
0000
0100
0000
,
1000
0010
1000
0000
0001
0100
0001
0000
0010
0000
0000
0000
0100
0000
0000
0000
,
2002
0000
0000
0000
3003
0000
0000
0000
1010
0000
0010
1000
0010
1000
0100
0000
,
0000
0110
0000
0000
0110
0000
0000
0000
0001
0000
0010
0000
0100
0000
1000
0000
,
0020
0000
0000
0030
1000
0001
0100
0101
,
0000
0000
1100
0000
0000
0010
0000
0000
1001
0000
0000
0000
0001
0000
0010
0000
,
1000
0010
0001
0100
1000
0100
0001
0010
,
0100
1000
1000
0000
0022
0000
0000
0033
,
0100
0000
0010
1000
0010
0000
0010
0000
,
1000
0100
1000
0100
0010
0001
1000
0010
,
0100
0000
0100
0001
0100
0000
0010
0000
,
1000
0001
1000
0010
0001
0010
1000
0100
,
0010
0000
0001
0010
0001
0000
0001
0000
,
0100
0010
0100
0010
1000
0001
1000
0100
,
0000
0000
0011
0000
0000
0010
0000
0000
0010
0000
0100
0000
0000
0000
1100
0000
,
0000
0010
0000
0000
0010
0000
0100
0000
0000
0000
0000
0000
1001
0000
0001
0000
,
0020
0000
0031
1100
1100
0000
1010
0000
,
0100
0010
0010
1000
0001
0100
0010
1000
,
0200
0000
0310
0001
0001
0000
0101
0000
,
0001
0100
1000
0100
0001
0010
0100
1000
,
0020
0000
1030
0100
0100
0000
0110
0000
,
0001
0001
0010
0010
0100
0010
0100
1000
,
0000
0000
1001
0000
0000
0100
0000
0000
0010
0000
1000
0000
0000
0000
0101
0000
,
0000
0010
0000
0000
0100
0000
1000
0000
0000
0000
0000
0000
0000
0000
0020
0000
,
1000
0000
1000
0000
1030
0001
1000
0100
,
0020
0000
0000
0000
0000
0000
0001
0000
0000
0001
0000
0000
0130
0000
0000
0000
,
2000
0000
0100
0000
3100
0010
0100
1000
,
0002
0000
0000
0000
0000
0000
0100
0000
0000
0100
0000
0000
1003
0000
0000
0000
,
1010
1100
1001
0011
,
0110
0000
1000
0001
1000
0000
0011
0000
,
0001
0100
0001
0100
0010
0100
0010
0100
,
0010
1000
0010
1000
0010
1000
0010
1000
0100
0000
0010
0000
0010
0000
0000
0000
,
0001
1000
0001
0010
,
0001
0000
0100
0001
0000
0001
0100
0000
,
0010
1000
0100
1000
,
2020
3030
0220
0330
,
0010
0100
0001
0100
,
0010
0000
1000
0001
0000
0001
1000
0001
,
1000
0000
0100
0010
0100
0000
1000
0000
,
0022
0033
2200
3300
,
0010
1000
0101
0001
,
0010
0110
0100
1000
,
0001
1000
0010
0001
,
2000
0000
3002
0013
,
0100
1000
0001
1000
,
0100
0010
0000
0010
0001
0000
1000
0000
,
0010
1000
1000
0100
,
0001
0010
0001
0100
,
1000
0000
0010
0000
0110
0100
0001
0000
,
0011
0000
0001
0010
2000
0000
3020
0000
,
0130
0000
0010
0000
0101
0001
0100
0000
,
0010
0000
0100
0010
1000
0000
0000
0000
0022
0000
0033
0000
2002
0000
3003
0000
,
0110
0000
1000
0000
0001
1000
0010
0100
,
0001
0100
0010
0000
1000
0000
0100
0000
1100
0000
0000
0000
0100
0000
1000
0000
,
0010
0001
0010
1000
0100
0001
1000
0010
,
0001
0100
0010
1000
0002
0000
0000
0000
,
0003
0000
0000
0000
;

//---------------dance-single - ----------------
#NOTES:
     dance-single:
     :
     Easy:
     9:
     0.374545,0.503162,0.212007,0.240274,0.049468,371.000000,341.000000,30.000000,34.000000,0.000000,0.000000,0.374545,0.503162,0.212007,0.240274,0.049468,371.000000,341.000000,30.000000,34.000000,0.000000,0.000000:
0000
0000
0000
0000
,
0000
0000
0000
0000
,
0000
0000
0000
0000
,
0000
0000
0000
0000
,
0000
0000
0000
0000
,
0000
0000
0000
0000
,
0000
0000
0000
0000
,
0000
0000
0000
0000
,
0002
0000
0000
1000
1003
0000
0000
0000
,
0010
1000
0010
0000
0100
0001
0100
0001
,
0020
0000
0000
0100
0130
0000
0000
0000
,
1000
0100
0010
0000
0001
0010
0100
1000
,
0200
0000
0000
0010
0310
0000
0000
0000
,
0001
0100
0001
0100
0000
0010
0100
0000
,
0000
1010
0000
0000
1100
0000
0000
0011
,
0000
1001
0000
0000
,
0010
0000
0100
0010
0100
0000
0010
0000
,
1000
0001
1000
0000
0100
0010
0001
0000
,
0010
0000
0001
0100
0001
0000
0100
0010
,
0100
0000
1000
0100
0001
0100
1000
0001
,
0010
0100
1000
0000
0100
0000
0010
0000
,
1000
0010
1000
0000
1000
0100
0010
0001
,
0000
0110
0000
0000
1001
0000
0000
1010
,
0000
0000
0101
0000
0000
0000
0000
0020
,
0000
0100
0100
0000
1000
1000
1030
0000
,
1000
0000
0000
0010
0000
0000
0100
0000
1001
0000
0000
0000
0010
0000
0000
0000
,
0200
0000
0010
0000
0001
0001
0301
0000
,
0010
0000
0000
1000
0000
0000
0100
0000
1100
0000
0000
0000
0001
0000
0000
0000
,
0000
0001
0010
0000
0110
0000
1000
0000
,
0020
0000
0000
2030
0000
0000
0200
0000
,
3300
1100
1100
0110
,
0010
0000
0000
0001
0000
0000
0010
0000
0100
0000
0010
0000
0100
0000
0000
0000
,
0100
0000
0000
0100
0000
0000
0000
0000
0010
0000
0000
0010
0000
0000
0000
0000
,
1000
0001
0010
0100
2000
0000
3002
0000
,
0203
0000
0000
0000
0310
0100
0010
1000
,
0000
1000
0000
0000
1000
0000
0000
0000
0011
0000
0001
0000
0101
0000
0000
0000
,
0020
0000
0000
0000
1030
0100
0010
0001
,
0000
1000
0000
0010
0110
0000
0010
0000
,
1000
0010
0100
0010
1000
0001
1000
0100
,
0010
0001
0001
0000
2200
0000
0000
3300
,
0020
0000
0000
0100
0130
0000
0000
0000
,
0001
0010
0001
1000
,
0200
0000
0000
0001
0301
0000
0000
0000
,
0010
0100
1000
0001
,
0200
0000
0000
1000
1300
0000
0000
0000
,
0010
1000
0010
0000
0100
0010
0100
0000
,
0000
0000
0002
0000
0000
0010
0000
0000
0013
0000
0000
0000
0000
0000
2000
0000
,
0000
0100
0000
0000
3100
0000
0000
0000
0000
0000
0000
0000
0010
0000
0010
0000
,
0000
0000
0001
1000
1000
0000
0100
0000
,
0010
0001
0010
0000
0100
0010
0100
0000
,
1000
0010
0100
0010
,
0100
0001
0100
0000
0010
1000
0010
0000
,
1000
0001
0100
0010
,
1000
1000
0010
0000
0010
0010
0100
0001
,
0000
0000
2000
0000
0000
0001
0000
0000
3001
0000
0000
0000
0000
0000
0020
0000
,
0000
0100
0000
0000
0130
0000
0000
0000
0000
0000
0000
0000
0000
0000
0000
0000
,
1001
0000
0010
0000
1000
0100
1000
0000
,
0100
0000
0000
0010
0000
0000
0100
0000
0000
1000
0000
0000
0001
0000
0000
0000
,
0101
0000
0010
0000
0100
1000
0100
0000
,
0001
0000
0000
0100
0000
0000
1000
0000
0000
0100
0000
0000
0001
0000
0000
0000
,
0010
1000
0001
0000
0100
0000
1000
0000
,
0020
0000
0000
2030
0000
0000
0002
0000
,
0000
0000
0000
3003
,
1000
0001
1000
0001
1000
0001
1000
0000
,
0010
0000
0100
0000
,
0010
1000
0010
0000
,
0100
0010
0100
0010
,
2000
0000
3002
0000
,
0013
0000
0001
0001
,
1000
0000
0000
1000
0000
0000
1000
0000
,
0010
0100
0010
1000
,
0002
0000
0023
0000
,
0130
0000
0110
0000
,
0100
1100
0000
1000
,
0001
0000
1000
0010
,
0200
0000
0320
0000
,
1030
0000
0101
0000
,
0010
0010
0001
0000
,
0001
0000
0101
0000
,
0010
1000
0100
0010
,
0001
0000
0000
0000
1010
0010
0100
0000
,
1100
0000
0010
0001
0020
0000
0230
0000
,
1300
0000
0001
0000
0101
0100
0010
0000
,
0100
0010
0100
0000
0001
0010
0100
0000
,
1001
0000
0010
0000
0110
0010
1000
1000
,
0000
1000
0001
0010
0100
0000
0100
1000
,
0100
1000
0100
0010
0001
0010
0001
0100
,
0010
0010
2002
0000
,
0000
0000
0000
0000
,
3003
0000
0000
0000
;

//---------------dance-single - ----------------
#NOTES:
     dance-single:
     :
     Beginner:
     6:
     0.233207,0.309176,0.113070,0.000000,0.000000,231.000000,215.000000,16.000000,0.000000,0.000000,0.000000,0.233207,0.309176,0.113070,0.000000,0.000000,231.000000,215.000000,16.000000,0.000000,0.000000,0.000000:
// measure 0
0000
0000
0000
0000
,  // measure 1
0000
0000
0000
0000
,  // measure 2
0000
0000
0000
0000
,  // measure 3
0000
0000
0000
0000
,  // measure 4
0000
0000
0000
0000
,  // measure 5
0000
0000
0000
0000
,  // measure 6
0000
0000
0000
0000
,  // measure 7
0000
0000
0000
0000
,  // measure 8
0010
0000
1000
0000
,  // measure 9
1000
0100
1000
0010
,  // measure 10
0100
0000
0001
0000
,  // measure 11
0010
0001
1000
1000
,  // measure 12
0010
0000
0100
0000
,  // measure 13
0100
0010
1000
0001
,  // measure 14
1000
0000
0001
0000
,  // measure 15
0001
0000
1000
0000
,  // measure 16
0000
1001
0000
0010
,  // measure 17
1000
0001
1000
0100
,  // measure 18
0000
0010
0000
0001
,  // measure 19
0100
0010
0100
0001
,  // measure 20
0010
0100
1000
1000
,  // measure 21
0001
0001
1000
1000
,  // measure 22
0010
0000
0100
0000
,  // measure 23
0010
0000
0110
0000
,  // measure 24
1000
0000
0001
0000
,  // measure 25
1000
0000
0000
1000
0000
0000
0001
0000
,  // measure 26
0001
0000
0010
0000
,  // measure 27
0100
0000
0000
0100
0000
0000
0010
0000
,  // measure 28
0010
0000
0001
0000
,  // measure 29
1000
0000
0000
1000
0000
0000
0010
0000
,  // measure 30
0000
0000
0010
0000
,  // measure 31
0100
0000
0100
0110
,  // measure 32
0010
0000
1000
0000
,  // measure 33
0001
0010
0100
1000
,  // measure 34
1000
0000
0000
0000
0010
0000
0000
0100
,  // measure 35
0000
0100
0010
1000
,  // measure 36
0001
0000
1000
0000
,  // measure 37
0100
0010
0100
0010
,  // measure 38
0001
1000
0010
0100
,  // measure 39
0001
1000
1001
0000
,  // measure 40
1000
0000
0001
0000
,  // measure 41
0001
0010
0100
0010
,  // measure 42
0001
0000
0100
0000
,  // measure 43
0010
0100
0010
1000
,  // measure 44
0100
0000
0010
0000
,  // measure 45
0010
0100
1000
0001
,  // measure 46
0000
0001
0001
0000
,  // measure 47
1000
1000
0000
0010
,  // measure 48
0000
0110
0000
1001
,  // measure 49
0000
0101
0000
1010
,  // measure 50
0000
1100
0000
1001
,  // measure 51
0000
1010
0000
0110
,  // measure 52
0000
0101
0000
0011
,  // measure 53
0001
0010
0100
1000
,  // measure 54
1000
0010
1000
0000
,  // measure 55
0001
0100
0000
0010
,  // measure 56
1000
1000
0001
0001
,  // measure 57
0010
0000
0000
0010
0000
0000
0010
0000
,  // measure 58
0100
0100
0010
0010
,  // measure 59
0001
0000
0000
0001
0000
0000
1000
0000
,  // measure 60
0010
1000
0010
1000
,  // measure 61
0001
0100
0001
0100
,  // measure 62
0010
1000
0100
0010
,  // measure 63
0001
1000
0010
0100
,  // measure 64
0001
0000
1000
0000
,  // measure 65
0001
0000
0001
0000
,  // measure 66
1000
0000
1000
0000
,  // measure 67
0010
0000
0010
0000
,  // measure 68
0100
0000
0100
0000
,  // measure 69
0010
0000
0000
0000
,  // measure 70
0010
0000
1000
0000
,  // measure 71
0001
0000
1000
0000
,  // measure 72
0100
0000
0010
0000
,  // measure 73
0000
0010
0000
0000
,  // measure 74
0001
0000
0010
0000
,  // measure 75
0001
0000
0001
0000
,  // measure 76
1000
0000
0010
0000
,  // measure 77
0000
0000
0010
0000
,  // measure 78
1000
0000
0001
0000
,  // measure 79
0100
0000
0010
0000
,  // measure 80
1000
0000
0001
0000
,  // measure 81
1000
0010
0100
0010
,  // measure 82
1000
0000
0001
0000
,  // measure 83
0010
0001
1000
0001
,  // measure 84
0100
0000
0010
0000
,  // measure 85
1000
0001
1001
0001
,  // measure 86
1000
0000
0100
0000
,  // measure 87
0010
0010
0110
0000
;
