#TITLE:Virtual Fish Market;
#SUBTITLE:;
#ARTIST:Ramzoid;
#TITLETRANSLIT:;
#SUBTITLETRANSLIT:;
#ARTISTTRANSLIT:;
#GENRE:;
#CREDIT:;
#BANNER:Virtual Fish Market.png;
#BACKGROUND:Virtual Fish Market-bg.png;
#LYRICSPATH:;
#CDTITLE:;
#MUSIC:Virtual Fish Market.ogg;
#OFFSET:2.006099;
#SAMPLESTART:27.987099;
#SAMPLELENGTH:20.000000;
#LASTBEATHINT:1.559683;
#SELECTABLE:YES;
#BPMS:0.000000=96.000000
;
#STOPS:
;
#BGCHANGES:;
#KEYSOUNDS:;
#ATTACKS:;

//---------------dance-single - ----------------
#NOTES:
     dance-single:
     :
     Beginner:
     1:
     0.129312,0.227756,0.065699,0.000000,0.000000,124.000000,115.000000,9.000000,0.000000,0.000000,0.000000,0.129312,0.227756,0.065699,0.000000,0.000000,124.000000,115.000000,9.000000,0.000000,0.000000,0.000000:
0000
0000
0000
0000
,
0000
0000
0000
0000
,
0000
0000
0000
0000
,
0000
0000
0000
0000
,
0000
0000
0000
0000
,
0000
0000
0000
0000
,
0000
0000
0000
0000
,
0000
0000
0000
0000
,
0010
0010
0010
0000
,
1000
1000
1000
0000
,
0100
0100
0100
0000
,
0010
0000
0010
0000
,
0001
0000
1000
0000
,
0010
0000
1000
1000
,
1000
0000
0100
0000
,
0010
0000
0100
0100
,
0100
0000
0010
0000
,
0001
0000
0001
0001
,
0001
0000
0010
0000
,
0100
0000
1000
1000
,
1000
0000
0010
0000
,
0100
0000
0001
0001
,
0001
0000
0100
0000
,
0010
0000
0100
0100
,
0100
0000
0010
0000
,
1000
0000
0100
0100
,
0100
0000
1000
0000
,
0001
1000
0001
1000
,
0001
0000
0000
0000
,
1000
0000
0000
0000
,
0010
0010
0010
0000
,
0010
0010
0010
0000
,
1000
0000
0000
0000
,
0001
0000
0000
0000
,
0100
0100
0100
0000
,
0010
0010
0010
0000
,
1000
0001
1000
0000
,
0010
1000
0010
0000
,
1000
0100
1000
0000
,
0001
1000
0001
0000
,
0010
0001
0010
0000
,
0001
0100
0001
0000
,
1000
0001
1000
0000
,
0110
0110
0110
1001
,
1000
0000
0100
0000
,
0100
0000
0010
0010
,
0010
0000
0001
0000
,
0100
0000
0001
0001
,
0001
0000
1000
0000
,
0010
0000
0100
0100
,
0100
0000
0010
0000
,
1001
1001
1001
1001
,
1001
0000
0000
0000
;

//---------------dance-single - ----------------
#NOTES:
     dance-single:
     :
     Easy:
     6:
     0.234638,0.290169,0.138697,0.270095,0.288344,225.000000,206.000000,19.000000,37.000000,0.000000,0.000000,0.234638,0.290169,0.138697,0.270095,0.288344,225.000000,206.000000,19.000000,37.000000,0.000000,0.000000:
0000
0000
0000
0000
,
0000
0000
0000
0000
,
0000
0000
0000
0000
,
0000
0000
0000
0000
,
0000
0000
0000
0000
,
0000
0000
0000
0000
,
0000
0000
0000
0000
,
0000
0000
0000
0000
,
0010
0000
0000
0000
0000
0000
0000
0020
0000
0000
0000
0000
0000
0000
0000
0000
,
1030
0000
1000
0000
0000
0000
0000
2000
0000
0000
0000
0000
0000
0000
0000
0000
,
3100
0000
0000
0000
0010
0000
0000
0100
0000
0000
0000
0000
0000
0010
0000
0000
,
0010
0000
0002
0000
,
1003
0000
0000
0000
0000
0000
0000
0010
0000
0010
0000
0000
0000
2000
0000
0000
,
3001
0000
0000
0000
0000
0000
0000
0100
0000
0100
0000
0001
0000
0200
0000
0000
,
0320
0000
0000
0000
0030
0000
0000
1000
0000
1000
0000
0000
0000
0002
0000
0000
,
1003
0000
0000
0000
0001
0000
0000
0010
0000
0010
0000
0000
1001
0000
0000
0000
,
0100
0000
0000
0000
0000
0000
0000
0001
0000
0001
0000
0000
0000
2000
0000
0000
,
3010
0000
0000
0000
0000
0000
0000
1000
0000
1000
0000
0100
0000
0020
0000
0000
,
0032
0000
0000
0000
0003
0000
0000
0100
0000
0100
0000
0000
0000
0002
0000
0000
,
0103
0000
0000
0000
0010
0000
0000
1000
0000
1000
0000
0000
1001
0000
0000
0000
,
0001
0000
0000
0000
0000
0000
0000
0100
0000
0100
0000
0000
0000
0002
0000
0000
,
1003
0000
0000
0000
0000
0000
0000
0010
0000
0010
0000
1000
0000
0020
0000
0000
,
0230
0000
0000
0000
0300
0000
0000
0001
0000
0001
0000
0000
0000
2000
0000
0000
,
3001
0000
0000
0000
1000
0000
0000
0100
0000
0100
0000
0000
1001
0000
0000
0000
,
0010
0000
0000
0000
0000
0000
0000
1000
0000
1000
0000
0000
0000
0002
0000
0000
,
0103
0000
0000
0000
0000
0000
0000
0001
0000
0001
0000
0010
0000
0100
1000
0000
,
0020
0000
0000
0000
1030
0000
0000
0010
0000
0010
0000
0000
0000
2000
0000
0000
,
3010
0101
0011
1100
,
1001
0010
0001
1000
,
0010
0000
0010
0000
1000
0000
0000
0000
0001
0000
0000
1000
0000
0000
0001
0000
,
0010
0000
0000
0000
0100
0000
0000
0020
0030
0000
0000
0000
0000
0200
0000
0000
,
1300
0000
0000
0000
0000
0000
0000
2000
0000
0000
0000
0000
3010
0000
0010
0000
,
0010
1000
0100
0010
,
0001
0000
0001
0000
1000
0000
0000
0000
0010
0000
0000
1000
0000
0000
0010
0000
,
0100
0000
0000
0000
0020
0000
0000
1030
0000
0000
0000
0000
0000
2000
0000
0000
,
3001
1000
2002
3003
,
0010
0001
0010
0001
0010
0001
0010
0000
,
0001
1000
0001
0000
1000
0001
1000
0000
,
0010
0000
1000
0001
0001
0000
1000
1000
,
0010
0000
1001
0000
0100
0001
0100
0000
,
0001
0000
0001
0000
0001
0000
0010
0100
,
1000
0001
1000
0000
0001
1000
0001
0000
,
1000
0000
0010
1000
0010
1000
0010
0000
,
1010
0101
1001
2001
,
3002
0003
0000
0000
0010
0000
0000
0001
0000
0001
0000
0000
0000
2000
0000
0000
,
3010
0000
0000
0000
1000
0000
0000
0100
0000
0100
0000
1000
0000
0002
0000
0000
,
2003
0000
0000
0000
3001
0000
0000
0100
0000
0100
0000
0000
0000
0002
0000
0000
,
0013
0000
0000
0000
0100
0000
0000
0010
0000
0010
0000
0000
0110
0000
0000
0000
,
0011
0000
0000
0000
1000
0000
0000
0010
0000
0010
0000
0000
0000
2000
0000
0000
,
3100
0000
0000
0000
0010
0000
0000
0001
0000
0001
0000
1000
0000
0002
0000
0000
,
0203
0000
0000
0000
0310
0000
0000
1000
0000
1000
0000
0000
0000
0002
0000
0000
,
1003
1010
0101
0011
,
2002
0000
0000
0000
,
3003
0000
0000
0000
;

//---------------dance-single - ----------------
#NOTES:
     dance-single:
     :
     Hard:
     14:
     0.583989,0.657717,0.686186,1.372373,0.806634,560.000000,466.000000,94.000000,188.000000,0.000000,0.000000,0.583989,0.657717,0.686186,1.372373,0.806634,560.000000,466.000000,94.000000,188.000000,0.000000,0.000000:
// measure 0
0000
0000
0000
0000
,  // measure 1
0000
0000
0000
0000
,  // measure 2
0000
0000
0000
0000
,  // measure 3
0000
0000
0000
0000
,  // measure 4
0000
0000
0000
0000
,  // measure 5
0000
0000
0000
0000
,  // measure 6
0000
0000
0000
0000
,  // measure 7
0000
0000
0000
0000
,  // measure 8
1010
0000
0000
0000
0010
0000
0000
2000
0010
0000
0000
0000
3010
0000
0000
0000
,  // measure 9
0110
0000
0100
0000
0010
0000
0000
0200
0010
0000
0000
0310
0000
2000
3010
0000
,  // measure 10
2001
0000
3000
0000
0201
0000
0300
0010
1000
0000
0000
0000
1000
0002
0000
0003
,  // measure 11
1001
0000
0000
0000
0001
0000
0000
0000
0101
0000
0000
0010
1000
0000
0110
0000
,  // measure 12
1001
0000
0000
0000
0001
0000
0100
0000
0010
0000
1000
0000
0100
0000
2200
3300
0000
0000
0022
0033
0000
0000
0001
0000
0010
0000
0220
0000
0000
0330
0000
0000
,  // measure 13
2200
3300
0000
0000
1000
0000
0010
0000
0100
0000
0010
0000
1000
0000
2020
3030
0000
0000
0202
0303
0000
0000
0022
0033
0000
0000
2002
0000
0000
3003
0000
0000
,  // measure 14
0220
0000
0000
0000
0000
0330
0000
0000
1001
0000
0000
0000
0100
0000
0020
0030
0000
0000
0020
0030
0000
0000
1000
0000
0010
0000
0220
0000
0330
0000
0000
0000
,  // measure 15
0202
0303
0000
0000
0001
0000
0010
0000
0100
0000
1000
0000
1000
0000
2002
3003
0000
0000
0011
0000
0001
0000
0100
0000
0010
0000
1000
0000
0100
0000
0010
0000
,  // measure 16
0001
0000
0000
0000
0001
0000
0100
0000
0010
0000
1000
0000
0010
0000
0220
0330
0000
0000
2020
3030
0000
0000
1000
0000
0010
0000
0220
0000
0000
0330
0000
0000
,  // measure 17
0202
0303
0000
0000
0100
0000
0001
0000
0010
0000
0100
0000
1000
0000
2200
3300
0000
0000
0220
0330
0000
0000
0022
0033
0000
0000
2002
0000
0000
3003
0000
0000
,  // measure 18
0220
0000
0000
0000
0000
0330
0000
0000
1010
0000
0000
0000
1000
0000
0002
0003
0000
0000
0002
0003
0000
0000
0100
0000
0010
0000
2020
0000
0000
3030
0000
0000
,  // measure 19
2200
3300
0000
0000
1000
0000
0010
0000
0100
0000
0001
0000
0001
0000
0022
0033
0000
0000
0101
0000
0100
0000
0010
0000
0100
0000
0001
0000
0010
0000
0100
0000
,  // measure 20
1000
0000
0000
0000
0010
0000
1000
0000
0100
0000
0010
0000
0001
0000
0022
0033
0000
0000
2200
3300
0000
0000
1000
0000
0100
0000
0220
0000
0000
0330
0000
0000
,  // measure 21
0022
0033
0000
0000
0001
0000
1000
0000
0010
0000
1000
0000
0001
0000
0202
0303
0000
0000
0022
0033
0000
0000
2020
3030
0000
0000
2002
0000
0000
3003
0000
0000
,  // measure 22
0220
0000
0000
0000
0000
0330
0000
0000
1001
0000
0000
0000
0010
0000
0200
0300
0000
0000
0200
0300
0000
0000
0001
0000
0100
0000
0220
0000
0330
0000
0000
0000
,  // measure 23
2020
3030
0000
0000
1000
0000
0001
0000
0100
0000
0010
0000
0010
0000
2020
3030
0000
0000
0101
0000
0001
0000
0010
0000
0100
0000
1000
0000
0010
0000
0100
0000
,  // measure 24
0001
0000
0000
0000
0010
0000
0001
0000
0100
0000
0010
0000
1000
0000
2200
3300
0000
0000
0202
0303
0000
0000
0001
0000
0100
0000
0220
0000
0000
0330
0000
0000
,  // measure 25
2020
3030
0000
0000
0010
0000
1000
0000
0100
0000
0010
0000
0001
0000
0100
0000
0010
0000
1000
0000
0010
0000
0100
0000
0001
0000
1000
0000
0010
0000
0100
0000
,  // measure 26
0220
0000
0000
0000
0000
0330
0000
0000
0101
0000
0000
0000
0001
0000
2000
3000
0000
0000
1000
0000
0010
0000
0100
0000
0001
0000
0202
0000
0000
0303
0000
0000
,  // measure 27
1001
0000
0000
0000
0000
0000
0001
0000
0010
0000
0100
0000
1000
0000
0000
0000
0000
0000
0220
0000
0000
0330
0000
0000
1001
0000
0000
0000
0000
0000
1000
0000
0100
0000
0010
0000
0001
0000
0000
0000
0000
0000
0001
0000
0100
0000
0010
0000
,  // measure 28
1000
0000
0000
0000
1000
0000
0000
0002
1000
0000
0000
0000
1000
0000
0003
0000
,  // measure 29
1010
0000
0010
0000
1000
0000
0000
0020
1000
0000
0000
0100
0000
0000
1030
0000
,  // measure 30
2100
0000
0000
0000
3100
0000
0000
0020
0031
0000
0000
0000
0001
2000
3000
0000
,  // measure 31
1001
0000
0000
0000
0001
0000
0000
0200
0010
0000
0000
0000
0320
0000
2030
0000
,  // measure 32
3100
0000
0000
0000
0010
0000
0000
0001
0010
0000
0000
0000
0001
0000
0000
0000
,  // measure 33
0100
0000
0010
0000
0100
0000
0000
0001
1000
0000
0000
0010
0000
1000
0010
0000
,  // measure 34
1000
0000
0000
0000
0001
0000
0000
0010
0001
0000
0000
0000
0001
0100
0000
0000
,  // measure 35
0110
0000
0000
0000
1000
0000
0000
0000
0010
1000
0100
1000
0100
0010
0001
0100
,  // measure 36
0001
0010
0100
1000
0010
1000
0001
0100
0010
1000
0001
0100
0010
1000
0100
0010
,  // measure 37
0001
1000
0010
1000
0001
0100
0010
0100
0001
0010
0100
1000
0100
0010
0001
1000
,  // measure 38
0000
0000
0000
0000
0001
0000
0100
0000
0010
0000
0100
0000
0002
0003
2000
3000
0200
0300
0020
0030
0200
0300
2000
3000
0020
0030
0200
0300
0002
0003
0020
0030
,  // measure 39
0100
0000
0000
0000
0000
0000
0000
0000
0010
0000
0000
0000
0000
0000
0000
0000
0001
0000
0000
0000
0000
0000
0000
0000
1000
0000
0000
0000
0000
0000
0000
0000
0000
0000
0000
0000
0010
0000
0000
0000
0000
0000
0000
0000
0000
0000
0000
0000
0100
0000
0000
0000
0000
0000
0000
0000
0000
0000
0000
0000
0001
0000
0000
0000
0000
0000
0000
0000
0000
0000
0000
0000
2000
0000
0000
0000
0000
0000
3000
0000
0000
0000
0000
0000
0200
0000
0000
0000
0000
0000
0300
0000
0000
0000
0000
0000
2000
0000
0000
0000
0000
0000
3000
0000
0000
0000
0000
0000
0002
0000
0000
0000
0000
0000
0003
0000
0000
0000
0000
0000
0020
0000
0000
0000
0000
0000
0030
0000
0000
0000
0000
0000
0002
0000
0000
0000
0000
0000
0003
0000
0000
0000
0000
0000
0100
0000
0000
0000
0000
0000
0000
0000
0001
0000
0000
0000
0000
0000
0000
0000
0100
0000
0000
0000
0000
0000
0000
0000
0020
0000
0000
0000
0000
0000
0030
0000
0000
0000
0000
0000
1000
0000
0000
0000
0000
0000
0000
0000
0000
0000
0000
0000
,  // measure 40
0000
0000
0100
1000
0010
0100
0001
0010
0100
1000
0010
0100
0001
0010
0100
1000
,  // measure 41
0010
1000
0010
0100
0001
0010
0001
1000
0100
1000
0010
0100
0001
0010
0100
1000
,  // measure 42
0000
0000
0000
0000
0100
0000
1000
0000
0010
0000
0100
0000
0020
0030
2000
3000
0002
0003
0020
0030
0200
0300
0020
0030
0002
0003
0200
0300
0020
0030
2000
3000
,  // measure 43
0001
0000
0010
0001
0010
0100
0010
0001
0010
0100
1000
0100
1000
0001
0010
0100
,  // measure 44
1000
0000
0000
0000
0001
0000
0100
0000
0010
0000
1000
0000
0100
0000
2200
3300
0000
0000
0022
0033
0000
0000
0001
0000
0010
0000
0220
0000
0000
0330
0000
0000
,  // measure 45
2200
3300
0000
0000
1000
0000
0010
0000
0100
0000
0010
0000
1000
0000
2020
3030
0000
0000
0202
0303
0000
0000
0022
0033
0000
0000
2002
0000
0000
3003
0000
0000
,  // measure 46
0220
0000
0000
0000
0000
0330
0000
0000
1001
0000
0000
0000
0100
0000
0020
0030
0000
0000
0020
0030
0000
0000
1000
0000
0010
0000
0220
0000
0330
0000
0000
0000
,  // measure 47
0202
0303
0000
0000
0001
0000
0010
0000
0100
0000
1000
0000
1000
0000
2002
3003
0000
0000
0011
0000
0001
0000
0100
0000
0010
0000
1000
0000
2020
0000
3030
0000
,  // measure 48
1001
0000
0000
0000
0001
0000
0100
0000
0010
0000
1000
0000
0010
0000
0220
0330
0000
0000
2020
3030
0000
0000
1000
0000
0010
0000
0220
0000
0000
0330
0000
0000
,  // measure 49
0202
0303
0000
0000
0100
0000
0001
0000
0010
0000
0100
0000
1000
0000
2200
3300
0000
0000
0220
0330
0000
0000
0022
0033
0000
0000
2002
0000
0000
3003
0000
0000
,  // measure 50
0220
0000
0000
0000
0000
0330
0000
0000
1010
0000
0000
0000
1000
0000
0002
0003
0000
0000
0001
0000
0100
0000
0010
0000
1000
0000
2020
0000
0000
3030
0000
0000
,  // measure 51
2200
0000
0000
0000
0000
0000
3300
0000
0000
0000
0000
0000
0000
0000
0000
0000
0000
0000
0000
0000
0000
0000
0000
0000
1000
0000
0000
0000
0000
0000
0000
0000
0100
0000
0000
0000
0000
0000
0000
0000
0010
0000
0000
0000
0000
0000
0000
0000
0001
0000
0000
0000
0000
0000
0000
0000
0000
0000
0000
0000
0000
0000
0000
0000
0000
0000
0000
0000
0000
0000
0000
0000
0202
0000
0000
0000
0000
0000
0000
0000
0000
0000
0000
0000
0303
0000
0000
0000
0000
0000
0000
0000
0000
0000
0000
0000
0011
0000
0000
0000
0000
0000
0000
0000
0000
0000
0000
0000
0000
0000
0000
0000
0000
0000
0000
0000
0000
0000
0000
0000
0001
0000
0000
0000
0000
0000
0000
0000
0010
0000
0000
0000
0000
0000
0000
0000
0100
0000
0000
0000
0000
0000
0000
0000
1000
0000
0000
0000
0000
0000
0000
0000
0000
0000
0000
0000
0000
0000
0000
0000
0000
0000
0000
0000
0000
0000
0000
0000
0001
0000
0000
0000
0000
0000
0000
0000
0100
0000
0000
0000
0000
0000
0000
0000
0010
0000
0000
0000
0000
0000
0000
0000
,  // measure 52
2000
0000
0000
0000
,  // measure 53
3000
0000
0000
0000
;

//---------------dance-single - ----------------
#NOTES:
     dance-single:
     :
     Medium:
     12:
     0.409835,0.502960,0.277395,0.211696,0.481791,393.000000,355.000000,38.000000,29.000000,0.000000,0.000000,0.409835,0.502960,0.277395,0.211696,0.481791,393.000000,355.000000,38.000000,29.000000,0.000000,0.000000:
0000
0000
0000
0000
,
0000
0000
0000
0000
,
0000
0000
0000
0000
,
0000
0000
0000
0000
,
0000
0000
0000
0000
,
0000
0000
0000
0000
,
0000
0000
0000
0000
,
0000
0000
0000
0000
,
1001
0000
0000
0000
0010
0000
0000
0001
0020
0000
0000
0000
0031
0000
0000
0000
,
1100
0000
1000
0000
0100
0000
0000
2000
0100
0000
0000
0100
0000
0000
3100
0000
,
0010
0000
0000
0000
0100
0000
0000
0010
0000
0000
0000
0000
0010
0001
0000
0000
,
0001
0000
0000
0000
0100
0000
0000
0000
0010
0000
0000
1000
0010
0000
1000
0000
,
1001
0000
0010
0000
0001
0000
0100
0010
0000
0010
0000
1000
0001
0200
0000
0000
,
0301
0000
0010
0000
0100
0000
1000
0100
0000
1000
0000
0010
0000
0110
0000
0000
,
1001
0000
0000
0000
0100
0000
0100
0001
0000
0001
0000
0100
0010
1000
0000
0000
,
1010
0000
1000
0100
0010
0100
0010
0010
0000
0001
0000
1000
0001
0000
0010
0000
,
0100
0000
1000
0000
0100
0000
0010
0100
0000
0100
0000
1000
0001
0020
0000
0000
,
0031
0000
0100
0000
0001
0000
0100
0010
0000
0010
0000
1000
0000
1001
0000
0000
,
0101
0000
0000
0000
1000
0000
0010
1000
0000
1000
0000
0001
1000
0020
0000
0000
,
0130
0000
0001
0100
0010
1000
0001
1000
0000
0100
0000
0010
0100
0000
1000
0000
,
1001
0000
0010
0000
0001
0000
0100
0010
0000
0010
0000
1000
0010
0200
0000
0000
,
0301
0000
0010
0000
0001
0000
1000
0100
0000
1000
0000
0010
0000
0110
0000
0000
,
0101
0000
0000
0000
1000
0000
0010
1000
0000
1000
0000
0010
0100
0002
0000
0000
,
1003
0000
0010
0001
0010
0100
1000
1000
0000
0010
0000
0100
0010
0000
1000
0000
,
1001
0000
0100
0001
0100
0000
0010
1000
0000
1000
0000
0001
1000
0200
0000
0000
,
0310
0000
0001
0000
1000
0000
0001
0000
0010
0001
0010
0100
0010
0100
1000
0000
,
0010
0000
0000
0000
1001
0000
1000
0001
0000
0000
0001
1000
0000
1010
0000
0000
,
0101
0010
1100
0010
1001
0100
1001
0010
,
1100
0000
0000
0000
0010
0000
0000
2000
0010
0000
0000
0000
0010
0000
0000
0000
,
3001
0000
0001
0000
0010
0000
0000
0002
0010
0000
0000
0010
0000
0000
0013
0000
,
2000
0000
0000
0000
3001
0000
0000
0200
0301
0000
0000
0000
0001
2000
0000
0000
,
3010
0000
0000
0000
0010
0000
0000
2000
0100
0000
0000
0000
3100
0000
0010
0000
,
0001
0000
0000
0000
1000
0000
0000
0010
1000
0000
0000
0000
0001
0000
0000
0000
,
0010
0000
0001
0000
0100
0000
0000
0010
0100
0000
0000
0001
0000
0000
1000
0000
,
0010
1000
0001
1000
0100
1000
0010
0000
,
1000
0001
0010
0001
0200
0000
0000
0300
,
0010
1000
0001
0100
0010
0000
1000
0010
0000
0010
0000
1000
0100
0010
0000
0000
,
0011
0000
1000
0000
0001
0000
0100
0010
0000
0010
0000
1000
0001
0100
0000
0000
,
1001
0000
0000
0000
0010
0000
0001
0010
0100
1000
0100
0010
0001
1000
0100
0010
,
0000
0000
0000
0000
1001
0000
0001
0100
0010
1000
0010
0100
0001
1000
0010
0100
,
0001
0000
0000
0000
0001
0000
0000
0000
0001
0000
0000
0000
0022
0033
0220
0330
,
2100
0000
3010
0000
0100
0000
0001
0100
0000
0100
0000
0001
1000
0010
0000
0000
,
1010
0000
0000
0000
1001
0000
0010
1000
0010
0100
0001
0100
0010
1000
0010
0100
,
0002
0003
0000
0000
2000
3000
0000
0000
0002
0003
0000
0000
2000
0000
0000
0000
,
3100
0000
0010
0000
0001
0000
0100
0001
0000
0001
0000
0100
0010
2000
0000
0000
,
3010
0000
0100
0000
0001
0000
0010
0100
0000
1000
0000
0100
0000
0110
0000
0000
,
1001
0000
0000
0000
0010
0000
0001
0100
0000
0100
0000
0010
0100
0002
0000
0000
,
0013
0000
0100
0000
1000
0000
0100
1000
0000
0010
0000
0100
0010
0000
1000
0000
,
1001
0000
0001
0000
0100
0000
0001
0010
0000
0010
0000
0100
1000
0200
0000
0000
,
0310
0000
0001
0000
1000
0000
0100
1000
0000
0010
0000
0100
0000
0110
0000
0000
,
1001
0000
0000
0000
0010
0000
0001
0100
0000
0000
0100
0010
0000
1010
0000
0000
,
1001
0010
1100
0010
0101
1000
0110
0001
,
2002
0000
0000
0000
,
3003
0000
0000
0000
;
