#TITLE:Unreal;
#SUBTITLE:;
#ARTIST:Black Rose Garden;
#TITLETRANSLIT:;
#SUBTITLETRANSLIT:;
#ARTISTTRANSLIT:;
#GENRE:;
#CREDIT:;
#BANNER:Unreal.png;
#BACKGROUND:Unreal-bg.png;
#LYRICSPATH:;
#CDTITLE:;
#MUSIC:Unreal.ogg;
#OFFSET:0.000000;
#SAMPLESTART:28.031298;
#SAMPLELENGTH:10.666666;
#SELECTABLE:YES;
#DISPLAYBPM:90.000000:180.000000;
#BPMS:0.000000=180.000000
,184.000000=90.000000
,200.000000=180.000000
;
#STOPS:
;
#BGCHANGES:0.000=Unreal.avi=1.000=0=0=0=StretchNoLoop====,
99999=-nosongbg-=1.000=0=0=0 // don't automatically add -songbackground-
;
#KEYSOUNDS:;
#ATTACKS:;

//---------------dance-single - ----------------
#NOTES:
     dance-single:
     :
     Challenge:
     15:
     0.797619,0.960677,0.427083,0.020833,0.244792,536.000000,495.000000,41.000000,2.000000,0.000000,0.000000,0.797619,0.960677,0.427083,0.020833,0.244792,536.000000,495.000000,41.000000,2.000000,0.000000,0.000000:
// measure 0
0000
0000
0000
0000
,  // measure 1
0000
0000
0000
0000
,  // measure 2
0000
0000
0000
0000
,  // measure 3
0000
0000
0000
0000
,  // measure 4
0000
0000
0000
0000
,  // measure 5
0000
0000
0000
0000
0000
0000
0000
1010
,  // measure 6
0000
1000
0100
1000
0010
0100
0010
0100
,  // measure 7
0001
1000
0001
0010
0100
1000
0010
0101
,  // measure 8
0000
0000
0100
0000
0110
0000
0000
0000
0010
0000
0010
0000
0100
0000
0001
1000
,  // measure 9
0001
0000
0010
0000
0100
0000
1000
0001
0010
0000
0100
0000
0010
0000
0100
0000
,  // measure 10
1100
0000
1000
0001
1001
0000
0001
0100
,  // measure 11
0010
0100
0001
0101
0000
0110
0000
1010
,  // measure 12
0000
0010
0100
0100
0010
1000
0100
0010
,  // measure 13
0100
0000
1000
0000
0001
0000
0010
0001
1000
0000
1000
0000
0001
0000
0101
0000
,  // measure 14
0000
0100
0001
1000
1001
0000
1000
0100
,  // measure 15
0010
0100
1000
1100
0000
0110
0000
0011
,  // measure 16
0000
0010
0100
0100
0010
0001
0100
0010
,  // measure 17
0100
0000
0010
0000
1000
0000
0100
0010
0001
0000
1000
0000
0010
0000
0000
0000
,  // measure 18
0110
0000
0000
1002
0000
0000
0100
0000
,  // measure 19
0023
0100
0100
0000
0000
0000
0000
0030
,  // measure 20
0100
0000
0100
0000
0000
0000
1000
0000
0100
1000
0001
0000
0001
0000
0100
0001
,  // measure 21
0010
0000
0010
0000
0100
0010
0001
0000
1000
0000
0001
0100
0010
1000
0001
1000
,  // measure 22
0100
0100
0010
0100
1000
1000
0010
0100
,  // measure 23
0001
0001
0010
0001
0100
0100
0010
1000
,  // measure 24
0100
0010
0011
0001
1000
1000
0010
0100
,  // measure 25
0001
0001
0010
0100
1000
1000
0001
0010
,  // measure 26
0110
0100
1000
0010
0100
0100
0001
1000
,  // measure 27
0010
0010
1000
0100
0010
0010
0001
1000
,  // measure 28
0100
0100
0001
1000
0010
0010
0001
0100
,  // measure 29
0010
0000
0010
0000
0001
0000
1000
0000
0100
0000
0100
0000
0001
0000
0001
0010
,  // measure 30
0100
1000
0010
1000
0001
0100
0101
0000
,  // measure 31
1001
0000
0010
0001
1000
0100
1100
0000
,  // measure 32
1001
0000
0001
1000
0100
0010
0001
0100
,  // measure 33
1000
0100
0001
0010
0100
1000
0001
0010
,  // measure 34
0011
0001
0010
0100
1000
0010
0100
0001
,  // measure 35
1000
0100
0010
0001
0100
0010
0100
0001
,  // measure 36
1000
0000
0100
0010
0001
0000
0010
0000
0100
0000
1000
0000
0010
0000
0100
0000
,  // measure 37
0001
0100
0001
0000
1000
0000
0001
0000
0010
0000
0100
0000
0100
0000
0010
0001
,  // measure 38
1000
0010
0010
0100
0010
0010
1000
0100
,  // measure 39
0100
0010
0100
1000
0010
0001
0010
1000
,  // measure 40
0001
0000
0100
0001
0100
0000
0010
0100
0010
0000
1000
0000
0001
0000
0001
0000
,  // measure 41
0010
0000
0100
0000
0010
0000
0001
1000
0100
0000
0100
0000
0010
0000
1001
0000
,  // measure 42
0000
1000
1000
0010
0100
0001
0100
0010
,  // measure 43
0010
0000
1000
0001
0100
0000
0001
1000
0100
0010
0001
0100
0010
0000
1010
0000
,  // measure 44
1000
0100
1100
1000
0001
0011
0010
0100
,  // measure 45
0110
0000
0010
0000
0001
0000
0100
0010
1000
0000
0001
0000
1000
0000
0100
0000
,  // measure 46
0010
0000
0010
0000
0011
0000
0001
1000
0100
0000
1000
0010
0001
0010
1000
0001
,  // measure 47
0100
0000
0100
0000
1001
0000
1000
0001
0100
0000
0001
0010
1000
0010
0001
1000
,  // measure 48
0100
0000
0100
0000
1100
0000
1000
0010
0100
0000
0001
1000
0100
1000
0001
0010
,  // measure 49
0100
0000
0100
0000
0110
0000
0010
0100
1000
0000
1000
0001
0000
0001
1000
0000
,  // measure 50
1001
0001
0100
0010
1000
1000
0010
0100
,  // measure 51
0001
0001
0010
0100
1000
1000
0100
0010
,  // measure 52
0001
0001
1000
0010
0100
0100
1000
0100
,  // measure 53
0001
0001
0010
0100
0001
0001
0100
1000
,  // measure 54
1100
0100
0010
0001
0100
0010
1000
0001
,  // measure 55
1000
0100
0010
0001
0100
0001
1000
0010
,  // measure 56
0100
0000
0010
1000
0001
0000
1000
0000
0001
0000
0010
0000
0100
0000
1000
0000
,  // measure 57
0001
0010
0001
0000
0100
0000
0010
0000
1000
0000
0001
0000
0001
0000
1000
0000
,  // measure 58
1001
0001
0100
0010
0100
0001
0100
0010
,  // measure 59
1000
0100
0010
0100
1000
0001
0100
0101
,  // measure 60
0001
0000
1000
0000
1010
0000
0010
0000
0100
0000
0010
0000
1000
0000
0001
1000
,  // measure 61
0100
0010
0001
1000
0010
0010
0010
1001
,  // measure 62
0000
0001
0001
0010
1000
1000
0010
0001
,  // measure 63
0100
0000
0010
0100
0001
1000
0010
0000
1000
0000
0100
0000
0010
0000
0011
0000
,  // measure 64
0000
0000
0100
1000
0001
0000
0010
0001
1000
0000
1000
0000
0100
0010
0001
0000
,  // measure 65
0001
0000
1010
0000
1000
0010
1000
0010
0100
0000
0010
0000
0110
0000
1001
0000
;
